<?xml version="1.0" standalone="no"?>
<!DOCTYPE svg PUBLIC "-//W3C//DTD SVG 1.1//EN" "http://www.w3.org/Graphics/SVG/1.1/DTD/svg11.dtd" >
<svg xmlns="http://www.w3.org/2000/svg">
<metadata>
This is a custom SVG webfont generated by Font Squirrel.
Copyright   : Generated in 2011 by FontLab Studio Copyright info pending
</metadata>
<defs>
<font id="ParticulesE" horiz-adv-x="480" >
<font-face units-per-em="1000" ascent="800" descent="-200" />
<missing-glyph horiz-adv-x="300" />
<glyph unicode=" "  horiz-adv-x="300" />
<glyph unicode="&#x09;" horiz-adv-x="300" />
<glyph unicode="&#xa0;" horiz-adv-x="300" />
<glyph unicode="!" horiz-adv-x="360" d="M140 9v41q0 9 9 9t9 -9v-41q0 -9 -9 -9t-9 9zM200 69v41q0 9 9 9t9 -9v-41q0 -9 -9 -9t-9 9zM200 189v41q0 9 9 9t9 -9v-41q0 -9 -9 -9t-9 9zM200 249v41q0 9 9 9t9 -9v-41q0 -9 -9 -9t-9 9zM200 309v41q0 9 9 9t9 -9v-41q0 -9 -9 -9t-9 9zM200 369v41q0 9 9 9t9 -9v-41 q0 -9 -9 -9t-9 9zM200 429v41q0 9 9 9t9 -9v-41q0 -9 -9 -9t-9 9zM200 489v41q0 9 9 9t9 -9v-41q0 -9 -9 -9t-9 9zM140 69v41q0 9 9 9t9 -9v-41q0 -9 -9 -9t-9 9zM140 189v41q0 9 9 9t9 -9v-41q0 -9 -9 -9t-9 9zM140 249v41q0 9 9 9t9 -9v-41q0 -9 -9 -9t-9 9zM140 309v41 q0 9 9 9t9 -9v-41q0 -9 -9 -9t-9 9zM140 369v41q0 9 9 9t9 -9v-41q0 -9 -9 -9t-9 9zM140 429v41q0 9 9 9t9 -9v-41q0 -9 -9 -9t-9 9zM140 489v41q0 9 9 9t9 -9v-41q0 -9 -9 -9t-9 9zM200 9v41q0 9 9 9t9 -9v-41q0 -9 -9 -9t-9 9z" />
<glyph unicode="&#x22;" horiz-adv-x="420" d="M260 369v41q0 9 9 9t9 -9v-41q0 -9 -9 -9t-9 9zM260 429v41q0 9 9 9t9 -9v-41q0 -9 -9 -9t-9 9zM260 489v41q0 9 9 9t9 -9v-41q0 -9 -9 -9t-9 9zM140 369v41q0 9 9 9t9 -9v-41q0 -9 -9 -9t-9 9zM140 429v41q0 9 9 9t9 -9v-41q0 -9 -9 -9t-9 9zM140 489v41q0 9 9 9t9 -9 v-41q0 -9 -9 -9t-9 9z" />
<glyph unicode="#" d="M98 110v-41q0 -9 -9 -9t-9 9v41q0 9 9 9t9 -9zM98 50v-41q0 -9 -9 -9t-9 9v41q0 9 9 9t9 -9zM158 230v-41q0 -9 -9 -9t-9 9v41q0 9 9 9t9 -9zM98 170v-41q0 -9 -9 -9t-9 9v41q0 9 9 9t9 -9zM158 350v-41q0 -9 -9 -9t-9 9v41q0 9 9 9t9 -9zM158 290v-41q0 -9 -9 -9t-9 9 v41q0 9 9 9t9 -9zM218 470v-41q0 -9 -9 -9t-9 9v41q0 9 9 9t9 -9zM218 410v-41q0 -9 -9 -9t-9 9v41q0 9 9 9t9 -9zM218 530v-41q0 -9 -9 -9t-9 9v41q0 9 9 9t9 -9zM278 110v-41q0 -9 -9 -9t-9 9v41q0 9 9 9t9 -9zM278 50v-41q0 -9 -9 -9t-9 9v41q0 9 9 9t9 -9zM338 230v-41 q0 -9 -9 -9t-9 9v41q0 9 9 9t9 -9zM278 170v-41q0 -9 -9 -9t-9 9v41q0 9 9 9t9 -9zM338 350v-41q0 -9 -9 -9t-9 9v41q0 9 9 9t9 -9zM338 290v-41q0 -9 -9 -9t-9 9v41q0 9 9 9t9 -9zM398 470v-41q0 -9 -9 -9t-9 9v41q0 9 9 9t9 -9zM398 410v-41q0 -9 -9 -9t-9 9v41q0 9 9 9 t9 -9zM398 530v-41q0 -9 -9 -9t-9 9v41q0 9 9 9t9 -9zM158 410v-41q0 -9 -9 -9t-9 9v41q0 9 9 9t9 -9zM98 410v-41q0 -9 -9 -9t-9 9v41q0 9 9 9t9 -9zM278 410v-41q0 -9 -9 -9t-9 9v41q0 9 9 9t9 -9zM338 410v-41q0 -9 -9 -9t-9 9v41q0 9 9 9t9 -9zM458 410v-41q0 -9 -9 -9 t-9 9v41q0 9 9 9t9 -9zM38 170v-41q0 -9 -9 -9t-9 9v41q0 9 9 9t9 -9zM158 170v-41q0 -9 -9 -9t-9 9v41q0 9 9 9t9 -9zM218 170v-41q0 -9 -9 -9t-9 9v41q0 9 9 9t9 -9zM338 170v-41q0 -9 -9 -9t-9 9v41q0 9 9 9t9 -9zM398 170v-41q0 -9 -9 -9t-9 9v41q0 9 9 9t9 -9z" />
<glyph unicode="$" horiz-adv-x="420" d="M200 249v41q0 9 9 9t9 -9v-41q0 -9 -9 -9t-9 9zM80 69v41q0 9 9 9t9 -9v-41q0 -9 -9 -9t-9 9zM200 189v41q0 9 9 9t9 -9v-41q0 -9 -9 -9t-9 9zM260 9v41q0 9 9 9t9 -9v-41q0 -9 -9 -9t-9 9zM320 69v41q0 9 9 9t9 -9v-41q0 -9 -9 -9t-9 9zM320 129v41q0 9 9 9t9 -9v-41 q0 -9 -9 -9t-9 9zM320 189v41q0 9 9 9t9 -9v-41q0 -9 -9 -9t-9 9zM320 429v41q0 9 9 9t9 -9v-41q0 -9 -9 -9t-9 9zM260 69v41q0 9 9 9t9 -9v-41q0 -9 -9 -9t-9 9zM260 129v41q0 9 9 9t9 -9v-41q0 -9 -9 -9t-9 9zM260 189v41q0 9 9 9t9 -9v-41q0 -9 -9 -9t-9 9zM260 249v41 q0 9 9 9t9 -9v-41q0 -9 -9 -9t-9 9zM260 429v41q0 9 9 9t9 -9v-41q0 -9 -9 -9t-9 9zM260 489v41q0 9 9 9t9 -9v-41q0 -9 -9 -9t-9 9zM200 9v41q0 9 9 9t9 -9v-41q0 -9 -9 -9t-9 9zM140 9v41q0 9 9 9t9 -9v-41q0 -9 -9 -9t-9 9zM200 309v41q0 9 9 9t9 -9v-41q0 -9 -9 -9t-9 9 zM200 489v41q0 9 9 9t9 -9v-41q0 -9 -9 -9t-9 9zM140 249v41q0 9 9 9t9 -9v-41q0 -9 -9 -9t-9 9zM140 309v41q0 9 9 9t9 -9v-41q0 -9 -9 -9t-9 9zM140 369v41q0 9 9 9t9 -9v-41q0 -9 -9 -9t-9 9zM140 429v41q0 9 9 9t9 -9v-41q0 -9 -9 -9t-9 9zM140 489v41q0 9 9 9t9 -9v-41 q0 -9 -9 -9t-9 9zM80 309v41q0 9 9 9t9 -9v-41q0 -9 -9 -9t-9 9zM80 369v41q0 9 9 9t9 -9v-41q0 -9 -9 -9t-9 9zM80 429v41q0 9 9 9t9 -9v-41q0 -9 -9 -9t-9 9zM200 549v41q0 9 9 9t9 -9v-41q0 -9 -9 -9t-9 9zM200 609v41q0 9 9 9t9 -9v-41q0 -9 -9 -9t-9 9zM200 -51v41 q0 9 9 9t9 -9v-41q0 -9 -9 -9t-9 9zM200 -111v41q0 9 9 9t9 -9v-41q0 -9 -9 -9t-9 9z" />
<glyph unicode="%" horiz-adv-x="660" d="M218 110v-41q0 -9 -9 -9t-9 9v41q0 9 9 9t9 -9zM218 50v-41q0 -9 -9 -9t-9 9v41q0 9 9 9t9 -9zM278 230v-41q0 -9 -9 -9t-9 9v41q0 9 9 9t9 -9zM278 170v-41q0 -9 -9 -9t-9 9v41q0 9 9 9t9 -9zM338 350v-41q0 -9 -9 -9t-9 9v41q0 9 9 9t9 -9zM338 290v-41q0 -9 -9 -9 t-9 9v41q0 9 9 9t9 -9zM398 470v-41q0 -9 -9 -9t-9 9v41q0 9 9 9t9 -9zM398 410v-41q0 -9 -9 -9t-9 9v41q0 9 9 9t9 -9zM458 590v-41q0 -9 -9 -9t-9 9v41q0 9 9 9t9 -9zM458 530v-41q0 -9 -9 -9t-9 9v41q0 9 9 9t9 -9zM278 530v-41q0 -9 -9 -9t-9 9v41q0 9 9 9t9 -9z M278 470v-41q0 -9 -9 -9t-9 9v41q0 9 9 9t9 -9zM98 530v-41q0 -9 -9 -9t-9 9v41q0 9 9 9t9 -9zM98 470v-41q0 -9 -9 -9t-9 9v41q0 9 9 9t9 -9zM158 590v-41q0 -9 -9 -9t-9 9v41q0 9 9 9t9 -9zM218 590v-41q0 -9 -9 -9t-9 9v41q0 9 9 9t9 -9zM218 410v-41q0 -9 -9 -9t-9 9v41 q0 9 9 9t9 -9zM158 410v-41q0 -9 -9 -9t-9 9v41q0 9 9 9t9 -9zM578 170v-41q0 -9 -9 -9t-9 9v41q0 9 9 9t9 -9zM578 110v-41q0 -9 -9 -9t-9 9v41q0 9 9 9t9 -9zM398 170v-41q0 -9 -9 -9t-9 9v41q0 9 9 9t9 -9zM398 110v-41q0 -9 -9 -9t-9 9v41q0 9 9 9t9 -9zM458 230v-41 q0 -9 -9 -9t-9 9v41q0 9 9 9t9 -9zM518 230v-41q0 -9 -9 -9t-9 9v41q0 9 9 9t9 -9zM518 50v-41q0 -9 -9 -9t-9 9v41q0 9 9 9t9 -9zM458 50v-41q0 -9 -9 -9t-9 9v41q0 9 9 9t9 -9z" />
<glyph unicode="&#x26;" horiz-adv-x="600" d="M338 530v-41q0 -9 -9 -9t-9 9v41q0 9 9 9t9 -9zM338 470v-41q0 -9 -9 -9t-9 9v41q0 9 9 9t9 -9zM338 410v-41q0 -9 -9 -9t-9 9v41q0 9 9 9t9 -9zM518 350v-41q0 -9 -9 -9t-9 9v41q0 9 9 9t9 -9zM338 290v-41q0 -9 -9 -9t-9 9v41q0 9 9 9t9 -9zM338 230v-41q0 -9 -9 -9 t-9 9v41q0 9 9 9t9 -9zM338 170v-41q0 -9 -9 -9t-9 9v41q0 9 9 9t9 -9zM338 110v-41q0 -9 -9 -9t-9 9v41q0 9 9 9t9 -9zM338 50v-41q0 -9 -9 -9t-9 9v41q0 9 9 9t9 -9zM398 470v-41q0 -9 -9 -9t-9 9v41q0 9 9 9t9 -9zM398 410v-41q0 -9 -9 -9t-9 9v41q0 9 9 9t9 -9zM398 290 v-41q0 -9 -9 -9t-9 9v41q0 9 9 9t9 -9zM398 230v-41q0 -9 -9 -9t-9 9v41q0 9 9 9t9 -9zM398 170v-41q0 -9 -9 -9t-9 9v41q0 9 9 9t9 -9zM398 110v-41q0 -9 -9 -9t-9 9v41q0 9 9 9t9 -9zM218 50v-41q0 -9 -9 -9t-9 9v41q0 9 9 9t9 -9zM158 530v-41q0 -9 -9 -9t-9 9v41 q0 9 9 9t9 -9zM98 470v-41q0 -9 -9 -9t-9 9v41q0 9 9 9t9 -9zM98 410v-41q0 -9 -9 -9t-9 9v41q0 9 9 9t9 -9zM98 290v-41q0 -9 -9 -9t-9 9v41q0 9 9 9t9 -9zM98 230v-41q0 -9 -9 -9t-9 9v41q0 9 9 9t9 -9zM98 170v-41q0 -9 -9 -9t-9 9v41q0 9 9 9t9 -9zM98 110v-41 q0 -9 -9 -9t-9 9v41q0 9 9 9t9 -9zM158 470v-41q0 -9 -9 -9t-9 9v41q0 9 9 9t9 -9zM158 410v-41q0 -9 -9 -9t-9 9v41q0 9 9 9t9 -9zM158 350v-41q0 -9 -9 -9t-9 9v41q0 9 9 9t9 -9zM158 290v-41q0 -9 -9 -9t-9 9v41q0 9 9 9t9 -9zM158 230v-41q0 -9 -9 -9t-9 9v41q0 9 9 9 t9 -9zM158 170v-41q0 -9 -9 -9t-9 9v41q0 9 9 9t9 -9zM158 110v-41q0 -9 -9 -9t-9 9v41q0 9 9 9t9 -9zM158 50v-41q0 -9 -9 -9t-9 9v41q0 9 9 9t9 -9zM218 530v-41q0 -9 -9 -9t-9 9v41q0 9 9 9t9 -9zM278 530v-41q0 -9 -9 -9t-9 9v41q0 9 9 9t9 -9zM218 350v-41q0 -9 -9 -9 t-9 9v41q0 9 9 9t9 -9zM278 50v-41q0 -9 -9 -9t-9 9v41q0 9 9 9t9 -9zM518 410v-41q0 -9 -9 -9t-9 9v41q0 9 9 9t9 -9zM458 290v-41q0 -9 -9 -9t-9 9v41q0 9 9 9t9 -9z" />
<glyph unicode="'" horiz-adv-x="180" d="M80 369v41q0 9 9 9t9 -9v-41q0 -9 -9 -9t-9 9zM80 429v41q0 9 9 9t9 -9v-41q0 -9 -9 -9t-9 9zM80 489v41q0 9 9 9t9 -9v-41q0 -9 -9 -9t-9 9z" />
<glyph unicode="(" horiz-adv-x="300" d="M200 549v41q0 9 9 9t9 -9v-41q0 -9 -9 -9t-9 9zM140 369v41q0 9 9 9t9 -9v-41q0 -9 -9 -9t-9 9zM140 429v41q0 9 9 9t9 -9v-41q0 -9 -9 -9t-9 9zM140 489v41q0 9 9 9t9 -9v-41q0 -9 -9 -9t-9 9zM140 189v41q0 9 9 9t9 -9v-41q0 -9 -9 -9t-9 9zM140 249v41q0 9 9 9t9 -9 v-41q0 -9 -9 -9t-9 9zM140 309v41q0 9 9 9t9 -9v-41q0 -9 -9 -9t-9 9zM140 9v41q0 9 9 9t9 -9v-41q0 -9 -9 -9t-9 9zM140 69v41q0 9 9 9t9 -9v-41q0 -9 -9 -9t-9 9zM140 129v41q0 9 9 9t9 -9v-41q0 -9 -9 -9t-9 9zM200 -51v41q0 9 9 9t9 -9v-41q0 -9 -9 -9t-9 9zM80 369v41 q0 9 9 9t9 -9v-41q0 -9 -9 -9t-9 9zM80 429v41q0 9 9 9t9 -9v-41q0 -9 -9 -9t-9 9zM80 189v41q0 9 9 9t9 -9v-41q0 -9 -9 -9t-9 9zM80 249v41q0 9 9 9t9 -9v-41q0 -9 -9 -9t-9 9zM80 309v41q0 9 9 9t9 -9v-41q0 -9 -9 -9t-9 9zM80 69v41q0 9 9 9t9 -9v-41q0 -9 -9 -9t-9 9z M80 129v41q0 9 9 9t9 -9v-41q0 -9 -9 -9t-9 9z" />
<glyph unicode=")" horiz-adv-x="300" d="M98 590v-41q0 -9 -9 -9t-9 9v41q0 9 9 9t9 -9zM158 410v-41q0 -9 -9 -9t-9 9v41q0 9 9 9t9 -9zM158 470v-41q0 -9 -9 -9t-9 9v41q0 9 9 9t9 -9zM158 530v-41q0 -9 -9 -9t-9 9v41q0 9 9 9t9 -9zM158 230v-41q0 -9 -9 -9t-9 9v41q0 9 9 9t9 -9zM158 290v-41q0 -9 -9 -9 t-9 9v41q0 9 9 9t9 -9zM158 350v-41q0 -9 -9 -9t-9 9v41q0 9 9 9t9 -9zM158 50v-41q0 -9 -9 -9t-9 9v41q0 9 9 9t9 -9zM158 110v-41q0 -9 -9 -9t-9 9v41q0 9 9 9t9 -9zM158 170v-41q0 -9 -9 -9t-9 9v41q0 9 9 9t9 -9zM98 -10v-41q0 -9 -9 -9t-9 9v41q0 9 9 9t9 -9zM218 410 v-41q0 -9 -9 -9t-9 9v41q0 9 9 9t9 -9zM218 470v-41q0 -9 -9 -9t-9 9v41q0 9 9 9t9 -9zM218 230v-41q0 -9 -9 -9t-9 9v41q0 9 9 9t9 -9zM218 290v-41q0 -9 -9 -9t-9 9v41q0 9 9 9t9 -9zM218 350v-41q0 -9 -9 -9t-9 9v41q0 9 9 9t9 -9zM218 110v-41q0 -9 -9 -9t-9 9v41 q0 9 9 9t9 -9zM218 170v-41q0 -9 -9 -9t-9 9v41q0 9 9 9t9 -9z" />
<glyph unicode="*" horiz-adv-x="420" d="M200 369v41q0 9 9 9t9 -9v-41q0 -9 -9 -9t-9 9zM200 429v41q0 9 9 9t9 -9v-41q0 -9 -9 -9t-9 9zM200 489v41q0 9 9 9t9 -9v-41q0 -9 -9 -9t-9 9zM80 429v41q0 9 9 9t9 -9v-41q0 -9 -9 -9t-9 9zM80 309v41q0 9 9 9t9 -9v-41q0 -9 -9 -9t-9 9zM140 369v41q0 9 9 9t9 -9v-41 q0 -9 -9 -9t-9 9zM260 369v41q0 9 9 9t9 -9v-41q0 -9 -9 -9t-9 9zM320 429v41q0 9 9 9t9 -9v-41q0 -9 -9 -9t-9 9zM320 309v41q0 9 9 9t9 -9v-41q0 -9 -9 -9t-9 9zM200 309v41q0 9 9 9t9 -9v-41q0 -9 -9 -9t-9 9zM200 249v41q0 9 9 9t9 -9v-41q0 -9 -9 -9t-9 9z" />
<glyph unicode="+" d="M158 290v-41q0 -9 -9 -9t-9 9v41q0 9 9 9t9 -9zM98 290v-41q0 -9 -9 -9t-9 9v41q0 9 9 9t9 -9zM278 290v-41q0 -9 -9 -9t-9 9v41q0 9 9 9t9 -9zM218 290v-41q0 -9 -9 -9t-9 9v41q0 9 9 9t9 -9zM338 290v-41q0 -9 -9 -9t-9 9v41q0 9 9 9t9 -9zM398 290v-41q0 -9 -9 -9 t-9 9v41q0 9 9 9t9 -9zM458 290v-41q0 -9 -9 -9t-9 9v41q0 9 9 9t9 -9zM278 350v-41q0 -9 -9 -9t-9 9v41q0 9 9 9t9 -9zM278 410v-41q0 -9 -9 -9t-9 9v41q0 9 9 9t9 -9zM278 470v-41q0 -9 -9 -9t-9 9v41q0 9 9 9t9 -9zM278 230v-41q0 -9 -9 -9t-9 9v41q0 9 9 9t9 -9z M278 170v-41q0 -9 -9 -9t-9 9v41q0 9 9 9t9 -9zM278 110v-41q0 -9 -9 -9t-9 9v41q0 9 9 9t9 -9z" />
<glyph unicode="," horiz-adv-x="240" d="M80 9v41q0 9 9 9t9 -9v-41q0 -9 -9 -9t-9 9zM140 69v41q0 9 9 9t9 -9v-41q0 -9 -9 -9t-9 9zM80 69v41q0 9 9 9t9 -9v-41q0 -9 -9 -9t-9 9zM140 9v41q0 9 9 9t9 -9v-41q0 -9 -9 -9t-9 9zM140 -51v41q0 9 9 9t9 -9v-41q0 -9 -9 -9t-9 9zM80 -111v41q0 9 9 9t9 -9v-41 q0 -9 -9 -9t-9 9z" />
<glyph unicode="-" horiz-adv-x="420" d="M158 290v-41q0 -9 -9 -9t-9 9v41q0 9 9 9t9 -9zM98 290v-41q0 -9 -9 -9t-9 9v41q0 9 9 9t9 -9zM278 290v-41q0 -9 -9 -9t-9 9v41q0 9 9 9t9 -9zM218 290v-41q0 -9 -9 -9t-9 9v41q0 9 9 9t9 -9zM338 290v-41q0 -9 -9 -9t-9 9v41q0 9 9 9t9 -9z" />
<glyph unicode="." horiz-adv-x="240" d="M80 9v41q0 9 9 9t9 -9v-41q0 -9 -9 -9t-9 9zM140 69v41q0 9 9 9t9 -9v-41q0 -9 -9 -9t-9 9zM80 69v41q0 9 9 9t9 -9v-41q0 -9 -9 -9t-9 9zM140 9v41q0 9 9 9t9 -9v-41q0 -9 -9 -9t-9 9z" />
<glyph unicode="/" d="M98 110v-41q0 -9 -9 -9t-9 9v41q0 9 9 9t9 -9zM98 50v-41q0 -9 -9 -9t-9 9v41q0 9 9 9t9 -9zM158 230v-41q0 -9 -9 -9t-9 9v41q0 9 9 9t9 -9zM158 170v-41q0 -9 -9 -9t-9 9v41q0 9 9 9t9 -9zM218 350v-41q0 -9 -9 -9t-9 9v41q0 9 9 9t9 -9zM218 290v-41q0 -9 -9 -9t-9 9 v41q0 9 9 9t9 -9zM278 470v-41q0 -9 -9 -9t-9 9v41q0 9 9 9t9 -9zM278 410v-41q0 -9 -9 -9t-9 9v41q0 9 9 9t9 -9zM338 590v-41q0 -9 -9 -9t-9 9v41q0 9 9 9t9 -9zM338 530v-41q0 -9 -9 -9t-9 9v41q0 9 9 9t9 -9zM398 710v-41q0 -9 -9 -9t-9 9v41q0 9 9 9t9 -9zM398 650v-41 q0 -9 -9 -9t-9 9v41q0 9 9 9t9 -9z" />
<glyph unicode="0" d="M140 9v41q0 9 9 9t9 -9v-41q0 -9 -9 -9t-9 9zM140 69v41q0 9 9 9t9 -9v-41q0 -9 -9 -9t-9 9zM140 129v41q0 9 9 9t9 -9v-41q0 -9 -9 -9t-9 9zM140 189v41q0 9 9 9t9 -9v-41q0 -9 -9 -9t-9 9zM140 249v41q0 9 9 9t9 -9v-41q0 -9 -9 -9t-9 9zM140 309v41q0 9 9 9t9 -9v-41 q0 -9 -9 -9t-9 9zM140 369v41q0 9 9 9t9 -9v-41q0 -9 -9 -9t-9 9zM140 429v41q0 9 9 9t9 -9v-41q0 -9 -9 -9t-9 9zM140 489v41q0 9 9 9t9 -9v-41q0 -9 -9 -9t-9 9zM80 69v41q0 9 9 9t9 -9v-41q0 -9 -9 -9t-9 9zM80 129v41q0 9 9 9t9 -9v-41q0 -9 -9 -9t-9 9zM80 189v41 q0 9 9 9t9 -9v-41q0 -9 -9 -9t-9 9zM80 249v41q0 9 9 9t9 -9v-41q0 -9 -9 -9t-9 9zM80 309v41q0 9 9 9t9 -9v-41q0 -9 -9 -9t-9 9zM80 369v41q0 9 9 9t9 -9v-41q0 -9 -9 -9t-9 9zM80 429v41q0 9 9 9t9 -9v-41q0 -9 -9 -9t-9 9zM200 489v41q0 9 9 9t9 -9v-41q0 -9 -9 -9t-9 9 zM320 9v41q0 9 9 9t9 -9v-41q0 -9 -9 -9t-9 9zM380 69v41q0 9 9 9t9 -9v-41q0 -9 -9 -9t-9 9zM380 129v41q0 9 9 9t9 -9v-41q0 -9 -9 -9t-9 9zM380 189v41q0 9 9 9t9 -9v-41q0 -9 -9 -9t-9 9zM380 249v41q0 9 9 9t9 -9v-41q0 -9 -9 -9t-9 9zM380 309v41q0 9 9 9t9 -9v-41 q0 -9 -9 -9t-9 9zM380 369v41q0 9 9 9t9 -9v-41q0 -9 -9 -9t-9 9zM380 429v41q0 9 9 9t9 -9v-41q0 -9 -9 -9t-9 9zM260 489v41q0 9 9 9t9 -9v-41q0 -9 -9 -9t-9 9zM320 69v41q0 9 9 9t9 -9v-41q0 -9 -9 -9t-9 9zM320 129v41q0 9 9 9t9 -9v-41q0 -9 -9 -9t-9 9zM320 189v41 q0 9 9 9t9 -9v-41q0 -9 -9 -9t-9 9zM320 249v41q0 9 9 9t9 -9v-41q0 -9 -9 -9t-9 9zM320 309v41q0 9 9 9t9 -9v-41q0 -9 -9 -9t-9 9zM320 369v41q0 9 9 9t9 -9v-41q0 -9 -9 -9t-9 9zM320 429v41q0 9 9 9t9 -9v-41q0 -9 -9 -9t-9 9zM320 489v41q0 9 9 9t9 -9v-41q0 -9 -9 -9 t-9 9zM260 9v41q0 9 9 9t9 -9v-41q0 -9 -9 -9t-9 9zM200 9v41q0 9 9 9t9 -9v-41q0 -9 -9 -9t-9 9z" />
<glyph unicode="1" d="M260 9v41q0 9 9 9t9 -9v-41q0 -9 -9 -9t-9 9zM140 9v41q0 9 9 9t9 -9v-41q0 -9 -9 -9t-9 9zM200 9v41q0 9 9 9t9 -9v-41q0 -9 -9 -9t-9 9zM80 9v41q0 9 9 9t9 -9v-41q0 -9 -9 -9t-9 9zM260 189v41q0 9 9 9t9 -9v-41q0 -9 -9 -9t-9 9zM260 129v41q0 9 9 9t9 -9v-41 q0 -9 -9 -9t-9 9zM260 69v41q0 9 9 9t9 -9v-41q0 -9 -9 -9t-9 9zM380 9v41q0 9 9 9t9 -9v-41q0 -9 -9 -9t-9 9zM200 189v41q0 9 9 9t9 -9v-41q0 -9 -9 -9t-9 9zM200 129v41q0 9 9 9t9 -9v-41q0 -9 -9 -9t-9 9zM200 69v41q0 9 9 9t9 -9v-41q0 -9 -9 -9t-9 9zM320 9v41 q0 9 9 9t9 -9v-41q0 -9 -9 -9t-9 9zM260 249v41q0 9 9 9t9 -9v-41q0 -9 -9 -9t-9 9zM200 249v41q0 9 9 9t9 -9v-41q0 -9 -9 -9t-9 9zM260 309v41q0 9 9 9t9 -9v-41q0 -9 -9 -9t-9 9zM200 309v41q0 9 9 9t9 -9v-41q0 -9 -9 -9t-9 9zM260 369v41q0 9 9 9t9 -9v-41q0 -9 -9 -9 t-9 9zM200 369v41q0 9 9 9t9 -9v-41q0 -9 -9 -9t-9 9zM260 429v41q0 9 9 9t9 -9v-41q0 -9 -9 -9t-9 9zM200 429v41q0 9 9 9t9 -9v-41q0 -9 -9 -9t-9 9zM260 489v41q0 9 9 9t9 -9v-41q0 -9 -9 -9t-9 9zM200 489v41q0 9 9 9t9 -9v-41q0 -9 -9 -9t-9 9zM140 429v41q0 9 9 9 t9 -9v-41q0 -9 -9 -9t-9 9zM80 369v41q0 9 9 9t9 -9v-41q0 -9 -9 -9t-9 9z" />
<glyph unicode="2" d="M338 50v-41q0 -9 -9 -9t-9 9v41q0 9 9 9t9 -9zM158 110v-41q0 -9 -9 -9t-9 9v41q0 9 9 9t9 -9zM158 170v-41q0 -9 -9 -9t-9 9v41q0 9 9 9t9 -9zM278 230v-41q0 -9 -9 -9t-9 9v41q0 9 9 9t9 -9zM338 290v-41q0 -9 -9 -9t-9 9v41q0 9 9 9t9 -9zM338 350v-41q0 -9 -9 -9 t-9 9v41q0 9 9 9t9 -9zM338 410v-41q0 -9 -9 -9t-9 9v41q0 9 9 9t9 -9zM338 470v-41q0 -9 -9 -9t-9 9v41q0 9 9 9t9 -9zM338 530v-41q0 -9 -9 -9t-9 9v41q0 9 9 9t9 -9zM398 50v-41q0 -9 -9 -9t-9 9v41q0 9 9 9t9 -9zM218 170v-41q0 -9 -9 -9t-9 9v41q0 9 9 9t9 -9zM218 230 v-41q0 -9 -9 -9t-9 9v41q0 9 9 9t9 -9zM278 290v-41q0 -9 -9 -9t-9 9v41q0 9 9 9t9 -9zM398 350v-41q0 -9 -9 -9t-9 9v41q0 9 9 9t9 -9zM398 410v-41q0 -9 -9 -9t-9 9v41q0 9 9 9t9 -9zM398 470v-41q0 -9 -9 -9t-9 9v41q0 9 9 9t9 -9zM278 530v-41q0 -9 -9 -9t-9 9v41 q0 9 9 9t9 -9zM158 50v-41q0 -9 -9 -9t-9 9v41q0 9 9 9t9 -9zM98 110v-41q0 -9 -9 -9t-9 9v41q0 9 9 9t9 -9zM98 470v-41q0 -9 -9 -9t-9 9v41q0 9 9 9t9 -9zM218 530v-41q0 -9 -9 -9t-9 9v41q0 9 9 9t9 -9zM158 530v-41q0 -9 -9 -9t-9 9v41q0 9 9 9t9 -9zM218 50v-41 q0 -9 -9 -9t-9 9v41q0 9 9 9t9 -9zM278 50v-41q0 -9 -9 -9t-9 9v41q0 9 9 9t9 -9zM98 50v-41q0 -9 -9 -9t-9 9v41q0 9 9 9t9 -9z" />
<glyph unicode="3" d="M338 530v-41q0 -9 -9 -9t-9 9v41q0 9 9 9t9 -9zM338 470v-41q0 -9 -9 -9t-9 9v41q0 9 9 9t9 -9zM338 350v-41q0 -9 -9 -9t-9 9v41q0 9 9 9t9 -9zM338 290v-41q0 -9 -9 -9t-9 9v41q0 9 9 9t9 -9zM338 230v-41q0 -9 -9 -9t-9 9v41q0 9 9 9t9 -9zM398 530v-41q0 -9 -9 -9 t-9 9v41q0 9 9 9t9 -9zM398 290v-41q0 -9 -9 -9t-9 9v41q0 9 9 9t9 -9zM278 350v-41q0 -9 -9 -9t-9 9v41q0 9 9 9t9 -9zM98 530v-41q0 -9 -9 -9t-9 9v41q0 9 9 9t9 -9zM218 350v-41q0 -9 -9 -9t-9 9v41q0 9 9 9t9 -9zM158 530v-41q0 -9 -9 -9t-9 9v41q0 9 9 9t9 -9zM158 350 v-41q0 -9 -9 -9t-9 9v41q0 9 9 9t9 -9zM398 230v-41q0 -9 -9 -9t-9 9v41q0 9 9 9t9 -9zM398 170v-41q0 -9 -9 -9t-9 9v41q0 9 9 9t9 -9zM398 110v-41q0 -9 -9 -9t-9 9v41q0 9 9 9t9 -9zM338 110v-41q0 -9 -9 -9t-9 9v41q0 9 9 9t9 -9zM338 170v-41q0 -9 -9 -9t-9 9v41 q0 9 9 9t9 -9zM338 50v-41q0 -9 -9 -9t-9 9v41q0 9 9 9t9 -9zM278 50v-41q0 -9 -9 -9t-9 9v41q0 9 9 9t9 -9zM218 50v-41q0 -9 -9 -9t-9 9v41q0 9 9 9t9 -9zM158 50v-41q0 -9 -9 -9t-9 9v41q0 9 9 9t9 -9zM98 110v-41q0 -9 -9 -9t-9 9v41q0 9 9 9t9 -9zM278 410v-41 q0 -9 -9 -9t-9 9v41q0 9 9 9t9 -9zM218 410v-41q0 -9 -9 -9t-9 9v41q0 9 9 9t9 -9zM278 470v-41q0 -9 -9 -9t-9 9v41q0 9 9 9t9 -9zM278 530v-41q0 -9 -9 -9t-9 9v41q0 9 9 9t9 -9zM218 530v-41q0 -9 -9 -9t-9 9v41q0 9 9 9t9 -9z" />
<glyph unicode="4" d="M338 530v-41q0 -9 -9 -9t-9 9v41q0 9 9 9t9 -9zM338 470v-41q0 -9 -9 -9t-9 9v41q0 9 9 9t9 -9zM338 410v-41q0 -9 -9 -9t-9 9v41q0 9 9 9t9 -9zM338 350v-41q0 -9 -9 -9t-9 9v41q0 9 9 9t9 -9zM338 290v-41q0 -9 -9 -9t-9 9v41q0 9 9 9t9 -9zM338 230v-41q0 -9 -9 -9 t-9 9v41q0 9 9 9t9 -9zM338 170v-41q0 -9 -9 -9t-9 9v41q0 9 9 9t9 -9zM338 110v-41q0 -9 -9 -9t-9 9v41q0 9 9 9t9 -9zM338 50v-41q0 -9 -9 -9t-9 9v41q0 9 9 9t9 -9zM398 470v-41q0 -9 -9 -9t-9 9v41q0 9 9 9t9 -9zM398 410v-41q0 -9 -9 -9t-9 9v41q0 9 9 9t9 -9zM398 350 v-41q0 -9 -9 -9t-9 9v41q0 9 9 9t9 -9zM398 290v-41q0 -9 -9 -9t-9 9v41q0 9 9 9t9 -9zM398 230v-41q0 -9 -9 -9t-9 9v41q0 9 9 9t9 -9zM398 170v-41q0 -9 -9 -9t-9 9v41q0 9 9 9t9 -9zM398 110v-41q0 -9 -9 -9t-9 9v41q0 9 9 9t9 -9zM398 50v-41q0 -9 -9 -9t-9 9v41 q0 9 9 9t9 -9zM98 290v-41q0 -9 -9 -9t-9 9v41q0 9 9 9t9 -9zM98 230v-41q0 -9 -9 -9t-9 9v41q0 9 9 9t9 -9zM278 470v-41q0 -9 -9 -9t-9 9v41q0 9 9 9t9 -9zM218 410v-41q0 -9 -9 -9t-9 9v41q0 9 9 9t9 -9zM158 350v-41q0 -9 -9 -9t-9 9v41q0 9 9 9t9 -9zM158 230v-41 q0 -9 -9 -9t-9 9v41q0 9 9 9t9 -9zM398 530v-41q0 -9 -9 -9t-9 9v41q0 9 9 9t9 -9zM278 230v-41q0 -9 -9 -9t-9 9v41q0 9 9 9t9 -9zM218 230v-41q0 -9 -9 -9t-9 9v41q0 9 9 9t9 -9zM458 230v-41q0 -9 -9 -9t-9 9v41q0 9 9 9t9 -9z" />
<glyph unicode="5" d="M338 530v-41q0 -9 -9 -9t-9 9v41q0 9 9 9t9 -9zM158 470v-41q0 -9 -9 -9t-9 9v41q0 9 9 9t9 -9zM338 350v-41q0 -9 -9 -9t-9 9v41q0 9 9 9t9 -9zM338 290v-41q0 -9 -9 -9t-9 9v41q0 9 9 9t9 -9zM338 230v-41q0 -9 -9 -9t-9 9v41q0 9 9 9t9 -9zM398 530v-41q0 -9 -9 -9 t-9 9v41q0 9 9 9t9 -9zM398 290v-41q0 -9 -9 -9t-9 9v41q0 9 9 9t9 -9zM278 350v-41q0 -9 -9 -9t-9 9v41q0 9 9 9t9 -9zM98 530v-41q0 -9 -9 -9t-9 9v41q0 9 9 9t9 -9zM218 350v-41q0 -9 -9 -9t-9 9v41q0 9 9 9t9 -9zM158 530v-41q0 -9 -9 -9t-9 9v41q0 9 9 9t9 -9zM158 350 v-41q0 -9 -9 -9t-9 9v41q0 9 9 9t9 -9zM398 230v-41q0 -9 -9 -9t-9 9v41q0 9 9 9t9 -9zM398 170v-41q0 -9 -9 -9t-9 9v41q0 9 9 9t9 -9zM398 110v-41q0 -9 -9 -9t-9 9v41q0 9 9 9t9 -9zM338 110v-41q0 -9 -9 -9t-9 9v41q0 9 9 9t9 -9zM338 170v-41q0 -9 -9 -9t-9 9v41 q0 9 9 9t9 -9zM338 50v-41q0 -9 -9 -9t-9 9v41q0 9 9 9t9 -9zM278 50v-41q0 -9 -9 -9t-9 9v41q0 9 9 9t9 -9zM218 50v-41q0 -9 -9 -9t-9 9v41q0 9 9 9t9 -9zM158 50v-41q0 -9 -9 -9t-9 9v41q0 9 9 9t9 -9zM98 110v-41q0 -9 -9 -9t-9 9v41q0 9 9 9t9 -9zM158 410v-41 q0 -9 -9 -9t-9 9v41q0 9 9 9t9 -9zM98 410v-41q0 -9 -9 -9t-9 9v41q0 9 9 9t9 -9zM98 470v-41q0 -9 -9 -9t-9 9v41q0 9 9 9t9 -9zM278 530v-41q0 -9 -9 -9t-9 9v41q0 9 9 9t9 -9zM218 530v-41q0 -9 -9 -9t-9 9v41q0 9 9 9t9 -9zM98 350v-41q0 -9 -9 -9t-9 9v41q0 9 9 9t9 -9 z" />
<glyph unicode="6" d="M140 9v41q0 9 9 9t9 -9v-41q0 -9 -9 -9t-9 9zM140 69v41q0 9 9 9t9 -9v-41q0 -9 -9 -9t-9 9zM140 129v41q0 9 9 9t9 -9v-41q0 -9 -9 -9t-9 9zM140 189v41q0 9 9 9t9 -9v-41q0 -9 -9 -9t-9 9zM140 249v41q0 9 9 9t9 -9v-41q0 -9 -9 -9t-9 9zM140 309v41q0 9 9 9t9 -9v-41 q0 -9 -9 -9t-9 9zM80 69v41q0 9 9 9t9 -9v-41q0 -9 -9 -9t-9 9zM80 129v41q0 9 9 9t9 -9v-41q0 -9 -9 -9t-9 9zM80 189v41q0 9 9 9t9 -9v-41q0 -9 -9 -9t-9 9zM80 249v41q0 9 9 9t9 -9v-41q0 -9 -9 -9t-9 9zM200 309v41q0 9 9 9t9 -9v-41q0 -9 -9 -9t-9 9zM320 9v41q0 9 9 9 t9 -9v-41q0 -9 -9 -9t-9 9zM380 69v41q0 9 9 9t9 -9v-41q0 -9 -9 -9t-9 9zM380 129v41q0 9 9 9t9 -9v-41q0 -9 -9 -9t-9 9zM380 189v41q0 9 9 9t9 -9v-41q0 -9 -9 -9t-9 9zM380 249v41q0 9 9 9t9 -9v-41q0 -9 -9 -9t-9 9zM260 309v41q0 9 9 9t9 -9v-41q0 -9 -9 -9t-9 9z M320 69v41q0 9 9 9t9 -9v-41q0 -9 -9 -9t-9 9zM320 129v41q0 9 9 9t9 -9v-41q0 -9 -9 -9t-9 9zM320 189v41q0 9 9 9t9 -9v-41q0 -9 -9 -9t-9 9zM320 249v41q0 9 9 9t9 -9v-41q0 -9 -9 -9t-9 9zM320 309v41q0 9 9 9t9 -9v-41q0 -9 -9 -9t-9 9zM260 9v41q0 9 9 9t9 -9v-41 q0 -9 -9 -9t-9 9zM200 9v41q0 9 9 9t9 -9v-41q0 -9 -9 -9t-9 9zM80 309v41q0 9 9 9t9 -9v-41q0 -9 -9 -9t-9 9zM80 369v41q0 9 9 9t9 -9v-41q0 -9 -9 -9t-9 9zM200 429v41q0 9 9 9t9 -9v-41q0 -9 -9 -9t-9 9zM140 429v41q0 9 9 9t9 -9v-41q0 -9 -9 -9t-9 9zM140 369v41 q0 9 9 9t9 -9v-41q0 -9 -9 -9t-9 9zM200 489v41q0 9 9 9t9 -9v-41q0 -9 -9 -9t-9 9zM260 489v41q0 9 9 9t9 -9v-41q0 -9 -9 -9t-9 9zM320 489v41q0 9 9 9t9 -9v-41q0 -9 -9 -9t-9 9z" />
<glyph unicode="7" d="M260 489v41q0 9 9 9t9 -9v-41q0 -9 -9 -9t-9 9zM140 489v41q0 9 9 9t9 -9v-41q0 -9 -9 -9t-9 9zM200 489v41q0 9 9 9t9 -9v-41q0 -9 -9 -9t-9 9zM80 489v41q0 9 9 9t9 -9v-41q0 -9 -9 -9t-9 9zM380 309v41q0 9 9 9t9 -9v-41q0 -9 -9 -9t-9 9zM380 369v41q0 9 9 9t9 -9 v-41q0 -9 -9 -9t-9 9zM380 429v41q0 9 9 9t9 -9v-41q0 -9 -9 -9t-9 9zM380 489v41q0 9 9 9t9 -9v-41q0 -9 -9 -9t-9 9zM320 309v41q0 9 9 9t9 -9v-41q0 -9 -9 -9t-9 9zM320 369v41q0 9 9 9t9 -9v-41q0 -9 -9 -9t-9 9zM320 429v41q0 9 9 9t9 -9v-41q0 -9 -9 -9t-9 9zM320 489 v41q0 9 9 9t9 -9v-41q0 -9 -9 -9t-9 9zM320 249v41q0 9 9 9t9 -9v-41q0 -9 -9 -9t-9 9zM260 249v41q0 9 9 9t9 -9v-41q0 -9 -9 -9t-9 9zM260 189v41q0 9 9 9t9 -9v-41q0 -9 -9 -9t-9 9zM200 189v41q0 9 9 9t9 -9v-41q0 -9 -9 -9t-9 9zM260 129v41q0 9 9 9t9 -9v-41 q0 -9 -9 -9t-9 9zM200 129v41q0 9 9 9t9 -9v-41q0 -9 -9 -9t-9 9zM260 69v41q0 9 9 9t9 -9v-41q0 -9 -9 -9t-9 9zM200 69v41q0 9 9 9t9 -9v-41q0 -9 -9 -9t-9 9zM260 9v41q0 9 9 9t9 -9v-41q0 -9 -9 -9t-9 9zM200 9v41q0 9 9 9t9 -9v-41q0 -9 -9 -9t-9 9z" />
<glyph unicode="8" d="M338 530v-41q0 -9 -9 -9t-9 9v41q0 9 9 9t9 -9zM338 470v-41q0 -9 -9 -9t-9 9v41q0 9 9 9t9 -9zM338 410v-41q0 -9 -9 -9t-9 9v41q0 9 9 9t9 -9zM338 350v-41q0 -9 -9 -9t-9 9v41q0 9 9 9t9 -9zM338 290v-41q0 -9 -9 -9t-9 9v41q0 9 9 9t9 -9zM338 230v-41q0 -9 -9 -9 t-9 9v41q0 9 9 9t9 -9zM338 170v-41q0 -9 -9 -9t-9 9v41q0 9 9 9t9 -9zM338 110v-41q0 -9 -9 -9t-9 9v41q0 9 9 9t9 -9zM338 50v-41q0 -9 -9 -9t-9 9v41q0 9 9 9t9 -9zM398 470v-41q0 -9 -9 -9t-9 9v41q0 9 9 9t9 -9zM398 410v-41q0 -9 -9 -9t-9 9v41q0 9 9 9t9 -9zM398 350 v-41q0 -9 -9 -9t-9 9v41q0 9 9 9t9 -9zM398 230v-41q0 -9 -9 -9t-9 9v41q0 9 9 9t9 -9zM398 170v-41q0 -9 -9 -9t-9 9v41q0 9 9 9t9 -9zM398 110v-41q0 -9 -9 -9t-9 9v41q0 9 9 9t9 -9zM218 50v-41q0 -9 -9 -9t-9 9v41q0 9 9 9t9 -9zM158 530v-41q0 -9 -9 -9t-9 9v41 q0 9 9 9t9 -9zM98 470v-41q0 -9 -9 -9t-9 9v41q0 9 9 9t9 -9zM98 410v-41q0 -9 -9 -9t-9 9v41q0 9 9 9t9 -9zM98 350v-41q0 -9 -9 -9t-9 9v41q0 9 9 9t9 -9zM98 230v-41q0 -9 -9 -9t-9 9v41q0 9 9 9t9 -9zM98 170v-41q0 -9 -9 -9t-9 9v41q0 9 9 9t9 -9zM98 110v-41 q0 -9 -9 -9t-9 9v41q0 9 9 9t9 -9zM158 470v-41q0 -9 -9 -9t-9 9v41q0 9 9 9t9 -9zM158 410v-41q0 -9 -9 -9t-9 9v41q0 9 9 9t9 -9zM158 350v-41q0 -9 -9 -9t-9 9v41q0 9 9 9t9 -9zM158 290v-41q0 -9 -9 -9t-9 9v41q0 9 9 9t9 -9zM158 230v-41q0 -9 -9 -9t-9 9v41q0 9 9 9 t9 -9zM158 170v-41q0 -9 -9 -9t-9 9v41q0 9 9 9t9 -9zM158 110v-41q0 -9 -9 -9t-9 9v41q0 9 9 9t9 -9zM158 50v-41q0 -9 -9 -9t-9 9v41q0 9 9 9t9 -9zM218 530v-41q0 -9 -9 -9t-9 9v41q0 9 9 9t9 -9zM278 530v-41q0 -9 -9 -9t-9 9v41q0 9 9 9t9 -9zM278 290v-41q0 -9 -9 -9 t-9 9v41q0 9 9 9t9 -9zM218 290v-41q0 -9 -9 -9t-9 9v41q0 9 9 9t9 -9zM278 50v-41q0 -9 -9 -9t-9 9v41q0 9 9 9t9 -9z" />
<glyph unicode="9" d="M338 530v-41q0 -9 -9 -9t-9 9v41q0 9 9 9t9 -9zM338 470v-41q0 -9 -9 -9t-9 9v41q0 9 9 9t9 -9zM338 410v-41q0 -9 -9 -9t-9 9v41q0 9 9 9t9 -9zM338 350v-41q0 -9 -9 -9t-9 9v41q0 9 9 9t9 -9zM338 290v-41q0 -9 -9 -9t-9 9v41q0 9 9 9t9 -9zM338 230v-41q0 -9 -9 -9 t-9 9v41q0 9 9 9t9 -9zM398 470v-41q0 -9 -9 -9t-9 9v41q0 9 9 9t9 -9zM398 410v-41q0 -9 -9 -9t-9 9v41q0 9 9 9t9 -9zM398 350v-41q0 -9 -9 -9t-9 9v41q0 9 9 9t9 -9zM398 290v-41q0 -9 -9 -9t-9 9v41q0 9 9 9t9 -9zM278 230v-41q0 -9 -9 -9t-9 9v41q0 9 9 9t9 -9z M158 530v-41q0 -9 -9 -9t-9 9v41q0 9 9 9t9 -9zM98 470v-41q0 -9 -9 -9t-9 9v41q0 9 9 9t9 -9zM98 410v-41q0 -9 -9 -9t-9 9v41q0 9 9 9t9 -9zM98 350v-41q0 -9 -9 -9t-9 9v41q0 9 9 9t9 -9zM98 290v-41q0 -9 -9 -9t-9 9v41q0 9 9 9t9 -9zM218 230v-41q0 -9 -9 -9t-9 9v41 q0 9 9 9t9 -9zM158 470v-41q0 -9 -9 -9t-9 9v41q0 9 9 9t9 -9zM158 410v-41q0 -9 -9 -9t-9 9v41q0 9 9 9t9 -9zM158 350v-41q0 -9 -9 -9t-9 9v41q0 9 9 9t9 -9zM158 290v-41q0 -9 -9 -9t-9 9v41q0 9 9 9t9 -9zM158 230v-41q0 -9 -9 -9t-9 9v41q0 9 9 9t9 -9zM218 530v-41 q0 -9 -9 -9t-9 9v41q0 9 9 9t9 -9zM278 530v-41q0 -9 -9 -9t-9 9v41q0 9 9 9t9 -9zM398 230v-41q0 -9 -9 -9t-9 9v41q0 9 9 9t9 -9zM398 170v-41q0 -9 -9 -9t-9 9v41q0 9 9 9t9 -9zM278 110v-41q0 -9 -9 -9t-9 9v41q0 9 9 9t9 -9zM338 110v-41q0 -9 -9 -9t-9 9v41q0 9 9 9 t9 -9zM338 170v-41q0 -9 -9 -9t-9 9v41q0 9 9 9t9 -9zM278 50v-41q0 -9 -9 -9t-9 9v41q0 9 9 9t9 -9zM218 50v-41q0 -9 -9 -9t-9 9v41q0 9 9 9t9 -9zM158 50v-41q0 -9 -9 -9t-9 9v41q0 9 9 9t9 -9z" />
<glyph unicode=":" horiz-adv-x="240" d="M80 9v41q0 9 9 9t9 -9v-41q0 -9 -9 -9t-9 9zM140 69v41q0 9 9 9t9 -9v-41q0 -9 -9 -9t-9 9zM80 69v41q0 9 9 9t9 -9v-41q0 -9 -9 -9t-9 9zM140 9v41q0 9 9 9t9 -9v-41q0 -9 -9 -9t-9 9zM80 309v41q0 9 9 9t9 -9v-41q0 -9 -9 -9t-9 9zM140 369v41q0 9 9 9t9 -9v-41 q0 -9 -9 -9t-9 9zM80 369v41q0 9 9 9t9 -9v-41q0 -9 -9 -9t-9 9zM140 309v41q0 9 9 9t9 -9v-41q0 -9 -9 -9t-9 9z" />
<glyph unicode=";" horiz-adv-x="240" d="M80 9v41q0 9 9 9t9 -9v-41q0 -9 -9 -9t-9 9zM140 69v41q0 9 9 9t9 -9v-41q0 -9 -9 -9t-9 9zM80 69v41q0 9 9 9t9 -9v-41q0 -9 -9 -9t-9 9zM140 9v41q0 9 9 9t9 -9v-41q0 -9 -9 -9t-9 9zM80 309v41q0 9 9 9t9 -9v-41q0 -9 -9 -9t-9 9zM140 369v41q0 9 9 9t9 -9v-41 q0 -9 -9 -9t-9 9zM80 369v41q0 9 9 9t9 -9v-41q0 -9 -9 -9t-9 9zM140 309v41q0 9 9 9t9 -9v-41q0 -9 -9 -9t-9 9zM140 -51v41q0 9 9 9t9 -9v-41q0 -9 -9 -9t-9 9zM80 -111v41q0 9 9 9t9 -9v-41q0 -9 -9 -9t-9 9z" />
<glyph unicode="&#x3c;" d="M140 249v41q0 9 9 9t9 -9v-41q0 -9 -9 -9t-9 9zM80 249v41q0 9 9 9t9 -9v-41q0 -9 -9 -9t-9 9zM260 189v41q0 9 9 9t9 -9v-41q0 -9 -9 -9t-9 9zM200 189v41q0 9 9 9t9 -9v-41q0 -9 -9 -9t-9 9zM380 129v41q0 9 9 9t9 -9v-41q0 -9 -9 -9t-9 9zM320 129v41q0 9 9 9t9 -9 v-41q0 -9 -9 -9t-9 9zM260 309v41q0 9 9 9t9 -9v-41q0 -9 -9 -9t-9 9zM200 309v41q0 9 9 9t9 -9v-41q0 -9 -9 -9t-9 9zM380 369v41q0 9 9 9t9 -9v-41q0 -9 -9 -9t-9 9zM320 369v41q0 9 9 9t9 -9v-41q0 -9 -9 -9t-9 9z" />
<glyph unicode="=" d="M158 170v-41q0 -9 -9 -9t-9 9v41q0 9 9 9t9 -9zM98 170v-41q0 -9 -9 -9t-9 9v41q0 9 9 9t9 -9zM278 170v-41q0 -9 -9 -9t-9 9v41q0 9 9 9t9 -9zM218 170v-41q0 -9 -9 -9t-9 9v41q0 9 9 9t9 -9zM338 170v-41q0 -9 -9 -9t-9 9v41q0 9 9 9t9 -9zM398 170v-41q0 -9 -9 -9 t-9 9v41q0 9 9 9t9 -9zM458 170v-41q0 -9 -9 -9t-9 9v41q0 9 9 9t9 -9zM158 410v-41q0 -9 -9 -9t-9 9v41q0 9 9 9t9 -9zM98 410v-41q0 -9 -9 -9t-9 9v41q0 9 9 9t9 -9zM278 410v-41q0 -9 -9 -9t-9 9v41q0 9 9 9t9 -9zM218 410v-41q0 -9 -9 -9t-9 9v41q0 9 9 9t9 -9zM338 410 v-41q0 -9 -9 -9t-9 9v41q0 9 9 9t9 -9zM398 410v-41q0 -9 -9 -9t-9 9v41q0 9 9 9t9 -9zM458 410v-41q0 -9 -9 -9t-9 9v41q0 9 9 9t9 -9z" />
<glyph unicode="&#x3e;" d="M338 290v-41q0 -9 -9 -9t-9 9v41q0 9 9 9t9 -9zM398 290v-41q0 -9 -9 -9t-9 9v41q0 9 9 9t9 -9zM218 230v-41q0 -9 -9 -9t-9 9v41q0 9 9 9t9 -9zM278 230v-41q0 -9 -9 -9t-9 9v41q0 9 9 9t9 -9zM98 170v-41q0 -9 -9 -9t-9 9v41q0 9 9 9t9 -9zM158 170v-41q0 -9 -9 -9 t-9 9v41q0 9 9 9t9 -9zM218 350v-41q0 -9 -9 -9t-9 9v41q0 9 9 9t9 -9zM278 350v-41q0 -9 -9 -9t-9 9v41q0 9 9 9t9 -9zM98 410v-41q0 -9 -9 -9t-9 9v41q0 9 9 9t9 -9zM158 410v-41q0 -9 -9 -9t-9 9v41q0 9 9 9t9 -9z" />
<glyph unicode="?" d="M278 230v-41q0 -9 -9 -9t-9 9v41q0 9 9 9t9 -9zM218 290v-41q0 -9 -9 -9t-9 9v41q0 9 9 9t9 -9zM338 350v-41q0 -9 -9 -9t-9 9v41q0 9 9 9t9 -9zM338 410v-41q0 -9 -9 -9t-9 9v41q0 9 9 9t9 -9zM338 470v-41q0 -9 -9 -9t-9 9v41q0 9 9 9t9 -9zM338 530v-41q0 -9 -9 -9 t-9 9v41q0 9 9 9t9 -9zM218 230v-41q0 -9 -9 -9t-9 9v41q0 9 9 9t9 -9zM278 290v-41q0 -9 -9 -9t-9 9v41q0 9 9 9t9 -9zM278 350v-41q0 -9 -9 -9t-9 9v41q0 9 9 9t9 -9zM398 410v-41q0 -9 -9 -9t-9 9v41q0 9 9 9t9 -9zM398 470v-41q0 -9 -9 -9t-9 9v41q0 9 9 9t9 -9z M278 530v-41q0 -9 -9 -9t-9 9v41q0 9 9 9t9 -9zM98 470v-41q0 -9 -9 -9t-9 9v41q0 9 9 9t9 -9zM218 530v-41q0 -9 -9 -9t-9 9v41q0 9 9 9t9 -9zM158 530v-41q0 -9 -9 -9t-9 9v41q0 9 9 9t9 -9zM218 50v-41q0 -9 -9 -9t-9 9v41q0 9 9 9t9 -9zM278 50v-41q0 -9 -9 -9t-9 9v41 q0 9 9 9t9 -9zM218 110v-41q0 -9 -9 -9t-9 9v41q0 9 9 9t9 -9zM278 110v-41q0 -9 -9 -9t-9 9v41q0 9 9 9t9 -9z" />
<glyph unicode="@" horiz-adv-x="600" d="M140 69v41q0 9 9 9t9 -9v-41q0 -9 -9 -9t-9 9zM200 189v41q0 9 9 9t9 -9v-41q0 -9 -9 -9t-9 9zM200 249v41q0 9 9 9t9 -9v-41q0 -9 -9 -9t-9 9zM140 369v41q0 9 9 9t9 -9v-41q0 -9 -9 -9t-9 9zM80 129v41q0 9 9 9t9 -9v-41q0 -9 -9 -9t-9 9zM80 189v41q0 9 9 9t9 -9v-41 q0 -9 -9 -9t-9 9zM80 249v41q0 9 9 9t9 -9v-41q0 -9 -9 -9t-9 9zM80 309v41q0 9 9 9t9 -9v-41q0 -9 -9 -9t-9 9zM200 429v41q0 9 9 9t9 -9v-41q0 -9 -9 -9t-9 9zM500 189v41q0 9 9 9t9 -9v-41q0 -9 -9 -9t-9 9zM500 249v41q0 9 9 9t9 -9v-41q0 -9 -9 -9t-9 9zM500 309v41 q0 9 9 9t9 -9v-41q0 -9 -9 -9t-9 9zM260 429v41q0 9 9 9t9 -9v-41q0 -9 -9 -9t-9 9zM440 9v41q0 9 9 9t9 -9v-41q0 -9 -9 -9t-9 9zM440 369v41q0 9 9 9t9 -9v-41q0 -9 -9 -9t-9 9zM260 9v41q0 9 9 9t9 -9v-41q0 -9 -9 -9t-9 9zM200 9v41q0 9 9 9t9 -9v-41q0 -9 -9 -9t-9 9z M320 429v41q0 9 9 9t9 -9v-41q0 -9 -9 -9t-9 9zM320 9v41q0 9 9 9t9 -9v-41q0 -9 -9 -9t-9 9zM380 429v41q0 9 9 9t9 -9v-41q0 -9 -9 -9t-9 9zM380 9v41q0 9 9 9t9 -9v-41q0 -9 -9 -9t-9 9zM440 129v41q0 9 9 9t9 -9v-41q0 -9 -9 -9t-9 9zM380 189v41q0 9 9 9t9 -9v-41 q0 -9 -9 -9t-9 9zM320 129v41q0 9 9 9t9 -9v-41q0 -9 -9 -9t-9 9zM380 249v41q0 9 9 9t9 -9v-41q0 -9 -9 -9t-9 9zM320 309v41q0 9 9 9t9 -9v-41q0 -9 -9 -9t-9 9zM260 129v41q0 9 9 9t9 -9v-41q0 -9 -9 -9t-9 9zM260 309v41q0 9 9 9t9 -9v-41q0 -9 -9 -9t-9 9z" />
<glyph unicode="A" d="M338 530v-41q0 -9 -9 -9t-9 9v41q0 9 9 9t9 -9zM338 470v-41q0 -9 -9 -9t-9 9v41q0 9 9 9t9 -9zM338 410v-41q0 -9 -9 -9t-9 9v41q0 9 9 9t9 -9zM338 350v-41q0 -9 -9 -9t-9 9v41q0 9 9 9t9 -9zM338 290v-41q0 -9 -9 -9t-9 9v41q0 9 9 9t9 -9zM338 230v-41q0 -9 -9 -9 t-9 9v41q0 9 9 9t9 -9zM338 170v-41q0 -9 -9 -9t-9 9v41q0 9 9 9t9 -9zM338 110v-41q0 -9 -9 -9t-9 9v41q0 9 9 9t9 -9zM338 50v-41q0 -9 -9 -9t-9 9v41q0 9 9 9t9 -9zM398 470v-41q0 -9 -9 -9t-9 9v41q0 9 9 9t9 -9zM398 410v-41q0 -9 -9 -9t-9 9v41q0 9 9 9t9 -9zM398 350 v-41q0 -9 -9 -9t-9 9v41q0 9 9 9t9 -9zM398 290v-41q0 -9 -9 -9t-9 9v41q0 9 9 9t9 -9zM398 230v-41q0 -9 -9 -9t-9 9v41q0 9 9 9t9 -9zM398 170v-41q0 -9 -9 -9t-9 9v41q0 9 9 9t9 -9zM398 110v-41q0 -9 -9 -9t-9 9v41q0 9 9 9t9 -9zM398 50v-41q0 -9 -9 -9t-9 9v41 q0 9 9 9t9 -9zM158 530v-41q0 -9 -9 -9t-9 9v41q0 9 9 9t9 -9zM98 470v-41q0 -9 -9 -9t-9 9v41q0 9 9 9t9 -9zM98 410v-41q0 -9 -9 -9t-9 9v41q0 9 9 9t9 -9zM98 350v-41q0 -9 -9 -9t-9 9v41q0 9 9 9t9 -9zM98 290v-41q0 -9 -9 -9t-9 9v41q0 9 9 9t9 -9zM98 230v-41 q0 -9 -9 -9t-9 9v41q0 9 9 9t9 -9zM98 170v-41q0 -9 -9 -9t-9 9v41q0 9 9 9t9 -9zM98 110v-41q0 -9 -9 -9t-9 9v41q0 9 9 9t9 -9zM98 50v-41q0 -9 -9 -9t-9 9v41q0 9 9 9t9 -9zM158 470v-41q0 -9 -9 -9t-9 9v41q0 9 9 9t9 -9zM158 410v-41q0 -9 -9 -9t-9 9v41q0 9 9 9t9 -9z M158 350v-41q0 -9 -9 -9t-9 9v41q0 9 9 9t9 -9zM158 290v-41q0 -9 -9 -9t-9 9v41q0 9 9 9t9 -9zM158 230v-41q0 -9 -9 -9t-9 9v41q0 9 9 9t9 -9zM158 170v-41q0 -9 -9 -9t-9 9v41q0 9 9 9t9 -9zM158 110v-41q0 -9 -9 -9t-9 9v41q0 9 9 9t9 -9zM158 50v-41q0 -9 -9 -9t-9 9 v41q0 9 9 9t9 -9zM218 530v-41q0 -9 -9 -9t-9 9v41q0 9 9 9t9 -9zM278 530v-41q0 -9 -9 -9t-9 9v41q0 9 9 9t9 -9zM278 290v-41q0 -9 -9 -9t-9 9v41q0 9 9 9t9 -9zM218 290v-41q0 -9 -9 -9t-9 9v41q0 9 9 9t9 -9z" />
<glyph unicode="B" d="M338 530v-41q0 -9 -9 -9t-9 9v41q0 9 9 9t9 -9zM338 470v-41q0 -9 -9 -9t-9 9v41q0 9 9 9t9 -9zM338 410v-41q0 -9 -9 -9t-9 9v41q0 9 9 9t9 -9zM338 350v-41q0 -9 -9 -9t-9 9v41q0 9 9 9t9 -9zM338 290v-41q0 -9 -9 -9t-9 9v41q0 9 9 9t9 -9zM338 230v-41q0 -9 -9 -9 t-9 9v41q0 9 9 9t9 -9zM338 170v-41q0 -9 -9 -9t-9 9v41q0 9 9 9t9 -9zM338 110v-41q0 -9 -9 -9t-9 9v41q0 9 9 9t9 -9zM338 50v-41q0 -9 -9 -9t-9 9v41q0 9 9 9t9 -9zM398 470v-41q0 -9 -9 -9t-9 9v41q0 9 9 9t9 -9zM398 410v-41q0 -9 -9 -9t-9 9v41q0 9 9 9t9 -9zM398 350 v-41q0 -9 -9 -9t-9 9v41q0 9 9 9t9 -9zM98 530v-41q0 -9 -9 -9t-9 9v41q0 9 9 9t9 -9zM398 230v-41q0 -9 -9 -9t-9 9v41q0 9 9 9t9 -9zM398 170v-41q0 -9 -9 -9t-9 9v41q0 9 9 9t9 -9zM398 110v-41q0 -9 -9 -9t-9 9v41q0 9 9 9t9 -9zM218 50v-41q0 -9 -9 -9t-9 9v41q0 9 9 9 t9 -9zM158 530v-41q0 -9 -9 -9t-9 9v41q0 9 9 9t9 -9zM98 470v-41q0 -9 -9 -9t-9 9v41q0 9 9 9t9 -9zM98 410v-41q0 -9 -9 -9t-9 9v41q0 9 9 9t9 -9zM98 350v-41q0 -9 -9 -9t-9 9v41q0 9 9 9t9 -9zM98 290v-41q0 -9 -9 -9t-9 9v41q0 9 9 9t9 -9zM98 230v-41q0 -9 -9 -9t-9 9 v41q0 9 9 9t9 -9zM98 170v-41q0 -9 -9 -9t-9 9v41q0 9 9 9t9 -9zM98 110v-41q0 -9 -9 -9t-9 9v41q0 9 9 9t9 -9zM98 50v-41q0 -9 -9 -9t-9 9v41q0 9 9 9t9 -9zM158 470v-41q0 -9 -9 -9t-9 9v41q0 9 9 9t9 -9zM158 410v-41q0 -9 -9 -9t-9 9v41q0 9 9 9t9 -9zM158 350v-41 q0 -9 -9 -9t-9 9v41q0 9 9 9t9 -9zM158 290v-41q0 -9 -9 -9t-9 9v41q0 9 9 9t9 -9zM158 230v-41q0 -9 -9 -9t-9 9v41q0 9 9 9t9 -9zM158 170v-41q0 -9 -9 -9t-9 9v41q0 9 9 9t9 -9zM158 110v-41q0 -9 -9 -9t-9 9v41q0 9 9 9t9 -9zM158 50v-41q0 -9 -9 -9t-9 9v41q0 9 9 9 t9 -9zM218 530v-41q0 -9 -9 -9t-9 9v41q0 9 9 9t9 -9zM278 530v-41q0 -9 -9 -9t-9 9v41q0 9 9 9t9 -9zM278 290v-41q0 -9 -9 -9t-9 9v41q0 9 9 9t9 -9zM218 290v-41q0 -9 -9 -9t-9 9v41q0 9 9 9t9 -9zM278 50v-41q0 -9 -9 -9t-9 9v41q0 9 9 9t9 -9z" />
<glyph unicode="C" d="M140 9v41q0 9 9 9t9 -9v-41q0 -9 -9 -9t-9 9zM140 69v41q0 9 9 9t9 -9v-41q0 -9 -9 -9t-9 9zM140 129v41q0 9 9 9t9 -9v-41q0 -9 -9 -9t-9 9zM140 189v41q0 9 9 9t9 -9v-41q0 -9 -9 -9t-9 9zM140 249v41q0 9 9 9t9 -9v-41q0 -9 -9 -9t-9 9zM140 309v41q0 9 9 9t9 -9v-41 q0 -9 -9 -9t-9 9zM140 369v41q0 9 9 9t9 -9v-41q0 -9 -9 -9t-9 9zM140 429v41q0 9 9 9t9 -9v-41q0 -9 -9 -9t-9 9zM140 489v41q0 9 9 9t9 -9v-41q0 -9 -9 -9t-9 9zM80 69v41q0 9 9 9t9 -9v-41q0 -9 -9 -9t-9 9zM80 129v41q0 9 9 9t9 -9v-41q0 -9 -9 -9t-9 9zM80 189v41 q0 9 9 9t9 -9v-41q0 -9 -9 -9t-9 9zM80 249v41q0 9 9 9t9 -9v-41q0 -9 -9 -9t-9 9zM80 309v41q0 9 9 9t9 -9v-41q0 -9 -9 -9t-9 9zM80 369v41q0 9 9 9t9 -9v-41q0 -9 -9 -9t-9 9zM80 429v41q0 9 9 9t9 -9v-41q0 -9 -9 -9t-9 9zM200 489v41q0 9 9 9t9 -9v-41q0 -9 -9 -9t-9 9 zM320 9v41q0 9 9 9t9 -9v-41q0 -9 -9 -9t-9 9zM380 69v41q0 9 9 9t9 -9v-41q0 -9 -9 -9t-9 9zM380 429v41q0 9 9 9t9 -9v-41q0 -9 -9 -9t-9 9zM260 489v41q0 9 9 9t9 -9v-41q0 -9 -9 -9t-9 9zM320 489v41q0 9 9 9t9 -9v-41q0 -9 -9 -9t-9 9zM260 9v41q0 9 9 9t9 -9v-41 q0 -9 -9 -9t-9 9zM200 9v41q0 9 9 9t9 -9v-41q0 -9 -9 -9t-9 9z" />
<glyph unicode="D" d="M140 9v41q0 9 9 9t9 -9v-41q0 -9 -9 -9t-9 9zM140 69v41q0 9 9 9t9 -9v-41q0 -9 -9 -9t-9 9zM140 129v41q0 9 9 9t9 -9v-41q0 -9 -9 -9t-9 9zM140 189v41q0 9 9 9t9 -9v-41q0 -9 -9 -9t-9 9zM140 249v41q0 9 9 9t9 -9v-41q0 -9 -9 -9t-9 9zM140 309v41q0 9 9 9t9 -9v-41 q0 -9 -9 -9t-9 9zM140 369v41q0 9 9 9t9 -9v-41q0 -9 -9 -9t-9 9zM140 429v41q0 9 9 9t9 -9v-41q0 -9 -9 -9t-9 9zM140 489v41q0 9 9 9t9 -9v-41q0 -9 -9 -9t-9 9zM80 69v41q0 9 9 9t9 -9v-41q0 -9 -9 -9t-9 9zM80 129v41q0 9 9 9t9 -9v-41q0 -9 -9 -9t-9 9zM80 189v41 q0 9 9 9t9 -9v-41q0 -9 -9 -9t-9 9zM80 249v41q0 9 9 9t9 -9v-41q0 -9 -9 -9t-9 9zM80 309v41q0 9 9 9t9 -9v-41q0 -9 -9 -9t-9 9zM80 369v41q0 9 9 9t9 -9v-41q0 -9 -9 -9t-9 9zM80 429v41q0 9 9 9t9 -9v-41q0 -9 -9 -9t-9 9zM200 489v41q0 9 9 9t9 -9v-41q0 -9 -9 -9t-9 9 zM320 9v41q0 9 9 9t9 -9v-41q0 -9 -9 -9t-9 9zM380 69v41q0 9 9 9t9 -9v-41q0 -9 -9 -9t-9 9zM380 129v41q0 9 9 9t9 -9v-41q0 -9 -9 -9t-9 9zM380 189v41q0 9 9 9t9 -9v-41q0 -9 -9 -9t-9 9zM380 249v41q0 9 9 9t9 -9v-41q0 -9 -9 -9t-9 9zM380 309v41q0 9 9 9t9 -9v-41 q0 -9 -9 -9t-9 9zM380 369v41q0 9 9 9t9 -9v-41q0 -9 -9 -9t-9 9zM380 429v41q0 9 9 9t9 -9v-41q0 -9 -9 -9t-9 9zM260 489v41q0 9 9 9t9 -9v-41q0 -9 -9 -9t-9 9zM320 69v41q0 9 9 9t9 -9v-41q0 -9 -9 -9t-9 9zM320 129v41q0 9 9 9t9 -9v-41q0 -9 -9 -9t-9 9zM320 189v41 q0 9 9 9t9 -9v-41q0 -9 -9 -9t-9 9zM320 249v41q0 9 9 9t9 -9v-41q0 -9 -9 -9t-9 9zM320 309v41q0 9 9 9t9 -9v-41q0 -9 -9 -9t-9 9zM320 369v41q0 9 9 9t9 -9v-41q0 -9 -9 -9t-9 9zM320 429v41q0 9 9 9t9 -9v-41q0 -9 -9 -9t-9 9zM320 489v41q0 9 9 9t9 -9v-41q0 -9 -9 -9 t-9 9zM260 9v41q0 9 9 9t9 -9v-41q0 -9 -9 -9t-9 9zM200 9v41q0 9 9 9t9 -9v-41q0 -9 -9 -9t-9 9zM80 489v41q0 9 9 9t9 -9v-41q0 -9 -9 -9t-9 9zM80 9v41q0 9 9 9t9 -9v-41q0 -9 -9 -9t-9 9z" />
<glyph unicode="E" horiz-adv-x="420" d="M338 50v-41q0 -9 -9 -9t-9 9v41q0 9 9 9t9 -9zM158 530v-41q0 -9 -9 -9t-9 9v41q0 9 9 9t9 -9zM98 470v-41q0 -9 -9 -9t-9 9v41q0 9 9 9t9 -9zM98 410v-41q0 -9 -9 -9t-9 9v41q0 9 9 9t9 -9zM98 350v-41q0 -9 -9 -9t-9 9v41q0 9 9 9t9 -9zM98 290v-41q0 -9 -9 -9t-9 9v41 q0 9 9 9t9 -9zM98 230v-41q0 -9 -9 -9t-9 9v41q0 9 9 9t9 -9zM98 170v-41q0 -9 -9 -9t-9 9v41q0 9 9 9t9 -9zM98 110v-41q0 -9 -9 -9t-9 9v41q0 9 9 9t9 -9zM98 50v-41q0 -9 -9 -9t-9 9v41q0 9 9 9t9 -9zM158 470v-41q0 -9 -9 -9t-9 9v41q0 9 9 9t9 -9zM158 410v-41 q0 -9 -9 -9t-9 9v41q0 9 9 9t9 -9zM158 350v-41q0 -9 -9 -9t-9 9v41q0 9 9 9t9 -9zM158 290v-41q0 -9 -9 -9t-9 9v41q0 9 9 9t9 -9zM158 230v-41q0 -9 -9 -9t-9 9v41q0 9 9 9t9 -9zM158 170v-41q0 -9 -9 -9t-9 9v41q0 9 9 9t9 -9zM158 110v-41q0 -9 -9 -9t-9 9v41q0 9 9 9 t9 -9zM158 50v-41q0 -9 -9 -9t-9 9v41q0 9 9 9t9 -9zM98 530v-41q0 -9 -9 -9t-9 9v41q0 9 9 9t9 -9zM278 50v-41q0 -9 -9 -9t-9 9v41q0 9 9 9t9 -9zM218 50v-41q0 -9 -9 -9t-9 9v41q0 9 9 9t9 -9zM278 290v-41q0 -9 -9 -9t-9 9v41q0 9 9 9t9 -9zM218 290v-41q0 -9 -9 -9 t-9 9v41q0 9 9 9t9 -9zM278 530v-41q0 -9 -9 -9t-9 9v41q0 9 9 9t9 -9zM218 530v-41q0 -9 -9 -9t-9 9v41q0 9 9 9t9 -9zM338 530v-41q0 -9 -9 -9t-9 9v41q0 9 9 9t9 -9z" />
<glyph unicode="F" horiz-adv-x="420" d="M158 530v-41q0 -9 -9 -9t-9 9v41q0 9 9 9t9 -9zM98 470v-41q0 -9 -9 -9t-9 9v41q0 9 9 9t9 -9zM98 410v-41q0 -9 -9 -9t-9 9v41q0 9 9 9t9 -9zM98 350v-41q0 -9 -9 -9t-9 9v41q0 9 9 9t9 -9zM98 290v-41q0 -9 -9 -9t-9 9v41q0 9 9 9t9 -9zM98 230v-41q0 -9 -9 -9t-9 9v41 q0 9 9 9t9 -9zM98 170v-41q0 -9 -9 -9t-9 9v41q0 9 9 9t9 -9zM98 110v-41q0 -9 -9 -9t-9 9v41q0 9 9 9t9 -9zM98 50v-41q0 -9 -9 -9t-9 9v41q0 9 9 9t9 -9zM158 470v-41q0 -9 -9 -9t-9 9v41q0 9 9 9t9 -9zM158 410v-41q0 -9 -9 -9t-9 9v41q0 9 9 9t9 -9zM158 350v-41 q0 -9 -9 -9t-9 9v41q0 9 9 9t9 -9zM158 290v-41q0 -9 -9 -9t-9 9v41q0 9 9 9t9 -9zM158 230v-41q0 -9 -9 -9t-9 9v41q0 9 9 9t9 -9zM158 170v-41q0 -9 -9 -9t-9 9v41q0 9 9 9t9 -9zM158 110v-41q0 -9 -9 -9t-9 9v41q0 9 9 9t9 -9zM158 50v-41q0 -9 -9 -9t-9 9v41q0 9 9 9 t9 -9zM98 530v-41q0 -9 -9 -9t-9 9v41q0 9 9 9t9 -9zM278 290v-41q0 -9 -9 -9t-9 9v41q0 9 9 9t9 -9zM218 290v-41q0 -9 -9 -9t-9 9v41q0 9 9 9t9 -9zM278 530v-41q0 -9 -9 -9t-9 9v41q0 9 9 9t9 -9zM218 530v-41q0 -9 -9 -9t-9 9v41q0 9 9 9t9 -9zM338 530v-41q0 -9 -9 -9 t-9 9v41q0 9 9 9t9 -9z" />
<glyph unicode="G" d="M140 9v41q0 9 9 9t9 -9v-41q0 -9 -9 -9t-9 9zM140 69v41q0 9 9 9t9 -9v-41q0 -9 -9 -9t-9 9zM140 129v41q0 9 9 9t9 -9v-41q0 -9 -9 -9t-9 9zM140 189v41q0 9 9 9t9 -9v-41q0 -9 -9 -9t-9 9zM140 249v41q0 9 9 9t9 -9v-41q0 -9 -9 -9t-9 9zM140 309v41q0 9 9 9t9 -9v-41 q0 -9 -9 -9t-9 9zM140 369v41q0 9 9 9t9 -9v-41q0 -9 -9 -9t-9 9zM140 429v41q0 9 9 9t9 -9v-41q0 -9 -9 -9t-9 9zM140 489v41q0 9 9 9t9 -9v-41q0 -9 -9 -9t-9 9zM80 69v41q0 9 9 9t9 -9v-41q0 -9 -9 -9t-9 9zM80 129v41q0 9 9 9t9 -9v-41q0 -9 -9 -9t-9 9zM80 189v41 q0 9 9 9t9 -9v-41q0 -9 -9 -9t-9 9zM80 249v41q0 9 9 9t9 -9v-41q0 -9 -9 -9t-9 9zM80 309v41q0 9 9 9t9 -9v-41q0 -9 -9 -9t-9 9zM80 369v41q0 9 9 9t9 -9v-41q0 -9 -9 -9t-9 9zM80 429v41q0 9 9 9t9 -9v-41q0 -9 -9 -9t-9 9zM200 489v41q0 9 9 9t9 -9v-41q0 -9 -9 -9t-9 9 zM320 9v41q0 9 9 9t9 -9v-41q0 -9 -9 -9t-9 9zM380 69v41q0 9 9 9t9 -9v-41q0 -9 -9 -9t-9 9zM380 129v41q0 9 9 9t9 -9v-41q0 -9 -9 -9t-9 9zM380 189v41q0 9 9 9t9 -9v-41q0 -9 -9 -9t-9 9zM380 249v41q0 9 9 9t9 -9v-41q0 -9 -9 -9t-9 9zM380 429v41q0 9 9 9t9 -9v-41 q0 -9 -9 -9t-9 9zM260 489v41q0 9 9 9t9 -9v-41q0 -9 -9 -9t-9 9zM320 69v41q0 9 9 9t9 -9v-41q0 -9 -9 -9t-9 9zM320 129v41q0 9 9 9t9 -9v-41q0 -9 -9 -9t-9 9zM320 189v41q0 9 9 9t9 -9v-41q0 -9 -9 -9t-9 9zM320 249v41q0 9 9 9t9 -9v-41q0 -9 -9 -9t-9 9zM260 249v41 q0 9 9 9t9 -9v-41q0 -9 -9 -9t-9 9zM320 489v41q0 9 9 9t9 -9v-41q0 -9 -9 -9t-9 9zM260 9v41q0 9 9 9t9 -9v-41q0 -9 -9 -9t-9 9zM200 9v41q0 9 9 9t9 -9v-41q0 -9 -9 -9t-9 9z" />
<glyph unicode="H" d="M338 530v-41q0 -9 -9 -9t-9 9v41q0 9 9 9t9 -9zM338 470v-41q0 -9 -9 -9t-9 9v41q0 9 9 9t9 -9zM338 410v-41q0 -9 -9 -9t-9 9v41q0 9 9 9t9 -9zM338 350v-41q0 -9 -9 -9t-9 9v41q0 9 9 9t9 -9zM338 290v-41q0 -9 -9 -9t-9 9v41q0 9 9 9t9 -9zM338 230v-41q0 -9 -9 -9 t-9 9v41q0 9 9 9t9 -9zM338 170v-41q0 -9 -9 -9t-9 9v41q0 9 9 9t9 -9zM338 110v-41q0 -9 -9 -9t-9 9v41q0 9 9 9t9 -9zM338 50v-41q0 -9 -9 -9t-9 9v41q0 9 9 9t9 -9zM398 470v-41q0 -9 -9 -9t-9 9v41q0 9 9 9t9 -9zM398 410v-41q0 -9 -9 -9t-9 9v41q0 9 9 9t9 -9zM398 350 v-41q0 -9 -9 -9t-9 9v41q0 9 9 9t9 -9zM398 290v-41q0 -9 -9 -9t-9 9v41q0 9 9 9t9 -9zM398 230v-41q0 -9 -9 -9t-9 9v41q0 9 9 9t9 -9zM398 170v-41q0 -9 -9 -9t-9 9v41q0 9 9 9t9 -9zM398 110v-41q0 -9 -9 -9t-9 9v41q0 9 9 9t9 -9zM398 50v-41q0 -9 -9 -9t-9 9v41 q0 9 9 9t9 -9zM158 530v-41q0 -9 -9 -9t-9 9v41q0 9 9 9t9 -9zM98 470v-41q0 -9 -9 -9t-9 9v41q0 9 9 9t9 -9zM98 410v-41q0 -9 -9 -9t-9 9v41q0 9 9 9t9 -9zM98 350v-41q0 -9 -9 -9t-9 9v41q0 9 9 9t9 -9zM98 290v-41q0 -9 -9 -9t-9 9v41q0 9 9 9t9 -9zM98 230v-41 q0 -9 -9 -9t-9 9v41q0 9 9 9t9 -9zM98 170v-41q0 -9 -9 -9t-9 9v41q0 9 9 9t9 -9zM98 110v-41q0 -9 -9 -9t-9 9v41q0 9 9 9t9 -9zM98 50v-41q0 -9 -9 -9t-9 9v41q0 9 9 9t9 -9zM158 470v-41q0 -9 -9 -9t-9 9v41q0 9 9 9t9 -9zM158 410v-41q0 -9 -9 -9t-9 9v41q0 9 9 9t9 -9z M158 350v-41q0 -9 -9 -9t-9 9v41q0 9 9 9t9 -9zM158 290v-41q0 -9 -9 -9t-9 9v41q0 9 9 9t9 -9zM158 230v-41q0 -9 -9 -9t-9 9v41q0 9 9 9t9 -9zM158 170v-41q0 -9 -9 -9t-9 9v41q0 9 9 9t9 -9zM158 110v-41q0 -9 -9 -9t-9 9v41q0 9 9 9t9 -9zM158 50v-41q0 -9 -9 -9t-9 9 v41q0 9 9 9t9 -9zM98 530v-41q0 -9 -9 -9t-9 9v41q0 9 9 9t9 -9zM398 530v-41q0 -9 -9 -9t-9 9v41q0 9 9 9t9 -9zM278 290v-41q0 -9 -9 -9t-9 9v41q0 9 9 9t9 -9zM218 290v-41q0 -9 -9 -9t-9 9v41q0 9 9 9t9 -9z" />
<glyph unicode="I" horiz-adv-x="240" d="M158 530v-41q0 -9 -9 -9t-9 9v41q0 9 9 9t9 -9zM98 470v-41q0 -9 -9 -9t-9 9v41q0 9 9 9t9 -9zM98 410v-41q0 -9 -9 -9t-9 9v41q0 9 9 9t9 -9zM98 350v-41q0 -9 -9 -9t-9 9v41q0 9 9 9t9 -9zM98 290v-41q0 -9 -9 -9t-9 9v41q0 9 9 9t9 -9zM98 230v-41q0 -9 -9 -9t-9 9v41 q0 9 9 9t9 -9zM98 170v-41q0 -9 -9 -9t-9 9v41q0 9 9 9t9 -9zM98 110v-41q0 -9 -9 -9t-9 9v41q0 9 9 9t9 -9zM98 50v-41q0 -9 -9 -9t-9 9v41q0 9 9 9t9 -9zM158 470v-41q0 -9 -9 -9t-9 9v41q0 9 9 9t9 -9zM158 410v-41q0 -9 -9 -9t-9 9v41q0 9 9 9t9 -9zM158 350v-41 q0 -9 -9 -9t-9 9v41q0 9 9 9t9 -9zM158 290v-41q0 -9 -9 -9t-9 9v41q0 9 9 9t9 -9zM158 230v-41q0 -9 -9 -9t-9 9v41q0 9 9 9t9 -9zM158 170v-41q0 -9 -9 -9t-9 9v41q0 9 9 9t9 -9zM158 110v-41q0 -9 -9 -9t-9 9v41q0 9 9 9t9 -9zM158 50v-41q0 -9 -9 -9t-9 9v41q0 9 9 9 t9 -9zM98 530v-41q0 -9 -9 -9t-9 9v41q0 9 9 9t9 -9z" />
<glyph unicode="J" horiz-adv-x="420" d="M80 9v41q0 9 9 9t9 -9v-41q0 -9 -9 -9t-9 9zM80 69v41q0 9 9 9t9 -9v-41q0 -9 -9 -9t-9 9zM80 129v41q0 9 9 9t9 -9v-41q0 -9 -9 -9t-9 9zM80 189v41q0 9 9 9t9 -9v-41q0 -9 -9 -9t-9 9zM20 69v41q0 9 9 9t9 -9v-41q0 -9 -9 -9t-9 9zM20 129v41q0 9 9 9t9 -9v-41 q0 -9 -9 -9t-9 9zM20 189v41q0 9 9 9t9 -9v-41q0 -9 -9 -9t-9 9zM260 9v41q0 9 9 9t9 -9v-41q0 -9 -9 -9t-9 9zM320 69v41q0 9 9 9t9 -9v-41q0 -9 -9 -9t-9 9zM320 129v41q0 9 9 9t9 -9v-41q0 -9 -9 -9t-9 9zM320 189v41q0 9 9 9t9 -9v-41q0 -9 -9 -9t-9 9zM320 249v41 q0 9 9 9t9 -9v-41q0 -9 -9 -9t-9 9zM320 309v41q0 9 9 9t9 -9v-41q0 -9 -9 -9t-9 9zM320 369v41q0 9 9 9t9 -9v-41q0 -9 -9 -9t-9 9zM320 429v41q0 9 9 9t9 -9v-41q0 -9 -9 -9t-9 9zM320 489v41q0 9 9 9t9 -9v-41q0 -9 -9 -9t-9 9zM260 69v41q0 9 9 9t9 -9v-41q0 -9 -9 -9 t-9 9zM260 129v41q0 9 9 9t9 -9v-41q0 -9 -9 -9t-9 9zM260 189v41q0 9 9 9t9 -9v-41q0 -9 -9 -9t-9 9zM260 249v41q0 9 9 9t9 -9v-41q0 -9 -9 -9t-9 9zM260 309v41q0 9 9 9t9 -9v-41q0 -9 -9 -9t-9 9zM260 369v41q0 9 9 9t9 -9v-41q0 -9 -9 -9t-9 9zM260 429v41q0 9 9 9 t9 -9v-41q0 -9 -9 -9t-9 9zM260 489v41q0 9 9 9t9 -9v-41q0 -9 -9 -9t-9 9zM200 9v41q0 9 9 9t9 -9v-41q0 -9 -9 -9t-9 9zM140 9v41q0 9 9 9t9 -9v-41q0 -9 -9 -9t-9 9z" />
<glyph unicode="K" horiz-adv-x="540" d="M218 230v-41q0 -9 -9 -9t-9 9v41q0 9 9 9t9 -9zM98 230v-41q0 -9 -9 -9t-9 9v41q0 9 9 9t9 -9zM98 170v-41q0 -9 -9 -9t-9 9v41q0 9 9 9t9 -9zM98 110v-41q0 -9 -9 -9t-9 9v41q0 9 9 9t9 -9zM158 290v-41q0 -9 -9 -9t-9 9v41q0 9 9 9t9 -9zM158 230v-41q0 -9 -9 -9t-9 9 v41q0 9 9 9t9 -9zM158 170v-41q0 -9 -9 -9t-9 9v41q0 9 9 9t9 -9zM158 110v-41q0 -9 -9 -9t-9 9v41q0 9 9 9t9 -9zM98 290v-41q0 -9 -9 -9t-9 9v41q0 9 9 9t9 -9zM158 50v-41q0 -9 -9 -9t-9 9v41q0 9 9 9t9 -9zM98 50v-41q0 -9 -9 -9t-9 9v41q0 9 9 9t9 -9zM278 410v-41 q0 -9 -9 -9t-9 9v41q0 9 9 9t9 -9zM218 350v-41q0 -9 -9 -9t-9 9v41q0 9 9 9t9 -9zM158 530v-41q0 -9 -9 -9t-9 9v41q0 9 9 9t9 -9zM98 530v-41q0 -9 -9 -9t-9 9v41q0 9 9 9t9 -9zM338 170v-41q0 -9 -9 -9t-9 9v41q0 9 9 9t9 -9zM278 230v-41q0 -9 -9 -9t-9 9v41q0 9 9 9 t9 -9zM278 350v-41q0 -9 -9 -9t-9 9v41q0 9 9 9t9 -9zM218 290v-41q0 -9 -9 -9t-9 9v41q0 9 9 9t9 -9zM338 470v-41q0 -9 -9 -9t-9 9v41q0 9 9 9t9 -9zM338 410v-41q0 -9 -9 -9t-9 9v41q0 9 9 9t9 -9zM398 530v-41q0 -9 -9 -9t-9 9v41q0 9 9 9t9 -9zM398 470v-41q0 -9 -9 -9 t-9 9v41q0 9 9 9t9 -9zM458 530v-41q0 -9 -9 -9t-9 9v41q0 9 9 9t9 -9zM158 470v-41q0 -9 -9 -9t-9 9v41q0 9 9 9t9 -9zM98 470v-41q0 -9 -9 -9t-9 9v41q0 9 9 9t9 -9zM158 410v-41q0 -9 -9 -9t-9 9v41q0 9 9 9t9 -9zM98 410v-41q0 -9 -9 -9t-9 9v41q0 9 9 9t9 -9zM158 350 v-41q0 -9 -9 -9t-9 9v41q0 9 9 9t9 -9zM98 350v-41q0 -9 -9 -9t-9 9v41q0 9 9 9t9 -9zM338 110v-41q0 -9 -9 -9t-9 9v41q0 9 9 9t9 -9zM278 170v-41q0 -9 -9 -9t-9 9v41q0 9 9 9t9 -9zM398 110v-41q0 -9 -9 -9t-9 9v41q0 9 9 9t9 -9zM398 50v-41q0 -9 -9 -9t-9 9v41q0 9 9 9 t9 -9zM458 50v-41q0 -9 -9 -9t-9 9v41q0 9 9 9t9 -9z" />
<glyph unicode="L" horiz-adv-x="420" d="M338 50v-41q0 -9 -9 -9t-9 9v41q0 9 9 9t9 -9zM158 530v-41q0 -9 -9 -9t-9 9v41q0 9 9 9t9 -9zM98 470v-41q0 -9 -9 -9t-9 9v41q0 9 9 9t9 -9zM98 410v-41q0 -9 -9 -9t-9 9v41q0 9 9 9t9 -9zM98 350v-41q0 -9 -9 -9t-9 9v41q0 9 9 9t9 -9zM98 290v-41q0 -9 -9 -9t-9 9v41 q0 9 9 9t9 -9zM98 230v-41q0 -9 -9 -9t-9 9v41q0 9 9 9t9 -9zM98 170v-41q0 -9 -9 -9t-9 9v41q0 9 9 9t9 -9zM98 110v-41q0 -9 -9 -9t-9 9v41q0 9 9 9t9 -9zM98 50v-41q0 -9 -9 -9t-9 9v41q0 9 9 9t9 -9zM158 470v-41q0 -9 -9 -9t-9 9v41q0 9 9 9t9 -9zM158 410v-41 q0 -9 -9 -9t-9 9v41q0 9 9 9t9 -9zM158 350v-41q0 -9 -9 -9t-9 9v41q0 9 9 9t9 -9zM158 290v-41q0 -9 -9 -9t-9 9v41q0 9 9 9t9 -9zM158 230v-41q0 -9 -9 -9t-9 9v41q0 9 9 9t9 -9zM158 170v-41q0 -9 -9 -9t-9 9v41q0 9 9 9t9 -9zM158 110v-41q0 -9 -9 -9t-9 9v41q0 9 9 9 t9 -9zM158 50v-41q0 -9 -9 -9t-9 9v41q0 9 9 9t9 -9zM98 530v-41q0 -9 -9 -9t-9 9v41q0 9 9 9t9 -9zM278 50v-41q0 -9 -9 -9t-9 9v41q0 9 9 9t9 -9zM218 50v-41q0 -9 -9 -9t-9 9v41q0 9 9 9t9 -9z" />
<glyph unicode="M" horiz-adv-x="720" d="M380 249v41q0 9 9 9t9 -9v-41q0 -9 -9 -9t-9 9zM320 189v41q0 9 9 9t9 -9v-41q0 -9 -9 -9t-9 9zM320 129v41q0 9 9 9t9 -9v-41q0 -9 -9 -9t-9 9zM200 309v41q0 9 9 9t9 -9v-41q0 -9 -9 -9t-9 9zM260 249v41q0 9 9 9t9 -9v-41q0 -9 -9 -9t-9 9zM80 489v41q0 9 9 9t9 -9 v-41q0 -9 -9 -9t-9 9zM80 9v41q0 9 9 9t9 -9v-41q0 -9 -9 -9t-9 9zM200 249v41q0 9 9 9t9 -9v-41q0 -9 -9 -9t-9 9zM260 189v41q0 9 9 9t9 -9v-41q0 -9 -9 -9t-9 9zM140 369v41q0 9 9 9t9 -9v-41q0 -9 -9 -9t-9 9zM140 309v41q0 9 9 9t9 -9v-41q0 -9 -9 -9t-9 9zM80 429v41 q0 9 9 9t9 -9v-41q0 -9 -9 -9t-9 9zM80 369v41q0 9 9 9t9 -9v-41q0 -9 -9 -9t-9 9zM140 429v41q0 9 9 9t9 -9v-41q0 -9 -9 -9t-9 9zM200 369v41q0 9 9 9t9 -9v-41q0 -9 -9 -9t-9 9zM260 309v41q0 9 9 9t9 -9v-41q0 -9 -9 -9t-9 9zM320 249v41q0 9 9 9t9 -9v-41q0 -9 -9 -9 t-9 9zM380 189v41q0 9 9 9t9 -9v-41q0 -9 -9 -9t-9 9zM80 69v41q0 9 9 9t9 -9v-41q0 -9 -9 -9t-9 9zM80 129v41q0 9 9 9t9 -9v-41q0 -9 -9 -9t-9 9zM80 189v41q0 9 9 9t9 -9v-41q0 -9 -9 -9t-9 9zM80 249v41q0 9 9 9t9 -9v-41q0 -9 -9 -9t-9 9zM80 309v41q0 9 9 9t9 -9v-41 q0 -9 -9 -9t-9 9zM440 309v41q0 9 9 9t9 -9v-41q0 -9 -9 -9t-9 9zM440 249v41q0 9 9 9t9 -9v-41q0 -9 -9 -9t-9 9zM500 369v41q0 9 9 9t9 -9v-41q0 -9 -9 -9t-9 9zM500 309v41q0 9 9 9t9 -9v-41q0 -9 -9 -9t-9 9zM560 9v41q0 9 9 9t9 -9v-41q0 -9 -9 -9t-9 9zM560 429v41 q0 9 9 9t9 -9v-41q0 -9 -9 -9t-9 9zM560 369v41q0 9 9 9t9 -9v-41q0 -9 -9 -9t-9 9zM560 69v41q0 9 9 9t9 -9v-41q0 -9 -9 -9t-9 9zM560 129v41q0 9 9 9t9 -9v-41q0 -9 -9 -9t-9 9zM560 189v41q0 9 9 9t9 -9v-41q0 -9 -9 -9t-9 9zM560 249v41q0 9 9 9t9 -9v-41q0 -9 -9 -9 t-9 9zM560 309v41q0 9 9 9t9 -9v-41q0 -9 -9 -9t-9 9zM620 489v41q0 9 9 9t9 -9v-41q0 -9 -9 -9t-9 9zM620 9v41q0 9 9 9t9 -9v-41q0 -9 -9 -9t-9 9zM620 429v41q0 9 9 9t9 -9v-41q0 -9 -9 -9t-9 9zM620 369v41q0 9 9 9t9 -9v-41q0 -9 -9 -9t-9 9zM620 69v41q0 9 9 9t9 -9 v-41q0 -9 -9 -9t-9 9zM620 129v41q0 9 9 9t9 -9v-41q0 -9 -9 -9t-9 9zM620 189v41q0 9 9 9t9 -9v-41q0 -9 -9 -9t-9 9zM620 249v41q0 9 9 9t9 -9v-41q0 -9 -9 -9t-9 9zM620 309v41q0 9 9 9t9 -9v-41q0 -9 -9 -9t-9 9z" />
<glyph unicode="N" horiz-adv-x="540" d="M380 129v41q0 9 9 9t9 -9v-41q0 -9 -9 -9t-9 9zM380 69v41q0 9 9 9t9 -9v-41q0 -9 -9 -9t-9 9zM380 9v41q0 9 9 9t9 -9v-41q0 -9 -9 -9t-9 9zM320 189v41q0 9 9 9t9 -9v-41q0 -9 -9 -9t-9 9zM320 129v41q0 9 9 9t9 -9v-41q0 -9 -9 -9t-9 9zM320 69v41q0 9 9 9t9 -9v-41 q0 -9 -9 -9t-9 9zM320 9v41q0 9 9 9t9 -9v-41q0 -9 -9 -9t-9 9zM200 309v41q0 9 9 9t9 -9v-41q0 -9 -9 -9t-9 9zM260 249v41q0 9 9 9t9 -9v-41q0 -9 -9 -9t-9 9zM140 489v41q0 9 9 9t9 -9v-41q0 -9 -9 -9t-9 9zM80 489v41q0 9 9 9t9 -9v-41q0 -9 -9 -9t-9 9zM80 9v41 q0 9 9 9t9 -9v-41q0 -9 -9 -9t-9 9zM200 249v41q0 9 9 9t9 -9v-41q0 -9 -9 -9t-9 9zM260 189v41q0 9 9 9t9 -9v-41q0 -9 -9 -9t-9 9zM140 369v41q0 9 9 9t9 -9v-41q0 -9 -9 -9t-9 9zM140 309v41q0 9 9 9t9 -9v-41q0 -9 -9 -9t-9 9zM80 429v41q0 9 9 9t9 -9v-41q0 -9 -9 -9 t-9 9zM80 369v41q0 9 9 9t9 -9v-41q0 -9 -9 -9t-9 9zM140 429v41q0 9 9 9t9 -9v-41q0 -9 -9 -9t-9 9zM200 369v41q0 9 9 9t9 -9v-41q0 -9 -9 -9t-9 9zM260 309v41q0 9 9 9t9 -9v-41q0 -9 -9 -9t-9 9zM320 249v41q0 9 9 9t9 -9v-41q0 -9 -9 -9t-9 9zM380 189v41q0 9 9 9t9 -9 v-41q0 -9 -9 -9t-9 9zM80 69v41q0 9 9 9t9 -9v-41q0 -9 -9 -9t-9 9zM80 129v41q0 9 9 9t9 -9v-41q0 -9 -9 -9t-9 9zM80 189v41q0 9 9 9t9 -9v-41q0 -9 -9 -9t-9 9zM80 249v41q0 9 9 9t9 -9v-41q0 -9 -9 -9t-9 9zM80 309v41q0 9 9 9t9 -9v-41q0 -9 -9 -9t-9 9zM440 489v41 q0 9 9 9t9 -9v-41q0 -9 -9 -9t-9 9zM440 9v41q0 9 9 9t9 -9v-41q0 -9 -9 -9t-9 9zM440 429v41q0 9 9 9t9 -9v-41q0 -9 -9 -9t-9 9zM440 369v41q0 9 9 9t9 -9v-41q0 -9 -9 -9t-9 9zM440 69v41q0 9 9 9t9 -9v-41q0 -9 -9 -9t-9 9zM440 129v41q0 9 9 9t9 -9v-41q0 -9 -9 -9 t-9 9zM440 189v41q0 9 9 9t9 -9v-41q0 -9 -9 -9t-9 9zM440 249v41q0 9 9 9t9 -9v-41q0 -9 -9 -9t-9 9zM440 309v41q0 9 9 9t9 -9v-41q0 -9 -9 -9t-9 9z" />
<glyph unicode="O" d="M140 9v41q0 9 9 9t9 -9v-41q0 -9 -9 -9t-9 9zM140 69v41q0 9 9 9t9 -9v-41q0 -9 -9 -9t-9 9zM140 129v41q0 9 9 9t9 -9v-41q0 -9 -9 -9t-9 9zM140 189v41q0 9 9 9t9 -9v-41q0 -9 -9 -9t-9 9zM140 249v41q0 9 9 9t9 -9v-41q0 -9 -9 -9t-9 9zM140 309v41q0 9 9 9t9 -9v-41 q0 -9 -9 -9t-9 9zM140 369v41q0 9 9 9t9 -9v-41q0 -9 -9 -9t-9 9zM140 429v41q0 9 9 9t9 -9v-41q0 -9 -9 -9t-9 9zM140 489v41q0 9 9 9t9 -9v-41q0 -9 -9 -9t-9 9zM80 69v41q0 9 9 9t9 -9v-41q0 -9 -9 -9t-9 9zM80 129v41q0 9 9 9t9 -9v-41q0 -9 -9 -9t-9 9zM80 189v41 q0 9 9 9t9 -9v-41q0 -9 -9 -9t-9 9zM80 249v41q0 9 9 9t9 -9v-41q0 -9 -9 -9t-9 9zM80 309v41q0 9 9 9t9 -9v-41q0 -9 -9 -9t-9 9zM80 369v41q0 9 9 9t9 -9v-41q0 -9 -9 -9t-9 9zM80 429v41q0 9 9 9t9 -9v-41q0 -9 -9 -9t-9 9zM200 489v41q0 9 9 9t9 -9v-41q0 -9 -9 -9t-9 9 zM320 9v41q0 9 9 9t9 -9v-41q0 -9 -9 -9t-9 9zM380 69v41q0 9 9 9t9 -9v-41q0 -9 -9 -9t-9 9zM380 129v41q0 9 9 9t9 -9v-41q0 -9 -9 -9t-9 9zM380 189v41q0 9 9 9t9 -9v-41q0 -9 -9 -9t-9 9zM380 249v41q0 9 9 9t9 -9v-41q0 -9 -9 -9t-9 9zM380 309v41q0 9 9 9t9 -9v-41 q0 -9 -9 -9t-9 9zM380 369v41q0 9 9 9t9 -9v-41q0 -9 -9 -9t-9 9zM380 429v41q0 9 9 9t9 -9v-41q0 -9 -9 -9t-9 9zM260 489v41q0 9 9 9t9 -9v-41q0 -9 -9 -9t-9 9zM320 69v41q0 9 9 9t9 -9v-41q0 -9 -9 -9t-9 9zM320 129v41q0 9 9 9t9 -9v-41q0 -9 -9 -9t-9 9zM320 189v41 q0 9 9 9t9 -9v-41q0 -9 -9 -9t-9 9zM320 249v41q0 9 9 9t9 -9v-41q0 -9 -9 -9t-9 9zM320 309v41q0 9 9 9t9 -9v-41q0 -9 -9 -9t-9 9zM320 369v41q0 9 9 9t9 -9v-41q0 -9 -9 -9t-9 9zM320 429v41q0 9 9 9t9 -9v-41q0 -9 -9 -9t-9 9zM320 489v41q0 9 9 9t9 -9v-41q0 -9 -9 -9 t-9 9zM260 9v41q0 9 9 9t9 -9v-41q0 -9 -9 -9t-9 9zM200 9v41q0 9 9 9t9 -9v-41q0 -9 -9 -9t-9 9z" />
<glyph unicode="P" d="M338 530v-41q0 -9 -9 -9t-9 9v41q0 9 9 9t9 -9zM338 470v-41q0 -9 -9 -9t-9 9v41q0 9 9 9t9 -9zM338 410v-41q0 -9 -9 -9t-9 9v41q0 9 9 9t9 -9zM338 350v-41q0 -9 -9 -9t-9 9v41q0 9 9 9t9 -9zM338 290v-41q0 -9 -9 -9t-9 9v41q0 9 9 9t9 -9zM398 470v-41q0 -9 -9 -9 t-9 9v41q0 9 9 9t9 -9zM398 410v-41q0 -9 -9 -9t-9 9v41q0 9 9 9t9 -9zM398 350v-41q0 -9 -9 -9t-9 9v41q0 9 9 9t9 -9zM98 530v-41q0 -9 -9 -9t-9 9v41q0 9 9 9t9 -9zM158 530v-41q0 -9 -9 -9t-9 9v41q0 9 9 9t9 -9zM98 470v-41q0 -9 -9 -9t-9 9v41q0 9 9 9t9 -9zM98 410 v-41q0 -9 -9 -9t-9 9v41q0 9 9 9t9 -9zM98 350v-41q0 -9 -9 -9t-9 9v41q0 9 9 9t9 -9zM98 290v-41q0 -9 -9 -9t-9 9v41q0 9 9 9t9 -9zM98 230v-41q0 -9 -9 -9t-9 9v41q0 9 9 9t9 -9zM98 170v-41q0 -9 -9 -9t-9 9v41q0 9 9 9t9 -9zM98 110v-41q0 -9 -9 -9t-9 9v41q0 9 9 9 t9 -9zM98 50v-41q0 -9 -9 -9t-9 9v41q0 9 9 9t9 -9zM158 470v-41q0 -9 -9 -9t-9 9v41q0 9 9 9t9 -9zM158 410v-41q0 -9 -9 -9t-9 9v41q0 9 9 9t9 -9zM158 350v-41q0 -9 -9 -9t-9 9v41q0 9 9 9t9 -9zM158 290v-41q0 -9 -9 -9t-9 9v41q0 9 9 9t9 -9zM158 230v-41q0 -9 -9 -9 t-9 9v41q0 9 9 9t9 -9zM158 170v-41q0 -9 -9 -9t-9 9v41q0 9 9 9t9 -9zM158 110v-41q0 -9 -9 -9t-9 9v41q0 9 9 9t9 -9zM158 50v-41q0 -9 -9 -9t-9 9v41q0 9 9 9t9 -9zM218 530v-41q0 -9 -9 -9t-9 9v41q0 9 9 9t9 -9zM278 530v-41q0 -9 -9 -9t-9 9v41q0 9 9 9t9 -9zM278 290 v-41q0 -9 -9 -9t-9 9v41q0 9 9 9t9 -9zM218 290v-41q0 -9 -9 -9t-9 9v41q0 9 9 9t9 -9z" />
<glyph unicode="Q" d="M140 9v41q0 9 9 9t9 -9v-41q0 -9 -9 -9t-9 9zM140 69v41q0 9 9 9t9 -9v-41q0 -9 -9 -9t-9 9zM140 129v41q0 9 9 9t9 -9v-41q0 -9 -9 -9t-9 9zM140 189v41q0 9 9 9t9 -9v-41q0 -9 -9 -9t-9 9zM140 249v41q0 9 9 9t9 -9v-41q0 -9 -9 -9t-9 9zM140 309v41q0 9 9 9t9 -9v-41 q0 -9 -9 -9t-9 9zM140 369v41q0 9 9 9t9 -9v-41q0 -9 -9 -9t-9 9zM140 429v41q0 9 9 9t9 -9v-41q0 -9 -9 -9t-9 9zM140 489v41q0 9 9 9t9 -9v-41q0 -9 -9 -9t-9 9zM80 69v41q0 9 9 9t9 -9v-41q0 -9 -9 -9t-9 9zM80 129v41q0 9 9 9t9 -9v-41q0 -9 -9 -9t-9 9zM80 189v41 q0 9 9 9t9 -9v-41q0 -9 -9 -9t-9 9zM80 249v41q0 9 9 9t9 -9v-41q0 -9 -9 -9t-9 9zM80 309v41q0 9 9 9t9 -9v-41q0 -9 -9 -9t-9 9zM80 369v41q0 9 9 9t9 -9v-41q0 -9 -9 -9t-9 9zM80 429v41q0 9 9 9t9 -9v-41q0 -9 -9 -9t-9 9zM200 489v41q0 9 9 9t9 -9v-41q0 -9 -9 -9t-9 9 zM320 9v41q0 9 9 9t9 -9v-41q0 -9 -9 -9t-9 9zM380 69v41q0 9 9 9t9 -9v-41q0 -9 -9 -9t-9 9zM380 129v41q0 9 9 9t9 -9v-41q0 -9 -9 -9t-9 9zM380 189v41q0 9 9 9t9 -9v-41q0 -9 -9 -9t-9 9zM380 249v41q0 9 9 9t9 -9v-41q0 -9 -9 -9t-9 9zM380 309v41q0 9 9 9t9 -9v-41 q0 -9 -9 -9t-9 9zM380 369v41q0 9 9 9t9 -9v-41q0 -9 -9 -9t-9 9zM380 429v41q0 9 9 9t9 -9v-41q0 -9 -9 -9t-9 9zM260 489v41q0 9 9 9t9 -9v-41q0 -9 -9 -9t-9 9zM320 69v41q0 9 9 9t9 -9v-41q0 -9 -9 -9t-9 9zM320 129v41q0 9 9 9t9 -9v-41q0 -9 -9 -9t-9 9zM320 189v41 q0 9 9 9t9 -9v-41q0 -9 -9 -9t-9 9zM320 249v41q0 9 9 9t9 -9v-41q0 -9 -9 -9t-9 9zM320 309v41q0 9 9 9t9 -9v-41q0 -9 -9 -9t-9 9zM320 369v41q0 9 9 9t9 -9v-41q0 -9 -9 -9t-9 9zM320 429v41q0 9 9 9t9 -9v-41q0 -9 -9 -9t-9 9zM320 489v41q0 9 9 9t9 -9v-41q0 -9 -9 -9 t-9 9zM260 9v41q0 9 9 9t9 -9v-41q0 -9 -9 -9t-9 9zM200 9v41q0 9 9 9t9 -9v-41q0 -9 -9 -9t-9 9zM380 -51v41q0 9 9 9t9 -9v-41q0 -9 -9 -9t-9 9zM320 -51v41q0 9 9 9t9 -9v-41q0 -9 -9 -9t-9 9z" />
<glyph unicode="R" d="M338 530v-41q0 -9 -9 -9t-9 9v41q0 9 9 9t9 -9zM338 470v-41q0 -9 -9 -9t-9 9v41q0 9 9 9t9 -9zM338 410v-41q0 -9 -9 -9t-9 9v41q0 9 9 9t9 -9zM338 350v-41q0 -9 -9 -9t-9 9v41q0 9 9 9t9 -9zM338 290v-41q0 -9 -9 -9t-9 9v41q0 9 9 9t9 -9zM338 230v-41q0 -9 -9 -9 t-9 9v41q0 9 9 9t9 -9zM338 170v-41q0 -9 -9 -9t-9 9v41q0 9 9 9t9 -9zM338 110v-41q0 -9 -9 -9t-9 9v41q0 9 9 9t9 -9zM338 50v-41q0 -9 -9 -9t-9 9v41q0 9 9 9t9 -9zM398 470v-41q0 -9 -9 -9t-9 9v41q0 9 9 9t9 -9zM398 410v-41q0 -9 -9 -9t-9 9v41q0 9 9 9t9 -9zM398 350 v-41q0 -9 -9 -9t-9 9v41q0 9 9 9t9 -9zM98 530v-41q0 -9 -9 -9t-9 9v41q0 9 9 9t9 -9zM398 230v-41q0 -9 -9 -9t-9 9v41q0 9 9 9t9 -9zM398 170v-41q0 -9 -9 -9t-9 9v41q0 9 9 9t9 -9zM398 110v-41q0 -9 -9 -9t-9 9v41q0 9 9 9t9 -9zM398 50v-41q0 -9 -9 -9t-9 9v41q0 9 9 9 t9 -9zM158 530v-41q0 -9 -9 -9t-9 9v41q0 9 9 9t9 -9zM98 470v-41q0 -9 -9 -9t-9 9v41q0 9 9 9t9 -9zM98 410v-41q0 -9 -9 -9t-9 9v41q0 9 9 9t9 -9zM98 350v-41q0 -9 -9 -9t-9 9v41q0 9 9 9t9 -9zM98 290v-41q0 -9 -9 -9t-9 9v41q0 9 9 9t9 -9zM98 230v-41q0 -9 -9 -9t-9 9 v41q0 9 9 9t9 -9zM98 170v-41q0 -9 -9 -9t-9 9v41q0 9 9 9t9 -9zM98 110v-41q0 -9 -9 -9t-9 9v41q0 9 9 9t9 -9zM98 50v-41q0 -9 -9 -9t-9 9v41q0 9 9 9t9 -9zM158 470v-41q0 -9 -9 -9t-9 9v41q0 9 9 9t9 -9zM158 410v-41q0 -9 -9 -9t-9 9v41q0 9 9 9t9 -9zM158 350v-41 q0 -9 -9 -9t-9 9v41q0 9 9 9t9 -9zM158 290v-41q0 -9 -9 -9t-9 9v41q0 9 9 9t9 -9zM158 230v-41q0 -9 -9 -9t-9 9v41q0 9 9 9t9 -9zM158 170v-41q0 -9 -9 -9t-9 9v41q0 9 9 9t9 -9zM158 110v-41q0 -9 -9 -9t-9 9v41q0 9 9 9t9 -9zM158 50v-41q0 -9 -9 -9t-9 9v41q0 9 9 9 t9 -9zM218 530v-41q0 -9 -9 -9t-9 9v41q0 9 9 9t9 -9zM278 530v-41q0 -9 -9 -9t-9 9v41q0 9 9 9t9 -9zM278 290v-41q0 -9 -9 -9t-9 9v41q0 9 9 9t9 -9zM218 290v-41q0 -9 -9 -9t-9 9v41q0 9 9 9t9 -9z" />
<glyph unicode="S" horiz-adv-x="420" d="M200 249v41q0 9 9 9t9 -9v-41q0 -9 -9 -9t-9 9zM80 69v41q0 9 9 9t9 -9v-41q0 -9 -9 -9t-9 9zM200 189v41q0 9 9 9t9 -9v-41q0 -9 -9 -9t-9 9zM260 9v41q0 9 9 9t9 -9v-41q0 -9 -9 -9t-9 9zM320 69v41q0 9 9 9t9 -9v-41q0 -9 -9 -9t-9 9zM320 129v41q0 9 9 9t9 -9v-41 q0 -9 -9 -9t-9 9zM320 189v41q0 9 9 9t9 -9v-41q0 -9 -9 -9t-9 9zM320 429v41q0 9 9 9t9 -9v-41q0 -9 -9 -9t-9 9zM260 69v41q0 9 9 9t9 -9v-41q0 -9 -9 -9t-9 9zM260 129v41q0 9 9 9t9 -9v-41q0 -9 -9 -9t-9 9zM260 189v41q0 9 9 9t9 -9v-41q0 -9 -9 -9t-9 9zM260 249v41 q0 9 9 9t9 -9v-41q0 -9 -9 -9t-9 9zM260 429v41q0 9 9 9t9 -9v-41q0 -9 -9 -9t-9 9zM260 489v41q0 9 9 9t9 -9v-41q0 -9 -9 -9t-9 9zM200 9v41q0 9 9 9t9 -9v-41q0 -9 -9 -9t-9 9zM140 9v41q0 9 9 9t9 -9v-41q0 -9 -9 -9t-9 9zM200 309v41q0 9 9 9t9 -9v-41q0 -9 -9 -9t-9 9 zM200 489v41q0 9 9 9t9 -9v-41q0 -9 -9 -9t-9 9zM140 249v41q0 9 9 9t9 -9v-41q0 -9 -9 -9t-9 9zM140 309v41q0 9 9 9t9 -9v-41q0 -9 -9 -9t-9 9zM140 369v41q0 9 9 9t9 -9v-41q0 -9 -9 -9t-9 9zM140 429v41q0 9 9 9t9 -9v-41q0 -9 -9 -9t-9 9zM140 489v41q0 9 9 9t9 -9v-41 q0 -9 -9 -9t-9 9zM80 309v41q0 9 9 9t9 -9v-41q0 -9 -9 -9t-9 9zM80 369v41q0 9 9 9t9 -9v-41q0 -9 -9 -9t-9 9zM80 429v41q0 9 9 9t9 -9v-41q0 -9 -9 -9t-9 9z" />
<glyph unicode="T" horiz-adv-x="360" d="M200 489v41q0 9 9 9t9 -9v-41q0 -9 -9 -9t-9 9zM80 489v41q0 9 9 9t9 -9v-41q0 -9 -9 -9t-9 9zM140 489v41q0 9 9 9t9 -9v-41q0 -9 -9 -9t-9 9zM20 489v41q0 9 9 9t9 -9v-41q0 -9 -9 -9t-9 9zM200 309v41q0 9 9 9t9 -9v-41q0 -9 -9 -9t-9 9zM200 369v41q0 9 9 9t9 -9v-41 q0 -9 -9 -9t-9 9zM200 429v41q0 9 9 9t9 -9v-41q0 -9 -9 -9t-9 9zM320 489v41q0 9 9 9t9 -9v-41q0 -9 -9 -9t-9 9zM140 309v41q0 9 9 9t9 -9v-41q0 -9 -9 -9t-9 9zM140 369v41q0 9 9 9t9 -9v-41q0 -9 -9 -9t-9 9zM140 429v41q0 9 9 9t9 -9v-41q0 -9 -9 -9t-9 9zM260 489v41 q0 9 9 9t9 -9v-41q0 -9 -9 -9t-9 9zM200 249v41q0 9 9 9t9 -9v-41q0 -9 -9 -9t-9 9zM140 249v41q0 9 9 9t9 -9v-41q0 -9 -9 -9t-9 9zM200 189v41q0 9 9 9t9 -9v-41q0 -9 -9 -9t-9 9zM140 189v41q0 9 9 9t9 -9v-41q0 -9 -9 -9t-9 9zM200 129v41q0 9 9 9t9 -9v-41q0 -9 -9 -9 t-9 9zM140 129v41q0 9 9 9t9 -9v-41q0 -9 -9 -9t-9 9zM200 69v41q0 9 9 9t9 -9v-41q0 -9 -9 -9t-9 9zM140 69v41q0 9 9 9t9 -9v-41q0 -9 -9 -9t-9 9zM200 9v41q0 9 9 9t9 -9v-41q0 -9 -9 -9t-9 9zM140 9v41q0 9 9 9t9 -9v-41q0 -9 -9 -9t-9 9z" />
<glyph unicode="U" d="M140 9v41q0 9 9 9t9 -9v-41q0 -9 -9 -9t-9 9zM140 69v41q0 9 9 9t9 -9v-41q0 -9 -9 -9t-9 9zM140 129v41q0 9 9 9t9 -9v-41q0 -9 -9 -9t-9 9zM140 189v41q0 9 9 9t9 -9v-41q0 -9 -9 -9t-9 9zM140 249v41q0 9 9 9t9 -9v-41q0 -9 -9 -9t-9 9zM140 309v41q0 9 9 9t9 -9v-41 q0 -9 -9 -9t-9 9zM140 369v41q0 9 9 9t9 -9v-41q0 -9 -9 -9t-9 9zM140 429v41q0 9 9 9t9 -9v-41q0 -9 -9 -9t-9 9zM140 489v41q0 9 9 9t9 -9v-41q0 -9 -9 -9t-9 9zM80 69v41q0 9 9 9t9 -9v-41q0 -9 -9 -9t-9 9zM80 129v41q0 9 9 9t9 -9v-41q0 -9 -9 -9t-9 9zM80 189v41 q0 9 9 9t9 -9v-41q0 -9 -9 -9t-9 9zM80 249v41q0 9 9 9t9 -9v-41q0 -9 -9 -9t-9 9zM80 309v41q0 9 9 9t9 -9v-41q0 -9 -9 -9t-9 9zM80 369v41q0 9 9 9t9 -9v-41q0 -9 -9 -9t-9 9zM80 429v41q0 9 9 9t9 -9v-41q0 -9 -9 -9t-9 9zM80 489v41q0 9 9 9t9 -9v-41q0 -9 -9 -9t-9 9z M320 9v41q0 9 9 9t9 -9v-41q0 -9 -9 -9t-9 9zM380 69v41q0 9 9 9t9 -9v-41q0 -9 -9 -9t-9 9zM380 129v41q0 9 9 9t9 -9v-41q0 -9 -9 -9t-9 9zM380 189v41q0 9 9 9t9 -9v-41q0 -9 -9 -9t-9 9zM380 249v41q0 9 9 9t9 -9v-41q0 -9 -9 -9t-9 9zM380 309v41q0 9 9 9t9 -9v-41 q0 -9 -9 -9t-9 9zM380 369v41q0 9 9 9t9 -9v-41q0 -9 -9 -9t-9 9zM380 429v41q0 9 9 9t9 -9v-41q0 -9 -9 -9t-9 9zM380 489v41q0 9 9 9t9 -9v-41q0 -9 -9 -9t-9 9zM320 69v41q0 9 9 9t9 -9v-41q0 -9 -9 -9t-9 9zM320 129v41q0 9 9 9t9 -9v-41q0 -9 -9 -9t-9 9zM320 189v41 q0 9 9 9t9 -9v-41q0 -9 -9 -9t-9 9zM320 249v41q0 9 9 9t9 -9v-41q0 -9 -9 -9t-9 9zM320 309v41q0 9 9 9t9 -9v-41q0 -9 -9 -9t-9 9zM320 369v41q0 9 9 9t9 -9v-41q0 -9 -9 -9t-9 9zM320 429v41q0 9 9 9t9 -9v-41q0 -9 -9 -9t-9 9zM320 489v41q0 9 9 9t9 -9v-41q0 -9 -9 -9 t-9 9zM260 9v41q0 9 9 9t9 -9v-41q0 -9 -9 -9t-9 9zM200 9v41q0 9 9 9t9 -9v-41q0 -9 -9 -9t-9 9z" />
<glyph unicode="V" d="M80 9v41q0 9 9 9t9 -9v-41q0 -9 -9 -9t-9 9zM140 69v41q0 9 9 9t9 -9v-41q0 -9 -9 -9t-9 9zM140 129v41q0 9 9 9t9 -9v-41q0 -9 -9 -9t-9 9zM140 189v41q0 9 9 9t9 -9v-41q0 -9 -9 -9t-9 9zM140 249v41q0 9 9 9t9 -9v-41q0 -9 -9 -9t-9 9zM140 309v41q0 9 9 9t9 -9v-41 q0 -9 -9 -9t-9 9zM140 369v41q0 9 9 9t9 -9v-41q0 -9 -9 -9t-9 9zM140 429v41q0 9 9 9t9 -9v-41q0 -9 -9 -9t-9 9zM140 489v41q0 9 9 9t9 -9v-41q0 -9 -9 -9t-9 9zM80 69v41q0 9 9 9t9 -9v-41q0 -9 -9 -9t-9 9zM80 129v41q0 9 9 9t9 -9v-41q0 -9 -9 -9t-9 9zM80 189v41 q0 9 9 9t9 -9v-41q0 -9 -9 -9t-9 9zM80 249v41q0 9 9 9t9 -9v-41q0 -9 -9 -9t-9 9zM80 309v41q0 9 9 9t9 -9v-41q0 -9 -9 -9t-9 9zM80 369v41q0 9 9 9t9 -9v-41q0 -9 -9 -9t-9 9zM80 429v41q0 9 9 9t9 -9v-41q0 -9 -9 -9t-9 9zM80 489v41q0 9 9 9t9 -9v-41q0 -9 -9 -9t-9 9z M260 9v41q0 9 9 9t9 -9v-41q0 -9 -9 -9t-9 9zM380 129v41q0 9 9 9t9 -9v-41q0 -9 -9 -9t-9 9zM380 189v41q0 9 9 9t9 -9v-41q0 -9 -9 -9t-9 9zM380 249v41q0 9 9 9t9 -9v-41q0 -9 -9 -9t-9 9zM380 309v41q0 9 9 9t9 -9v-41q0 -9 -9 -9t-9 9zM380 369v41q0 9 9 9t9 -9v-41 q0 -9 -9 -9t-9 9zM380 429v41q0 9 9 9t9 -9v-41q0 -9 -9 -9t-9 9zM380 489v41q0 9 9 9t9 -9v-41q0 -9 -9 -9t-9 9zM320 69v41q0 9 9 9t9 -9v-41q0 -9 -9 -9t-9 9zM320 129v41q0 9 9 9t9 -9v-41q0 -9 -9 -9t-9 9zM320 189v41q0 9 9 9t9 -9v-41q0 -9 -9 -9t-9 9zM320 249v41 q0 9 9 9t9 -9v-41q0 -9 -9 -9t-9 9zM320 309v41q0 9 9 9t9 -9v-41q0 -9 -9 -9t-9 9zM320 369v41q0 9 9 9t9 -9v-41q0 -9 -9 -9t-9 9zM320 429v41q0 9 9 9t9 -9v-41q0 -9 -9 -9t-9 9zM320 489v41q0 9 9 9t9 -9v-41q0 -9 -9 -9t-9 9zM200 9v41q0 9 9 9t9 -9v-41q0 -9 -9 -9 t-9 9zM140 9v41q0 9 9 9t9 -9v-41q0 -9 -9 -9t-9 9z" />
<glyph unicode="W" horiz-adv-x="720" d="M80 9v41q0 9 9 9t9 -9v-41q0 -9 -9 -9t-9 9zM140 69v41q0 9 9 9t9 -9v-41q0 -9 -9 -9t-9 9zM140 129v41q0 9 9 9t9 -9v-41q0 -9 -9 -9t-9 9zM140 189v41q0 9 9 9t9 -9v-41q0 -9 -9 -9t-9 9zM140 249v41q0 9 9 9t9 -9v-41q0 -9 -9 -9t-9 9zM140 309v41q0 9 9 9t9 -9v-41 q0 -9 -9 -9t-9 9zM140 369v41q0 9 9 9t9 -9v-41q0 -9 -9 -9t-9 9zM140 429v41q0 9 9 9t9 -9v-41q0 -9 -9 -9t-9 9zM140 489v41q0 9 9 9t9 -9v-41q0 -9 -9 -9t-9 9zM80 69v41q0 9 9 9t9 -9v-41q0 -9 -9 -9t-9 9zM80 129v41q0 9 9 9t9 -9v-41q0 -9 -9 -9t-9 9zM80 189v41 q0 9 9 9t9 -9v-41q0 -9 -9 -9t-9 9zM80 249v41q0 9 9 9t9 -9v-41q0 -9 -9 -9t-9 9zM80 309v41q0 9 9 9t9 -9v-41q0 -9 -9 -9t-9 9zM80 369v41q0 9 9 9t9 -9v-41q0 -9 -9 -9t-9 9zM80 429v41q0 9 9 9t9 -9v-41q0 -9 -9 -9t-9 9zM80 489v41q0 9 9 9t9 -9v-41q0 -9 -9 -9t-9 9z M260 9v41q0 9 9 9t9 -9v-41q0 -9 -9 -9t-9 9zM200 9v41q0 9 9 9t9 -9v-41q0 -9 -9 -9t-9 9zM140 9v41q0 9 9 9t9 -9v-41q0 -9 -9 -9t-9 9zM320 9v41q0 9 9 9t9 -9v-41q0 -9 -9 -9t-9 9zM380 69v41q0 9 9 9t9 -9v-41q0 -9 -9 -9t-9 9zM380 129v41q0 9 9 9t9 -9v-41 q0 -9 -9 -9t-9 9zM380 189v41q0 9 9 9t9 -9v-41q0 -9 -9 -9t-9 9zM380 249v41q0 9 9 9t9 -9v-41q0 -9 -9 -9t-9 9zM380 309v41q0 9 9 9t9 -9v-41q0 -9 -9 -9t-9 9zM380 369v41q0 9 9 9t9 -9v-41q0 -9 -9 -9t-9 9zM380 429v41q0 9 9 9t9 -9v-41q0 -9 -9 -9t-9 9zM380 489v41 q0 9 9 9t9 -9v-41q0 -9 -9 -9t-9 9zM320 69v41q0 9 9 9t9 -9v-41q0 -9 -9 -9t-9 9zM320 129v41q0 9 9 9t9 -9v-41q0 -9 -9 -9t-9 9zM320 189v41q0 9 9 9t9 -9v-41q0 -9 -9 -9t-9 9zM320 249v41q0 9 9 9t9 -9v-41q0 -9 -9 -9t-9 9zM320 309v41q0 9 9 9t9 -9v-41q0 -9 -9 -9 t-9 9zM320 369v41q0 9 9 9t9 -9v-41q0 -9 -9 -9t-9 9zM320 429v41q0 9 9 9t9 -9v-41q0 -9 -9 -9t-9 9zM320 489v41q0 9 9 9t9 -9v-41q0 -9 -9 -9t-9 9zM500 9v41q0 9 9 9t9 -9v-41q0 -9 -9 -9t-9 9zM620 129v41q0 9 9 9t9 -9v-41q0 -9 -9 -9t-9 9zM620 189v41q0 9 9 9t9 -9 v-41q0 -9 -9 -9t-9 9zM620 249v41q0 9 9 9t9 -9v-41q0 -9 -9 -9t-9 9zM620 309v41q0 9 9 9t9 -9v-41q0 -9 -9 -9t-9 9zM620 369v41q0 9 9 9t9 -9v-41q0 -9 -9 -9t-9 9zM620 429v41q0 9 9 9t9 -9v-41q0 -9 -9 -9t-9 9zM620 489v41q0 9 9 9t9 -9v-41q0 -9 -9 -9t-9 9zM560 69 v41q0 9 9 9t9 -9v-41q0 -9 -9 -9t-9 9zM560 129v41q0 9 9 9t9 -9v-41q0 -9 -9 -9t-9 9zM560 189v41q0 9 9 9t9 -9v-41q0 -9 -9 -9t-9 9zM560 249v41q0 9 9 9t9 -9v-41q0 -9 -9 -9t-9 9zM560 309v41q0 9 9 9t9 -9v-41q0 -9 -9 -9t-9 9zM560 369v41q0 9 9 9t9 -9v-41 q0 -9 -9 -9t-9 9zM560 429v41q0 9 9 9t9 -9v-41q0 -9 -9 -9t-9 9zM560 489v41q0 9 9 9t9 -9v-41q0 -9 -9 -9t-9 9zM440 9v41q0 9 9 9t9 -9v-41q0 -9 -9 -9t-9 9zM380 9v41q0 9 9 9t9 -9v-41q0 -9 -9 -9t-9 9z" />
<glyph unicode="X" d="M140 249v41q0 9 9 9t9 -9v-41q0 -9 -9 -9t-9 9zM140 309v41q0 9 9 9t9 -9v-41q0 -9 -9 -9t-9 9zM140 369v41q0 9 9 9t9 -9v-41q0 -9 -9 -9t-9 9zM140 429v41q0 9 9 9t9 -9v-41q0 -9 -9 -9t-9 9zM140 489v41q0 9 9 9t9 -9v-41q0 -9 -9 -9t-9 9zM80 309v41q0 9 9 9t9 -9 v-41q0 -9 -9 -9t-9 9zM80 369v41q0 9 9 9t9 -9v-41q0 -9 -9 -9t-9 9zM80 429v41q0 9 9 9t9 -9v-41q0 -9 -9 -9t-9 9zM80 489v41q0 9 9 9t9 -9v-41q0 -9 -9 -9t-9 9zM320 249v41q0 9 9 9t9 -9v-41q0 -9 -9 -9t-9 9zM380 309v41q0 9 9 9t9 -9v-41q0 -9 -9 -9t-9 9zM380 369v41 q0 9 9 9t9 -9v-41q0 -9 -9 -9t-9 9zM380 429v41q0 9 9 9t9 -9v-41q0 -9 -9 -9t-9 9zM380 489v41q0 9 9 9t9 -9v-41q0 -9 -9 -9t-9 9zM320 309v41q0 9 9 9t9 -9v-41q0 -9 -9 -9t-9 9zM320 369v41q0 9 9 9t9 -9v-41q0 -9 -9 -9t-9 9zM320 429v41q0 9 9 9t9 -9v-41q0 -9 -9 -9 t-9 9zM320 489v41q0 9 9 9t9 -9v-41q0 -9 -9 -9t-9 9zM260 249v41q0 9 9 9t9 -9v-41q0 -9 -9 -9t-9 9zM200 249v41q0 9 9 9t9 -9v-41q0 -9 -9 -9t-9 9zM140 9v41q0 9 9 9t9 -9v-41q0 -9 -9 -9t-9 9zM140 69v41q0 9 9 9t9 -9v-41q0 -9 -9 -9t-9 9zM140 129v41q0 9 9 9t9 -9 v-41q0 -9 -9 -9t-9 9zM140 189v41q0 9 9 9t9 -9v-41q0 -9 -9 -9t-9 9zM80 9v41q0 9 9 9t9 -9v-41q0 -9 -9 -9t-9 9zM80 69v41q0 9 9 9t9 -9v-41q0 -9 -9 -9t-9 9zM80 129v41q0 9 9 9t9 -9v-41q0 -9 -9 -9t-9 9zM80 189v41q0 9 9 9t9 -9v-41q0 -9 -9 -9t-9 9zM380 9v41 q0 9 9 9t9 -9v-41q0 -9 -9 -9t-9 9zM380 69v41q0 9 9 9t9 -9v-41q0 -9 -9 -9t-9 9zM380 129v41q0 9 9 9t9 -9v-41q0 -9 -9 -9t-9 9zM380 189v41q0 9 9 9t9 -9v-41q0 -9 -9 -9t-9 9zM320 9v41q0 9 9 9t9 -9v-41q0 -9 -9 -9t-9 9zM320 69v41q0 9 9 9t9 -9v-41q0 -9 -9 -9t-9 9 zM320 129v41q0 9 9 9t9 -9v-41q0 -9 -9 -9t-9 9zM320 189v41q0 9 9 9t9 -9v-41q0 -9 -9 -9t-9 9z" />
<glyph unicode="Y" d="M140 249v41q0 9 9 9t9 -9v-41q0 -9 -9 -9t-9 9zM140 309v41q0 9 9 9t9 -9v-41q0 -9 -9 -9t-9 9zM140 369v41q0 9 9 9t9 -9v-41q0 -9 -9 -9t-9 9zM140 429v41q0 9 9 9t9 -9v-41q0 -9 -9 -9t-9 9zM140 489v41q0 9 9 9t9 -9v-41q0 -9 -9 -9t-9 9zM80 309v41q0 9 9 9t9 -9 v-41q0 -9 -9 -9t-9 9zM80 369v41q0 9 9 9t9 -9v-41q0 -9 -9 -9t-9 9zM80 429v41q0 9 9 9t9 -9v-41q0 -9 -9 -9t-9 9zM80 489v41q0 9 9 9t9 -9v-41q0 -9 -9 -9t-9 9zM320 249v41q0 9 9 9t9 -9v-41q0 -9 -9 -9t-9 9zM380 309v41q0 9 9 9t9 -9v-41q0 -9 -9 -9t-9 9zM380 369v41 q0 9 9 9t9 -9v-41q0 -9 -9 -9t-9 9zM380 429v41q0 9 9 9t9 -9v-41q0 -9 -9 -9t-9 9zM380 489v41q0 9 9 9t9 -9v-41q0 -9 -9 -9t-9 9zM320 309v41q0 9 9 9t9 -9v-41q0 -9 -9 -9t-9 9zM320 369v41q0 9 9 9t9 -9v-41q0 -9 -9 -9t-9 9zM320 429v41q0 9 9 9t9 -9v-41q0 -9 -9 -9 t-9 9zM320 489v41q0 9 9 9t9 -9v-41q0 -9 -9 -9t-9 9zM260 249v41q0 9 9 9t9 -9v-41q0 -9 -9 -9t-9 9zM200 249v41q0 9 9 9t9 -9v-41q0 -9 -9 -9t-9 9zM260 189v41q0 9 9 9t9 -9v-41q0 -9 -9 -9t-9 9zM200 189v41q0 9 9 9t9 -9v-41q0 -9 -9 -9t-9 9zM260 129v41q0 9 9 9 t9 -9v-41q0 -9 -9 -9t-9 9zM200 129v41q0 9 9 9t9 -9v-41q0 -9 -9 -9t-9 9zM260 69v41q0 9 9 9t9 -9v-41q0 -9 -9 -9t-9 9zM200 69v41q0 9 9 9t9 -9v-41q0 -9 -9 -9t-9 9zM260 9v41q0 9 9 9t9 -9v-41q0 -9 -9 -9t-9 9zM200 9v41q0 9 9 9t9 -9v-41q0 -9 -9 -9t-9 9z" />
<glyph unicode="Z" d="M338 50v-41q0 -9 -9 -9t-9 9v41q0 9 9 9t9 -9zM158 530v-41q0 -9 -9 -9t-9 9v41q0 9 9 9t9 -9zM98 170v-41q0 -9 -9 -9t-9 9v41q0 9 9 9t9 -9zM98 110v-41q0 -9 -9 -9t-9 9v41q0 9 9 9t9 -9zM98 50v-41q0 -9 -9 -9t-9 9v41q0 9 9 9t9 -9zM158 230v-41q0 -9 -9 -9t-9 9v41 q0 9 9 9t9 -9zM158 170v-41q0 -9 -9 -9t-9 9v41q0 9 9 9t9 -9zM158 110v-41q0 -9 -9 -9t-9 9v41q0 9 9 9t9 -9zM158 50v-41q0 -9 -9 -9t-9 9v41q0 9 9 9t9 -9zM98 530v-41q0 -9 -9 -9t-9 9v41q0 9 9 9t9 -9zM278 50v-41q0 -9 -9 -9t-9 9v41q0 9 9 9t9 -9zM218 50v-41 q0 -9 -9 -9t-9 9v41q0 9 9 9t9 -9zM278 350v-41q0 -9 -9 -9t-9 9v41q0 9 9 9t9 -9zM218 290v-41q0 -9 -9 -9t-9 9v41q0 9 9 9t9 -9zM278 530v-41q0 -9 -9 -9t-9 9v41q0 9 9 9t9 -9zM218 530v-41q0 -9 -9 -9t-9 9v41q0 9 9 9t9 -9zM338 530v-41q0 -9 -9 -9t-9 9v41q0 9 9 9 t9 -9zM398 530v-41q0 -9 -9 -9t-9 9v41q0 9 9 9t9 -9zM398 50v-41q0 -9 -9 -9t-9 9v41q0 9 9 9t9 -9zM278 290v-41q0 -9 -9 -9t-9 9v41q0 9 9 9t9 -9zM218 230v-41q0 -9 -9 -9t-9 9v41q0 9 9 9t9 -9zM338 410v-41q0 -9 -9 -9t-9 9v41q0 9 9 9t9 -9zM338 350v-41q0 -9 -9 -9 t-9 9v41q0 9 9 9t9 -9zM398 470v-41q0 -9 -9 -9t-9 9v41q0 9 9 9t9 -9zM398 410v-41q0 -9 -9 -9t-9 9v41q0 9 9 9t9 -9zM338 470v-41q0 -9 -9 -9t-9 9v41q0 9 9 9t9 -9z" />
<glyph unicode="[" horiz-adv-x="300" d="M140 549v41q0 9 9 9t9 -9v-41q0 -9 -9 -9t-9 9zM200 549v41q0 9 9 9t9 -9v-41q0 -9 -9 -9t-9 9zM140 369v41q0 9 9 9t9 -9v-41q0 -9 -9 -9t-9 9zM140 429v41q0 9 9 9t9 -9v-41q0 -9 -9 -9t-9 9zM140 489v41q0 9 9 9t9 -9v-41q0 -9 -9 -9t-9 9zM140 189v41q0 9 9 9t9 -9 v-41q0 -9 -9 -9t-9 9zM140 249v41q0 9 9 9t9 -9v-41q0 -9 -9 -9t-9 9zM140 309v41q0 9 9 9t9 -9v-41q0 -9 -9 -9t-9 9zM140 9v41q0 9 9 9t9 -9v-41q0 -9 -9 -9t-9 9zM140 69v41q0 9 9 9t9 -9v-41q0 -9 -9 -9t-9 9zM140 129v41q0 9 9 9t9 -9v-41q0 -9 -9 -9t-9 9zM200 -51v41 q0 9 9 9t9 -9v-41q0 -9 -9 -9t-9 9zM140 -51v41q0 9 9 9t9 -9v-41q0 -9 -9 -9t-9 9zM80 549v41q0 9 9 9t9 -9v-41q0 -9 -9 -9t-9 9zM80 369v41q0 9 9 9t9 -9v-41q0 -9 -9 -9t-9 9zM80 429v41q0 9 9 9t9 -9v-41q0 -9 -9 -9t-9 9zM80 489v41q0 9 9 9t9 -9v-41q0 -9 -9 -9t-9 9 zM80 189v41q0 9 9 9t9 -9v-41q0 -9 -9 -9t-9 9zM80 249v41q0 9 9 9t9 -9v-41q0 -9 -9 -9t-9 9zM80 309v41q0 9 9 9t9 -9v-41q0 -9 -9 -9t-9 9zM80 9v41q0 9 9 9t9 -9v-41q0 -9 -9 -9t-9 9zM80 69v41q0 9 9 9t9 -9v-41q0 -9 -9 -9t-9 9zM80 129v41q0 9 9 9t9 -9v-41 q0 -9 -9 -9t-9 9zM80 -51v41q0 9 9 9t9 -9v-41q0 -9 -9 -9t-9 9z" />
<glyph unicode="\" d="M98 650v-41q0 -9 -9 -9t-9 9v41q0 9 9 9t9 -9zM98 710v-41q0 -9 -9 -9t-9 9v41q0 9 9 9t9 -9zM158 530v-41q0 -9 -9 -9t-9 9v41q0 9 9 9t9 -9zM158 590v-41q0 -9 -9 -9t-9 9v41q0 9 9 9t9 -9zM218 410v-41q0 -9 -9 -9t-9 9v41q0 9 9 9t9 -9zM218 470v-41q0 -9 -9 -9t-9 9 v41q0 9 9 9t9 -9zM278 290v-41q0 -9 -9 -9t-9 9v41q0 9 9 9t9 -9zM278 350v-41q0 -9 -9 -9t-9 9v41q0 9 9 9t9 -9zM338 170v-41q0 -9 -9 -9t-9 9v41q0 9 9 9t9 -9zM338 230v-41q0 -9 -9 -9t-9 9v41q0 9 9 9t9 -9zM398 50v-41q0 -9 -9 -9t-9 9v41q0 9 9 9t9 -9zM398 110v-41 q0 -9 -9 -9t-9 9v41q0 9 9 9t9 -9z" />
<glyph unicode="]" horiz-adv-x="300" d="M158 590v-41q0 -9 -9 -9t-9 9v41q0 9 9 9t9 -9zM98 590v-41q0 -9 -9 -9t-9 9v41q0 9 9 9t9 -9zM158 410v-41q0 -9 -9 -9t-9 9v41q0 9 9 9t9 -9zM158 470v-41q0 -9 -9 -9t-9 9v41q0 9 9 9t9 -9zM158 530v-41q0 -9 -9 -9t-9 9v41q0 9 9 9t9 -9zM158 230v-41q0 -9 -9 -9 t-9 9v41q0 9 9 9t9 -9zM158 290v-41q0 -9 -9 -9t-9 9v41q0 9 9 9t9 -9zM158 350v-41q0 -9 -9 -9t-9 9v41q0 9 9 9t9 -9zM158 50v-41q0 -9 -9 -9t-9 9v41q0 9 9 9t9 -9zM158 110v-41q0 -9 -9 -9t-9 9v41q0 9 9 9t9 -9zM158 170v-41q0 -9 -9 -9t-9 9v41q0 9 9 9t9 -9zM98 -10 v-41q0 -9 -9 -9t-9 9v41q0 9 9 9t9 -9zM158 -10v-41q0 -9 -9 -9t-9 9v41q0 9 9 9t9 -9zM218 590v-41q0 -9 -9 -9t-9 9v41q0 9 9 9t9 -9zM218 410v-41q0 -9 -9 -9t-9 9v41q0 9 9 9t9 -9zM218 470v-41q0 -9 -9 -9t-9 9v41q0 9 9 9t9 -9zM218 530v-41q0 -9 -9 -9t-9 9v41 q0 9 9 9t9 -9zM218 230v-41q0 -9 -9 -9t-9 9v41q0 9 9 9t9 -9zM218 290v-41q0 -9 -9 -9t-9 9v41q0 9 9 9t9 -9zM218 350v-41q0 -9 -9 -9t-9 9v41q0 9 9 9t9 -9zM218 50v-41q0 -9 -9 -9t-9 9v41q0 9 9 9t9 -9zM218 110v-41q0 -9 -9 -9t-9 9v41q0 9 9 9t9 -9zM218 170v-41 q0 -9 -9 -9t-9 9v41q0 9 9 9t9 -9zM218 -10v-41q0 -9 -9 -9t-9 9v41q0 9 9 9t9 -9z" />
<glyph unicode="^" horiz-adv-x="540" d="M158 350v-41q0 -9 -9 -9t-9 9v41q0 9 9 9t9 -9zM218 410v-41q0 -9 -9 -9t-9 9v41q0 9 9 9t9 -9zM338 410v-41q0 -9 -9 -9t-9 9v41q0 9 9 9t9 -9zM398 350v-41q0 -9 -9 -9t-9 9v41q0 9 9 9t9 -9zM278 470v-41q0 -9 -9 -9t-9 9v41q0 9 9 9t9 -9z" />
<glyph unicode="_" horiz-adv-x="520" d="M158 -70v-41q0 -9 -9 -9t-9 9v41q0 9 9 9t9 -9zM98 -70v-41q0 -9 -9 -9t-9 9v41q0 9 9 9t9 -9zM278 -70v-41q0 -9 -9 -9t-9 9v41q0 9 9 9t9 -9zM218 -70v-41q0 -9 -9 -9t-9 9v41q0 9 9 9t9 -9zM338 -70v-41q0 -9 -9 -9t-9 9v41q0 9 9 9t9 -9zM398 -70v-41q0 -9 -9 -9 t-9 9v41q0 9 9 9t9 -9zM458 -70v-41q0 -9 -9 -9t-9 9v41q0 9 9 9t9 -9zM38 -70v-41q0 -9 -9 -9t-9 9v41q0 9 9 9t9 -9zM518 -70v-41q0 -9 -9 -9t-9 9v41q0 9 9 9t9 -9z" />
<glyph unicode="`" horiz-adv-x="300" d="M98 590v-41q0 -9 -9 -9t-9 9v41q0 9 9 9t9 -9zM158 530v-41q0 -9 -9 -9t-9 9v41q0 9 9 9t9 -9z" />
<glyph unicode="a" d="M338 410v-41q0 -9 -9 -9t-9 9v41q0 9 9 9t9 -9zM338 350v-41q0 -9 -9 -9t-9 9v41q0 9 9 9t9 -9zM338 290v-41q0 -9 -9 -9t-9 9v41q0 9 9 9t9 -9zM338 230v-41q0 -9 -9 -9t-9 9v41q0 9 9 9t9 -9zM338 170v-41q0 -9 -9 -9t-9 9v41q0 9 9 9t9 -9zM338 110v-41q0 -9 -9 -9 t-9 9v41q0 9 9 9t9 -9zM338 50v-41q0 -9 -9 -9t-9 9v41q0 9 9 9t9 -9zM398 350v-41q0 -9 -9 -9t-9 9v41q0 9 9 9t9 -9zM398 290v-41q0 -9 -9 -9t-9 9v41q0 9 9 9t9 -9zM398 230v-41q0 -9 -9 -9t-9 9v41q0 9 9 9t9 -9zM398 170v-41q0 -9 -9 -9t-9 9v41q0 9 9 9t9 -9zM398 110 v-41q0 -9 -9 -9t-9 9v41q0 9 9 9t9 -9zM278 50v-41q0 -9 -9 -9t-9 9v41q0 9 9 9t9 -9zM158 410v-41q0 -9 -9 -9t-9 9v41q0 9 9 9t9 -9zM98 350v-41q0 -9 -9 -9t-9 9v41q0 9 9 9t9 -9zM98 230v-41q0 -9 -9 -9t-9 9v41q0 9 9 9t9 -9zM98 170v-41q0 -9 -9 -9t-9 9v41q0 9 9 9 t9 -9zM98 110v-41q0 -9 -9 -9t-9 9v41q0 9 9 9t9 -9zM218 50v-41q0 -9 -9 -9t-9 9v41q0 9 9 9t9 -9zM218 290v-41q0 -9 -9 -9t-9 9v41q0 9 9 9t9 -9zM158 230v-41q0 -9 -9 -9t-9 9v41q0 9 9 9t9 -9zM158 170v-41q0 -9 -9 -9t-9 9v41q0 9 9 9t9 -9zM158 110v-41q0 -9 -9 -9 t-9 9v41q0 9 9 9t9 -9zM158 50v-41q0 -9 -9 -9t-9 9v41q0 9 9 9t9 -9zM218 410v-41q0 -9 -9 -9t-9 9v41q0 9 9 9t9 -9zM278 410v-41q0 -9 -9 -9t-9 9v41q0 9 9 9t9 -9zM278 290v-41q0 -9 -9 -9t-9 9v41q0 9 9 9t9 -9zM398 50v-41q0 -9 -9 -9t-9 9v41q0 9 9 9t9 -9zM158 290 v-41q0 -9 -9 -9t-9 9v41q0 9 9 9t9 -9z" />
<glyph unicode="b" d="M140 9v41q0 9 9 9t9 -9v-41q0 -9 -9 -9t-9 9zM140 69v41q0 9 9 9t9 -9v-41q0 -9 -9 -9t-9 9zM140 129v41q0 9 9 9t9 -9v-41q0 -9 -9 -9t-9 9zM140 189v41q0 9 9 9t9 -9v-41q0 -9 -9 -9t-9 9zM140 249v41q0 9 9 9t9 -9v-41q0 -9 -9 -9t-9 9zM140 309v41q0 9 9 9t9 -9v-41 q0 -9 -9 -9t-9 9zM140 369v41q0 9 9 9t9 -9v-41q0 -9 -9 -9t-9 9zM80 69v41q0 9 9 9t9 -9v-41q0 -9 -9 -9t-9 9zM80 129v41q0 9 9 9t9 -9v-41q0 -9 -9 -9t-9 9zM80 189v41q0 9 9 9t9 -9v-41q0 -9 -9 -9t-9 9zM80 249v41q0 9 9 9t9 -9v-41q0 -9 -9 -9t-9 9zM80 309v41 q0 9 9 9t9 -9v-41q0 -9 -9 -9t-9 9zM200 369v41q0 9 9 9t9 -9v-41q0 -9 -9 -9t-9 9zM320 9v41q0 9 9 9t9 -9v-41q0 -9 -9 -9t-9 9zM380 69v41q0 9 9 9t9 -9v-41q0 -9 -9 -9t-9 9zM380 129v41q0 9 9 9t9 -9v-41q0 -9 -9 -9t-9 9zM380 189v41q0 9 9 9t9 -9v-41q0 -9 -9 -9 t-9 9zM380 249v41q0 9 9 9t9 -9v-41q0 -9 -9 -9t-9 9zM380 309v41q0 9 9 9t9 -9v-41q0 -9 -9 -9t-9 9zM260 369v41q0 9 9 9t9 -9v-41q0 -9 -9 -9t-9 9zM320 69v41q0 9 9 9t9 -9v-41q0 -9 -9 -9t-9 9zM320 129v41q0 9 9 9t9 -9v-41q0 -9 -9 -9t-9 9zM320 189v41q0 9 9 9t9 -9 v-41q0 -9 -9 -9t-9 9zM320 249v41q0 9 9 9t9 -9v-41q0 -9 -9 -9t-9 9zM320 309v41q0 9 9 9t9 -9v-41q0 -9 -9 -9t-9 9zM320 369v41q0 9 9 9t9 -9v-41q0 -9 -9 -9t-9 9zM260 9v41q0 9 9 9t9 -9v-41q0 -9 -9 -9t-9 9zM200 9v41q0 9 9 9t9 -9v-41q0 -9 -9 -9t-9 9zM80 369v41 q0 9 9 9t9 -9v-41q0 -9 -9 -9t-9 9zM80 429v41q0 9 9 9t9 -9v-41q0 -9 -9 -9t-9 9zM80 489v41q0 9 9 9t9 -9v-41q0 -9 -9 -9t-9 9zM140 489v41q0 9 9 9t9 -9v-41q0 -9 -9 -9t-9 9zM140 429v41q0 9 9 9t9 -9v-41q0 -9 -9 -9t-9 9zM80 9v41q0 9 9 9t9 -9v-41q0 -9 -9 -9t-9 9z " />
<glyph unicode="c" horiz-adv-x="420" d="M140 9v41q0 9 9 9t9 -9v-41q0 -9 -9 -9t-9 9zM140 69v41q0 9 9 9t9 -9v-41q0 -9 -9 -9t-9 9zM140 129v41q0 9 9 9t9 -9v-41q0 -9 -9 -9t-9 9zM140 189v41q0 9 9 9t9 -9v-41q0 -9 -9 -9t-9 9zM140 249v41q0 9 9 9t9 -9v-41q0 -9 -9 -9t-9 9zM140 309v41q0 9 9 9t9 -9v-41 q0 -9 -9 -9t-9 9zM140 369v41q0 9 9 9t9 -9v-41q0 -9 -9 -9t-9 9zM80 69v41q0 9 9 9t9 -9v-41q0 -9 -9 -9t-9 9zM80 129v41q0 9 9 9t9 -9v-41q0 -9 -9 -9t-9 9zM80 189v41q0 9 9 9t9 -9v-41q0 -9 -9 -9t-9 9zM80 249v41q0 9 9 9t9 -9v-41q0 -9 -9 -9t-9 9zM80 309v41 q0 9 9 9t9 -9v-41q0 -9 -9 -9t-9 9zM200 369v41q0 9 9 9t9 -9v-41q0 -9 -9 -9t-9 9zM260 369v41q0 9 9 9t9 -9v-41q0 -9 -9 -9t-9 9zM320 69v41q0 9 9 9t9 -9v-41q0 -9 -9 -9t-9 9zM320 309v41q0 9 9 9t9 -9v-41q0 -9 -9 -9t-9 9zM260 9v41q0 9 9 9t9 -9v-41q0 -9 -9 -9 t-9 9zM200 9v41q0 9 9 9t9 -9v-41q0 -9 -9 -9t-9 9z" />
<glyph unicode="d" d="M338 50v-41q0 -9 -9 -9t-9 9v41q0 9 9 9t9 -9zM338 110v-41q0 -9 -9 -9t-9 9v41q0 9 9 9t9 -9zM338 170v-41q0 -9 -9 -9t-9 9v41q0 9 9 9t9 -9zM338 230v-41q0 -9 -9 -9t-9 9v41q0 9 9 9t9 -9zM338 290v-41q0 -9 -9 -9t-9 9v41q0 9 9 9t9 -9zM338 350v-41q0 -9 -9 -9 t-9 9v41q0 9 9 9t9 -9zM338 410v-41q0 -9 -9 -9t-9 9v41q0 9 9 9t9 -9zM398 110v-41q0 -9 -9 -9t-9 9v41q0 9 9 9t9 -9zM398 170v-41q0 -9 -9 -9t-9 9v41q0 9 9 9t9 -9zM398 230v-41q0 -9 -9 -9t-9 9v41q0 9 9 9t9 -9zM398 290v-41q0 -9 -9 -9t-9 9v41q0 9 9 9t9 -9z M398 350v-41q0 -9 -9 -9t-9 9v41q0 9 9 9t9 -9zM278 410v-41q0 -9 -9 -9t-9 9v41q0 9 9 9t9 -9zM158 50v-41q0 -9 -9 -9t-9 9v41q0 9 9 9t9 -9zM98 110v-41q0 -9 -9 -9t-9 9v41q0 9 9 9t9 -9zM98 170v-41q0 -9 -9 -9t-9 9v41q0 9 9 9t9 -9zM98 230v-41q0 -9 -9 -9t-9 9v41 q0 9 9 9t9 -9zM98 290v-41q0 -9 -9 -9t-9 9v41q0 9 9 9t9 -9zM98 350v-41q0 -9 -9 -9t-9 9v41q0 9 9 9t9 -9zM218 410v-41q0 -9 -9 -9t-9 9v41q0 9 9 9t9 -9zM158 110v-41q0 -9 -9 -9t-9 9v41q0 9 9 9t9 -9zM158 170v-41q0 -9 -9 -9t-9 9v41q0 9 9 9t9 -9zM158 230v-41 q0 -9 -9 -9t-9 9v41q0 9 9 9t9 -9zM158 290v-41q0 -9 -9 -9t-9 9v41q0 9 9 9t9 -9zM158 350v-41q0 -9 -9 -9t-9 9v41q0 9 9 9t9 -9zM158 410v-41q0 -9 -9 -9t-9 9v41q0 9 9 9t9 -9zM218 50v-41q0 -9 -9 -9t-9 9v41q0 9 9 9t9 -9zM278 50v-41q0 -9 -9 -9t-9 9v41q0 9 9 9 t9 -9zM398 410v-41q0 -9 -9 -9t-9 9v41q0 9 9 9t9 -9zM398 470v-41q0 -9 -9 -9t-9 9v41q0 9 9 9t9 -9zM398 530v-41q0 -9 -9 -9t-9 9v41q0 9 9 9t9 -9zM338 530v-41q0 -9 -9 -9t-9 9v41q0 9 9 9t9 -9zM338 470v-41q0 -9 -9 -9t-9 9v41q0 9 9 9t9 -9zM398 50v-41q0 -9 -9 -9 t-9 9v41q0 9 9 9t9 -9z" />
<glyph unicode="e" d="M140 9v41q0 9 9 9t9 -9v-41q0 -9 -9 -9t-9 9zM140 69v41q0 9 9 9t9 -9v-41q0 -9 -9 -9t-9 9zM140 129v41q0 9 9 9t9 -9v-41q0 -9 -9 -9t-9 9zM140 189v41q0 9 9 9t9 -9v-41q0 -9 -9 -9t-9 9zM140 249v41q0 9 9 9t9 -9v-41q0 -9 -9 -9t-9 9zM140 309v41q0 9 9 9t9 -9v-41 q0 -9 -9 -9t-9 9zM140 369v41q0 9 9 9t9 -9v-41q0 -9 -9 -9t-9 9zM80 69v41q0 9 9 9t9 -9v-41q0 -9 -9 -9t-9 9zM80 129v41q0 9 9 9t9 -9v-41q0 -9 -9 -9t-9 9zM80 189v41q0 9 9 9t9 -9v-41q0 -9 -9 -9t-9 9zM80 249v41q0 9 9 9t9 -9v-41q0 -9 -9 -9t-9 9zM80 309v41 q0 9 9 9t9 -9v-41q0 -9 -9 -9t-9 9zM200 369v41q0 9 9 9t9 -9v-41q0 -9 -9 -9t-9 9zM320 9v41q0 9 9 9t9 -9v-41q0 -9 -9 -9t-9 9zM380 69v41q0 9 9 9t9 -9v-41q0 -9 -9 -9t-9 9zM380 189v41q0 9 9 9t9 -9v-41q0 -9 -9 -9t-9 9zM380 249v41q0 9 9 9t9 -9v-41q0 -9 -9 -9 t-9 9zM380 309v41q0 9 9 9t9 -9v-41q0 -9 -9 -9t-9 9zM260 369v41q0 9 9 9t9 -9v-41q0 -9 -9 -9t-9 9zM260 189v41q0 9 9 9t9 -9v-41q0 -9 -9 -9t-9 9zM320 189v41q0 9 9 9t9 -9v-41q0 -9 -9 -9t-9 9zM320 249v41q0 9 9 9t9 -9v-41q0 -9 -9 -9t-9 9zM320 309v41q0 9 9 9 t9 -9v-41q0 -9 -9 -9t-9 9zM320 369v41q0 9 9 9t9 -9v-41q0 -9 -9 -9t-9 9zM260 9v41q0 9 9 9t9 -9v-41q0 -9 -9 -9t-9 9zM200 9v41q0 9 9 9t9 -9v-41q0 -9 -9 -9t-9 9zM200 189v41q0 9 9 9t9 -9v-41q0 -9 -9 -9t-9 9z" />
<glyph unicode="f" horiz-adv-x="300" d="M158 530v-41q0 -9 -9 -9t-9 9v41q0 9 9 9t9 -9zM98 470v-41q0 -9 -9 -9t-9 9v41q0 9 9 9t9 -9zM98 410v-41q0 -9 -9 -9t-9 9v41q0 9 9 9t9 -9zM98 350v-41q0 -9 -9 -9t-9 9v41q0 9 9 9t9 -9zM98 290v-41q0 -9 -9 -9t-9 9v41q0 9 9 9t9 -9zM98 230v-41q0 -9 -9 -9t-9 9v41 q0 9 9 9t9 -9zM98 170v-41q0 -9 -9 -9t-9 9v41q0 9 9 9t9 -9zM98 110v-41q0 -9 -9 -9t-9 9v41q0 9 9 9t9 -9zM98 50v-41q0 -9 -9 -9t-9 9v41q0 9 9 9t9 -9zM158 470v-41q0 -9 -9 -9t-9 9v41q0 9 9 9t9 -9zM158 410v-41q0 -9 -9 -9t-9 9v41q0 9 9 9t9 -9zM158 350v-41 q0 -9 -9 -9t-9 9v41q0 9 9 9t9 -9zM158 290v-41q0 -9 -9 -9t-9 9v41q0 9 9 9t9 -9zM158 230v-41q0 -9 -9 -9t-9 9v41q0 9 9 9t9 -9zM158 170v-41q0 -9 -9 -9t-9 9v41q0 9 9 9t9 -9zM158 110v-41q0 -9 -9 -9t-9 9v41q0 9 9 9t9 -9zM158 50v-41q0 -9 -9 -9t-9 9v41q0 9 9 9 t9 -9zM38 410v-41q0 -9 -9 -9t-9 9v41q0 9 9 9t9 -9zM218 410v-41q0 -9 -9 -9t-9 9v41q0 9 9 9t9 -9zM218 530v-41q0 -9 -9 -9t-9 9v41q0 9 9 9t9 -9zM278 530v-41q0 -9 -9 -9t-9 9v41q0 9 9 9t9 -9z" />
<glyph unicode="g" d="M338 410v-41q0 -9 -9 -9t-9 9v41q0 9 9 9t9 -9zM338 350v-41q0 -9 -9 -9t-9 9v41q0 9 9 9t9 -9zM338 290v-41q0 -9 -9 -9t-9 9v41q0 9 9 9t9 -9zM338 230v-41q0 -9 -9 -9t-9 9v41q0 9 9 9t9 -9zM338 170v-41q0 -9 -9 -9t-9 9v41q0 9 9 9t9 -9zM338 110v-41q0 -9 -9 -9 t-9 9v41q0 9 9 9t9 -9zM338 50v-41q0 -9 -9 -9t-9 9v41q0 9 9 9t9 -9zM398 350v-41q0 -9 -9 -9t-9 9v41q0 9 9 9t9 -9zM398 290v-41q0 -9 -9 -9t-9 9v41q0 9 9 9t9 -9zM398 230v-41q0 -9 -9 -9t-9 9v41q0 9 9 9t9 -9zM398 170v-41q0 -9 -9 -9t-9 9v41q0 9 9 9t9 -9zM398 110 v-41q0 -9 -9 -9t-9 9v41q0 9 9 9t9 -9zM278 50v-41q0 -9 -9 -9t-9 9v41q0 9 9 9t9 -9zM158 410v-41q0 -9 -9 -9t-9 9v41q0 9 9 9t9 -9zM98 350v-41q0 -9 -9 -9t-9 9v41q0 9 9 9t9 -9zM98 290v-41q0 -9 -9 -9t-9 9v41q0 9 9 9t9 -9zM98 230v-41q0 -9 -9 -9t-9 9v41q0 9 9 9 t9 -9zM98 170v-41q0 -9 -9 -9t-9 9v41q0 9 9 9t9 -9zM98 110v-41q0 -9 -9 -9t-9 9v41q0 9 9 9t9 -9zM218 50v-41q0 -9 -9 -9t-9 9v41q0 9 9 9t9 -9zM158 350v-41q0 -9 -9 -9t-9 9v41q0 9 9 9t9 -9zM158 290v-41q0 -9 -9 -9t-9 9v41q0 9 9 9t9 -9zM158 230v-41q0 -9 -9 -9 t-9 9v41q0 9 9 9t9 -9zM158 170v-41q0 -9 -9 -9t-9 9v41q0 9 9 9t9 -9zM158 110v-41q0 -9 -9 -9t-9 9v41q0 9 9 9t9 -9zM158 50v-41q0 -9 -9 -9t-9 9v41q0 9 9 9t9 -9zM218 410v-41q0 -9 -9 -9t-9 9v41q0 9 9 9t9 -9zM278 410v-41q0 -9 -9 -9t-9 9v41q0 9 9 9t9 -9zM398 50 v-41q0 -9 -9 -9t-9 9v41q0 9 9 9t9 -9zM398 -10v-41q0 -9 -9 -9t-9 9v41q0 9 9 9t9 -9zM398 -70v-41q0 -9 -9 -9t-9 9v41q0 9 9 9t9 -9zM338 -70v-41q0 -9 -9 -9t-9 9v41q0 9 9 9t9 -9zM338 -10v-41q0 -9 -9 -9t-9 9v41q0 9 9 9t9 -9zM398 410v-41q0 -9 -9 -9t-9 9v41 q0 9 9 9t9 -9zM338 -130v-41q0 -9 -9 -9t-9 9v41q0 9 9 9t9 -9zM278 -130v-41q0 -9 -9 -9t-9 9v41q0 9 9 9t9 -9zM218 -130v-41q0 -9 -9 -9t-9 9v41q0 9 9 9t9 -9zM158 -130v-41q0 -9 -9 -9t-9 9v41q0 9 9 9t9 -9zM98 -70v-41q0 -9 -9 -9t-9 9v41q0 9 9 9t9 -9z" />
<glyph unicode="h" d="M140 9v41q0 9 9 9t9 -9v-41q0 -9 -9 -9t-9 9zM140 69v41q0 9 9 9t9 -9v-41q0 -9 -9 -9t-9 9zM140 129v41q0 9 9 9t9 -9v-41q0 -9 -9 -9t-9 9zM140 189v41q0 9 9 9t9 -9v-41q0 -9 -9 -9t-9 9zM140 249v41q0 9 9 9t9 -9v-41q0 -9 -9 -9t-9 9zM140 309v41q0 9 9 9t9 -9v-41 q0 -9 -9 -9t-9 9zM140 369v41q0 9 9 9t9 -9v-41q0 -9 -9 -9t-9 9zM80 69v41q0 9 9 9t9 -9v-41q0 -9 -9 -9t-9 9zM80 129v41q0 9 9 9t9 -9v-41q0 -9 -9 -9t-9 9zM80 189v41q0 9 9 9t9 -9v-41q0 -9 -9 -9t-9 9zM80 249v41q0 9 9 9t9 -9v-41q0 -9 -9 -9t-9 9zM80 309v41 q0 9 9 9t9 -9v-41q0 -9 -9 -9t-9 9zM200 369v41q0 9 9 9t9 -9v-41q0 -9 -9 -9t-9 9zM320 9v41q0 9 9 9t9 -9v-41q0 -9 -9 -9t-9 9zM380 69v41q0 9 9 9t9 -9v-41q0 -9 -9 -9t-9 9zM380 129v41q0 9 9 9t9 -9v-41q0 -9 -9 -9t-9 9zM380 189v41q0 9 9 9t9 -9v-41q0 -9 -9 -9 t-9 9zM380 249v41q0 9 9 9t9 -9v-41q0 -9 -9 -9t-9 9zM380 309v41q0 9 9 9t9 -9v-41q0 -9 -9 -9t-9 9zM260 369v41q0 9 9 9t9 -9v-41q0 -9 -9 -9t-9 9zM320 69v41q0 9 9 9t9 -9v-41q0 -9 -9 -9t-9 9zM320 129v41q0 9 9 9t9 -9v-41q0 -9 -9 -9t-9 9zM320 189v41q0 9 9 9t9 -9 v-41q0 -9 -9 -9t-9 9zM320 249v41q0 9 9 9t9 -9v-41q0 -9 -9 -9t-9 9zM320 309v41q0 9 9 9t9 -9v-41q0 -9 -9 -9t-9 9zM320 369v41q0 9 9 9t9 -9v-41q0 -9 -9 -9t-9 9zM380 9v41q0 9 9 9t9 -9v-41q0 -9 -9 -9t-9 9zM80 9v41q0 9 9 9t9 -9v-41q0 -9 -9 -9t-9 9zM80 369v41 q0 9 9 9t9 -9v-41q0 -9 -9 -9t-9 9zM140 429v41q0 9 9 9t9 -9v-41q0 -9 -9 -9t-9 9zM80 429v41q0 9 9 9t9 -9v-41q0 -9 -9 -9t-9 9zM140 489v41q0 9 9 9t9 -9v-41q0 -9 -9 -9t-9 9zM80 489v41q0 9 9 9t9 -9v-41q0 -9 -9 -9t-9 9z" />
<glyph unicode="i" horiz-adv-x="240" d="M158 530v-41q0 -9 -9 -9t-9 9v41q0 9 9 9t9 -9zM98 410v-41q0 -9 -9 -9t-9 9v41q0 9 9 9t9 -9zM98 350v-41q0 -9 -9 -9t-9 9v41q0 9 9 9t9 -9zM98 290v-41q0 -9 -9 -9t-9 9v41q0 9 9 9t9 -9zM98 230v-41q0 -9 -9 -9t-9 9v41q0 9 9 9t9 -9zM98 170v-41q0 -9 -9 -9t-9 9v41 q0 9 9 9t9 -9zM98 110v-41q0 -9 -9 -9t-9 9v41q0 9 9 9t9 -9zM98 50v-41q0 -9 -9 -9t-9 9v41q0 9 9 9t9 -9zM158 410v-41q0 -9 -9 -9t-9 9v41q0 9 9 9t9 -9zM158 350v-41q0 -9 -9 -9t-9 9v41q0 9 9 9t9 -9zM158 290v-41q0 -9 -9 -9t-9 9v41q0 9 9 9t9 -9zM158 230v-41 q0 -9 -9 -9t-9 9v41q0 9 9 9t9 -9zM158 170v-41q0 -9 -9 -9t-9 9v41q0 9 9 9t9 -9zM158 110v-41q0 -9 -9 -9t-9 9v41q0 9 9 9t9 -9zM158 50v-41q0 -9 -9 -9t-9 9v41q0 9 9 9t9 -9zM98 530v-41q0 -9 -9 -9t-9 9v41q0 9 9 9t9 -9z" />
<glyph unicode="j" horiz-adv-x="240" d="M98 530v-41q0 -9 -9 -9t-9 9v41q0 9 9 9t9 -9zM98 350v-41q0 -9 -9 -9t-9 9v41q0 9 9 9t9 -9zM98 290v-41q0 -9 -9 -9t-9 9v41q0 9 9 9t9 -9zM98 230v-41q0 -9 -9 -9t-9 9v41q0 9 9 9t9 -9zM98 170v-41q0 -9 -9 -9t-9 9v41q0 9 9 9t9 -9zM98 110v-41q0 -9 -9 -9t-9 9v41 q0 9 9 9t9 -9zM98 50v-41q0 -9 -9 -9t-9 9v41q0 9 9 9t9 -9zM158 350v-41q0 -9 -9 -9t-9 9v41q0 9 9 9t9 -9zM158 290v-41q0 -9 -9 -9t-9 9v41q0 9 9 9t9 -9zM158 230v-41q0 -9 -9 -9t-9 9v41q0 9 9 9t9 -9zM158 170v-41q0 -9 -9 -9t-9 9v41q0 9 9 9t9 -9zM158 110v-41 q0 -9 -9 -9t-9 9v41q0 9 9 9t9 -9zM158 50v-41q0 -9 -9 -9t-9 9v41q0 9 9 9t9 -9zM158 -10v-41q0 -9 -9 -9t-9 9v41q0 9 9 9t9 -9zM158 -70v-41q0 -9 -9 -9t-9 9v41q0 9 9 9t9 -9zM98 -70v-41q0 -9 -9 -9t-9 9v41q0 9 9 9t9 -9zM98 -10v-41q0 -9 -9 -9t-9 9v41q0 9 9 9t9 -9 zM158 530v-41q0 -9 -9 -9t-9 9v41q0 9 9 9t9 -9zM98 -130v-41q0 -9 -9 -9t-9 9v41q0 9 9 9t9 -9zM38 -130v-41q0 -9 -9 -9t-9 9v41q0 9 9 9t9 -9zM-22 -130v-41q0 -9 -9 -9t-9 9v41q0 9 9 9t9 -9zM-82 -70v-41q0 -9 -9 -9t-9 9v41q0 9 9 9t9 -9zM98 410v-41q0 -9 -9 -9t-9 9 v41q0 9 9 9t9 -9zM158 410v-41q0 -9 -9 -9t-9 9v41q0 9 9 9t9 -9z" />
<glyph unicode="k" d="M218 170v-41q0 -9 -9 -9t-9 9v41q0 9 9 9t9 -9zM98 170v-41q0 -9 -9 -9t-9 9v41q0 9 9 9t9 -9zM98 110v-41q0 -9 -9 -9t-9 9v41q0 9 9 9t9 -9zM98 50v-41q0 -9 -9 -9t-9 9v41q0 9 9 9t9 -9zM158 230v-41q0 -9 -9 -9t-9 9v41q0 9 9 9t9 -9zM158 170v-41q0 -9 -9 -9t-9 9 v41q0 9 9 9t9 -9zM158 110v-41q0 -9 -9 -9t-9 9v41q0 9 9 9t9 -9zM158 50v-41q0 -9 -9 -9t-9 9v41q0 9 9 9t9 -9zM98 230v-41q0 -9 -9 -9t-9 9v41q0 9 9 9t9 -9zM278 350v-41q0 -9 -9 -9t-9 9v41q0 9 9 9t9 -9zM218 290v-41q0 -9 -9 -9t-9 9v41q0 9 9 9t9 -9zM158 470v-41 q0 -9 -9 -9t-9 9v41q0 9 9 9t9 -9zM98 470v-41q0 -9 -9 -9t-9 9v41q0 9 9 9t9 -9zM338 110v-41q0 -9 -9 -9t-9 9v41q0 9 9 9t9 -9zM278 170v-41q0 -9 -9 -9t-9 9v41q0 9 9 9t9 -9zM278 290v-41q0 -9 -9 -9t-9 9v41q0 9 9 9t9 -9zM218 230v-41q0 -9 -9 -9t-9 9v41q0 9 9 9 t9 -9zM338 410v-41q0 -9 -9 -9t-9 9v41q0 9 9 9t9 -9zM338 350v-41q0 -9 -9 -9t-9 9v41q0 9 9 9t9 -9zM98 530v-41q0 -9 -9 -9t-9 9v41q0 9 9 9t9 -9zM398 410v-41q0 -9 -9 -9t-9 9v41q0 9 9 9t9 -9zM158 530v-41q0 -9 -9 -9t-9 9v41q0 9 9 9t9 -9zM158 410v-41q0 -9 -9 -9 t-9 9v41q0 9 9 9t9 -9zM98 410v-41q0 -9 -9 -9t-9 9v41q0 9 9 9t9 -9zM158 350v-41q0 -9 -9 -9t-9 9v41q0 9 9 9t9 -9zM98 350v-41q0 -9 -9 -9t-9 9v41q0 9 9 9t9 -9zM158 290v-41q0 -9 -9 -9t-9 9v41q0 9 9 9t9 -9zM98 290v-41q0 -9 -9 -9t-9 9v41q0 9 9 9t9 -9zM338 50 v-41q0 -9 -9 -9t-9 9v41q0 9 9 9t9 -9zM278 110v-41q0 -9 -9 -9t-9 9v41q0 9 9 9t9 -9zM398 50v-41q0 -9 -9 -9t-9 9v41q0 9 9 9t9 -9z" />
<glyph unicode="l" horiz-adv-x="240" d="M158 530v-41q0 -9 -9 -9t-9 9v41q0 9 9 9t9 -9zM98 470v-41q0 -9 -9 -9t-9 9v41q0 9 9 9t9 -9zM98 410v-41q0 -9 -9 -9t-9 9v41q0 9 9 9t9 -9zM98 350v-41q0 -9 -9 -9t-9 9v41q0 9 9 9t9 -9zM98 290v-41q0 -9 -9 -9t-9 9v41q0 9 9 9t9 -9zM98 230v-41q0 -9 -9 -9t-9 9v41 q0 9 9 9t9 -9zM98 170v-41q0 -9 -9 -9t-9 9v41q0 9 9 9t9 -9zM98 110v-41q0 -9 -9 -9t-9 9v41q0 9 9 9t9 -9zM98 50v-41q0 -9 -9 -9t-9 9v41q0 9 9 9t9 -9zM158 470v-41q0 -9 -9 -9t-9 9v41q0 9 9 9t9 -9zM158 410v-41q0 -9 -9 -9t-9 9v41q0 9 9 9t9 -9zM158 350v-41 q0 -9 -9 -9t-9 9v41q0 9 9 9t9 -9zM158 290v-41q0 -9 -9 -9t-9 9v41q0 9 9 9t9 -9zM158 230v-41q0 -9 -9 -9t-9 9v41q0 9 9 9t9 -9zM158 170v-41q0 -9 -9 -9t-9 9v41q0 9 9 9t9 -9zM158 110v-41q0 -9 -9 -9t-9 9v41q0 9 9 9t9 -9zM158 50v-41q0 -9 -9 -9t-9 9v41q0 9 9 9 t9 -9zM98 530v-41q0 -9 -9 -9t-9 9v41q0 9 9 9t9 -9z" />
<glyph unicode="m" horiz-adv-x="720" d="M140 9v41q0 9 9 9t9 -9v-41q0 -9 -9 -9t-9 9zM140 69v41q0 9 9 9t9 -9v-41q0 -9 -9 -9t-9 9zM140 129v41q0 9 9 9t9 -9v-41q0 -9 -9 -9t-9 9zM140 189v41q0 9 9 9t9 -9v-41q0 -9 -9 -9t-9 9zM140 249v41q0 9 9 9t9 -9v-41q0 -9 -9 -9t-9 9zM140 309v41q0 9 9 9t9 -9v-41 q0 -9 -9 -9t-9 9zM140 369v41q0 9 9 9t9 -9v-41q0 -9 -9 -9t-9 9zM80 69v41q0 9 9 9t9 -9v-41q0 -9 -9 -9t-9 9zM80 129v41q0 9 9 9t9 -9v-41q0 -9 -9 -9t-9 9zM80 189v41q0 9 9 9t9 -9v-41q0 -9 -9 -9t-9 9zM80 249v41q0 9 9 9t9 -9v-41q0 -9 -9 -9t-9 9zM80 309v41 q0 9 9 9t9 -9v-41q0 -9 -9 -9t-9 9zM200 369v41q0 9 9 9t9 -9v-41q0 -9 -9 -9t-9 9zM260 369v41q0 9 9 9t9 -9v-41q0 -9 -9 -9t-9 9zM80 9v41q0 9 9 9t9 -9v-41q0 -9 -9 -9t-9 9zM80 369v41q0 9 9 9t9 -9v-41q0 -9 -9 -9t-9 9zM380 9v41q0 9 9 9t9 -9v-41q0 -9 -9 -9t-9 9z M380 69v41q0 9 9 9t9 -9v-41q0 -9 -9 -9t-9 9zM380 129v41q0 9 9 9t9 -9v-41q0 -9 -9 -9t-9 9zM380 189v41q0 9 9 9t9 -9v-41q0 -9 -9 -9t-9 9zM380 249v41q0 9 9 9t9 -9v-41q0 -9 -9 -9t-9 9zM380 309v41q0 9 9 9t9 -9v-41q0 -9 -9 -9t-9 9zM380 369v41q0 9 9 9t9 -9v-41 q0 -9 -9 -9t-9 9zM320 69v41q0 9 9 9t9 -9v-41q0 -9 -9 -9t-9 9zM320 129v41q0 9 9 9t9 -9v-41q0 -9 -9 -9t-9 9zM320 189v41q0 9 9 9t9 -9v-41q0 -9 -9 -9t-9 9zM320 249v41q0 9 9 9t9 -9v-41q0 -9 -9 -9t-9 9zM320 309v41q0 9 9 9t9 -9v-41q0 -9 -9 -9t-9 9zM440 369v41 q0 9 9 9t9 -9v-41q0 -9 -9 -9t-9 9zM560 9v41q0 9 9 9t9 -9v-41q0 -9 -9 -9t-9 9zM620 69v41q0 9 9 9t9 -9v-41q0 -9 -9 -9t-9 9zM620 129v41q0 9 9 9t9 -9v-41q0 -9 -9 -9t-9 9zM620 189v41q0 9 9 9t9 -9v-41q0 -9 -9 -9t-9 9zM620 249v41q0 9 9 9t9 -9v-41q0 -9 -9 -9 t-9 9zM620 309v41q0 9 9 9t9 -9v-41q0 -9 -9 -9t-9 9zM500 369v41q0 9 9 9t9 -9v-41q0 -9 -9 -9t-9 9zM560 69v41q0 9 9 9t9 -9v-41q0 -9 -9 -9t-9 9zM560 129v41q0 9 9 9t9 -9v-41q0 -9 -9 -9t-9 9zM560 189v41q0 9 9 9t9 -9v-41q0 -9 -9 -9t-9 9zM560 249v41q0 9 9 9t9 -9 v-41q0 -9 -9 -9t-9 9zM560 309v41q0 9 9 9t9 -9v-41q0 -9 -9 -9t-9 9zM560 369v41q0 9 9 9t9 -9v-41q0 -9 -9 -9t-9 9zM620 9v41q0 9 9 9t9 -9v-41q0 -9 -9 -9t-9 9zM320 9v41q0 9 9 9t9 -9v-41q0 -9 -9 -9t-9 9zM320 369v41q0 9 9 9t9 -9v-41q0 -9 -9 -9t-9 9z" />
<glyph unicode="n" d="M140 9v41q0 9 9 9t9 -9v-41q0 -9 -9 -9t-9 9zM140 69v41q0 9 9 9t9 -9v-41q0 -9 -9 -9t-9 9zM140 129v41q0 9 9 9t9 -9v-41q0 -9 -9 -9t-9 9zM140 189v41q0 9 9 9t9 -9v-41q0 -9 -9 -9t-9 9zM140 249v41q0 9 9 9t9 -9v-41q0 -9 -9 -9t-9 9zM140 309v41q0 9 9 9t9 -9v-41 q0 -9 -9 -9t-9 9zM140 369v41q0 9 9 9t9 -9v-41q0 -9 -9 -9t-9 9zM80 69v41q0 9 9 9t9 -9v-41q0 -9 -9 -9t-9 9zM80 129v41q0 9 9 9t9 -9v-41q0 -9 -9 -9t-9 9zM80 189v41q0 9 9 9t9 -9v-41q0 -9 -9 -9t-9 9zM80 249v41q0 9 9 9t9 -9v-41q0 -9 -9 -9t-9 9zM80 309v41 q0 9 9 9t9 -9v-41q0 -9 -9 -9t-9 9zM200 369v41q0 9 9 9t9 -9v-41q0 -9 -9 -9t-9 9zM320 9v41q0 9 9 9t9 -9v-41q0 -9 -9 -9t-9 9zM380 69v41q0 9 9 9t9 -9v-41q0 -9 -9 -9t-9 9zM380 129v41q0 9 9 9t9 -9v-41q0 -9 -9 -9t-9 9zM380 189v41q0 9 9 9t9 -9v-41q0 -9 -9 -9 t-9 9zM380 249v41q0 9 9 9t9 -9v-41q0 -9 -9 -9t-9 9zM380 309v41q0 9 9 9t9 -9v-41q0 -9 -9 -9t-9 9zM260 369v41q0 9 9 9t9 -9v-41q0 -9 -9 -9t-9 9zM320 69v41q0 9 9 9t9 -9v-41q0 -9 -9 -9t-9 9zM320 129v41q0 9 9 9t9 -9v-41q0 -9 -9 -9t-9 9zM320 189v41q0 9 9 9t9 -9 v-41q0 -9 -9 -9t-9 9zM320 249v41q0 9 9 9t9 -9v-41q0 -9 -9 -9t-9 9zM320 309v41q0 9 9 9t9 -9v-41q0 -9 -9 -9t-9 9zM320 369v41q0 9 9 9t9 -9v-41q0 -9 -9 -9t-9 9zM380 9v41q0 9 9 9t9 -9v-41q0 -9 -9 -9t-9 9zM80 9v41q0 9 9 9t9 -9v-41q0 -9 -9 -9t-9 9zM80 369v41 q0 9 9 9t9 -9v-41q0 -9 -9 -9t-9 9z" />
<glyph unicode="o" d="M140 9v41q0 9 9 9t9 -9v-41q0 -9 -9 -9t-9 9zM140 69v41q0 9 9 9t9 -9v-41q0 -9 -9 -9t-9 9zM140 129v41q0 9 9 9t9 -9v-41q0 -9 -9 -9t-9 9zM140 189v41q0 9 9 9t9 -9v-41q0 -9 -9 -9t-9 9zM140 249v41q0 9 9 9t9 -9v-41q0 -9 -9 -9t-9 9zM140 309v41q0 9 9 9t9 -9v-41 q0 -9 -9 -9t-9 9zM140 369v41q0 9 9 9t9 -9v-41q0 -9 -9 -9t-9 9zM80 69v41q0 9 9 9t9 -9v-41q0 -9 -9 -9t-9 9zM80 129v41q0 9 9 9t9 -9v-41q0 -9 -9 -9t-9 9zM80 189v41q0 9 9 9t9 -9v-41q0 -9 -9 -9t-9 9zM80 249v41q0 9 9 9t9 -9v-41q0 -9 -9 -9t-9 9zM80 309v41 q0 9 9 9t9 -9v-41q0 -9 -9 -9t-9 9zM200 369v41q0 9 9 9t9 -9v-41q0 -9 -9 -9t-9 9zM320 9v41q0 9 9 9t9 -9v-41q0 -9 -9 -9t-9 9zM380 69v41q0 9 9 9t9 -9v-41q0 -9 -9 -9t-9 9zM380 129v41q0 9 9 9t9 -9v-41q0 -9 -9 -9t-9 9zM380 189v41q0 9 9 9t9 -9v-41q0 -9 -9 -9 t-9 9zM380 249v41q0 9 9 9t9 -9v-41q0 -9 -9 -9t-9 9zM380 309v41q0 9 9 9t9 -9v-41q0 -9 -9 -9t-9 9zM260 369v41q0 9 9 9t9 -9v-41q0 -9 -9 -9t-9 9zM320 69v41q0 9 9 9t9 -9v-41q0 -9 -9 -9t-9 9zM320 129v41q0 9 9 9t9 -9v-41q0 -9 -9 -9t-9 9zM320 189v41q0 9 9 9t9 -9 v-41q0 -9 -9 -9t-9 9zM320 249v41q0 9 9 9t9 -9v-41q0 -9 -9 -9t-9 9zM320 309v41q0 9 9 9t9 -9v-41q0 -9 -9 -9t-9 9zM320 369v41q0 9 9 9t9 -9v-41q0 -9 -9 -9t-9 9zM260 9v41q0 9 9 9t9 -9v-41q0 -9 -9 -9t-9 9zM200 9v41q0 9 9 9t9 -9v-41q0 -9 -9 -9t-9 9z" />
<glyph unicode="p" d="M140 369v41q0 9 9 9t9 -9v-41q0 -9 -9 -9t-9 9zM140 309v41q0 9 9 9t9 -9v-41q0 -9 -9 -9t-9 9zM140 249v41q0 9 9 9t9 -9v-41q0 -9 -9 -9t-9 9zM140 189v41q0 9 9 9t9 -9v-41q0 -9 -9 -9t-9 9zM140 129v41q0 9 9 9t9 -9v-41q0 -9 -9 -9t-9 9zM140 69v41q0 9 9 9t9 -9 v-41q0 -9 -9 -9t-9 9zM140 9v41q0 9 9 9t9 -9v-41q0 -9 -9 -9t-9 9zM80 309v41q0 9 9 9t9 -9v-41q0 -9 -9 -9t-9 9zM80 249v41q0 9 9 9t9 -9v-41q0 -9 -9 -9t-9 9zM80 189v41q0 9 9 9t9 -9v-41q0 -9 -9 -9t-9 9zM80 129v41q0 9 9 9t9 -9v-41q0 -9 -9 -9t-9 9zM80 69v41 q0 9 9 9t9 -9v-41q0 -9 -9 -9t-9 9zM200 9v41q0 9 9 9t9 -9v-41q0 -9 -9 -9t-9 9zM320 369v41q0 9 9 9t9 -9v-41q0 -9 -9 -9t-9 9zM380 309v41q0 9 9 9t9 -9v-41q0 -9 -9 -9t-9 9zM380 249v41q0 9 9 9t9 -9v-41q0 -9 -9 -9t-9 9zM380 189v41q0 9 9 9t9 -9v-41q0 -9 -9 -9 t-9 9zM380 129v41q0 9 9 9t9 -9v-41q0 -9 -9 -9t-9 9zM380 69v41q0 9 9 9t9 -9v-41q0 -9 -9 -9t-9 9zM260 9v41q0 9 9 9t9 -9v-41q0 -9 -9 -9t-9 9zM320 309v41q0 9 9 9t9 -9v-41q0 -9 -9 -9t-9 9zM320 249v41q0 9 9 9t9 -9v-41q0 -9 -9 -9t-9 9zM320 189v41q0 9 9 9t9 -9 v-41q0 -9 -9 -9t-9 9zM320 129v41q0 9 9 9t9 -9v-41q0 -9 -9 -9t-9 9zM320 69v41q0 9 9 9t9 -9v-41q0 -9 -9 -9t-9 9zM320 9v41q0 9 9 9t9 -9v-41q0 -9 -9 -9t-9 9zM260 369v41q0 9 9 9t9 -9v-41q0 -9 -9 -9t-9 9zM200 369v41q0 9 9 9t9 -9v-41q0 -9 -9 -9t-9 9zM80 9v41 q0 9 9 9t9 -9v-41q0 -9 -9 -9t-9 9zM80 -51v41q0 9 9 9t9 -9v-41q0 -9 -9 -9t-9 9zM80 -111v41q0 9 9 9t9 -9v-41q0 -9 -9 -9t-9 9zM140 -111v41q0 9 9 9t9 -9v-41q0 -9 -9 -9t-9 9zM140 -51v41q0 9 9 9t9 -9v-41q0 -9 -9 -9t-9 9zM80 369v41q0 9 9 9t9 -9v-41q0 -9 -9 -9 t-9 9z" />
<glyph unicode="q" d="M338 410v-41q0 -9 -9 -9t-9 9v41q0 9 9 9t9 -9zM338 350v-41q0 -9 -9 -9t-9 9v41q0 9 9 9t9 -9zM338 290v-41q0 -9 -9 -9t-9 9v41q0 9 9 9t9 -9zM338 230v-41q0 -9 -9 -9t-9 9v41q0 9 9 9t9 -9zM338 170v-41q0 -9 -9 -9t-9 9v41q0 9 9 9t9 -9zM338 110v-41q0 -9 -9 -9 t-9 9v41q0 9 9 9t9 -9zM338 50v-41q0 -9 -9 -9t-9 9v41q0 9 9 9t9 -9zM398 350v-41q0 -9 -9 -9t-9 9v41q0 9 9 9t9 -9zM398 290v-41q0 -9 -9 -9t-9 9v41q0 9 9 9t9 -9zM398 230v-41q0 -9 -9 -9t-9 9v41q0 9 9 9t9 -9zM398 170v-41q0 -9 -9 -9t-9 9v41q0 9 9 9t9 -9zM398 110 v-41q0 -9 -9 -9t-9 9v41q0 9 9 9t9 -9zM278 50v-41q0 -9 -9 -9t-9 9v41q0 9 9 9t9 -9zM158 410v-41q0 -9 -9 -9t-9 9v41q0 9 9 9t9 -9zM98 350v-41q0 -9 -9 -9t-9 9v41q0 9 9 9t9 -9zM98 290v-41q0 -9 -9 -9t-9 9v41q0 9 9 9t9 -9zM98 230v-41q0 -9 -9 -9t-9 9v41q0 9 9 9 t9 -9zM98 170v-41q0 -9 -9 -9t-9 9v41q0 9 9 9t9 -9zM98 110v-41q0 -9 -9 -9t-9 9v41q0 9 9 9t9 -9zM218 50v-41q0 -9 -9 -9t-9 9v41q0 9 9 9t9 -9zM158 350v-41q0 -9 -9 -9t-9 9v41q0 9 9 9t9 -9zM158 290v-41q0 -9 -9 -9t-9 9v41q0 9 9 9t9 -9zM158 230v-41q0 -9 -9 -9 t-9 9v41q0 9 9 9t9 -9zM158 170v-41q0 -9 -9 -9t-9 9v41q0 9 9 9t9 -9zM158 110v-41q0 -9 -9 -9t-9 9v41q0 9 9 9t9 -9zM158 50v-41q0 -9 -9 -9t-9 9v41q0 9 9 9t9 -9zM218 410v-41q0 -9 -9 -9t-9 9v41q0 9 9 9t9 -9zM278 410v-41q0 -9 -9 -9t-9 9v41q0 9 9 9t9 -9zM398 50 v-41q0 -9 -9 -9t-9 9v41q0 9 9 9t9 -9zM398 -10v-41q0 -9 -9 -9t-9 9v41q0 9 9 9t9 -9zM398 -70v-41q0 -9 -9 -9t-9 9v41q0 9 9 9t9 -9zM338 -70v-41q0 -9 -9 -9t-9 9v41q0 9 9 9t9 -9zM338 -10v-41q0 -9 -9 -9t-9 9v41q0 9 9 9t9 -9zM398 410v-41q0 -9 -9 -9t-9 9v41 q0 9 9 9t9 -9z" />
<glyph unicode="r" horiz-adv-x="360" d="M140 9v41q0 9 9 9t9 -9v-41q0 -9 -9 -9t-9 9zM140 69v41q0 9 9 9t9 -9v-41q0 -9 -9 -9t-9 9zM140 129v41q0 9 9 9t9 -9v-41q0 -9 -9 -9t-9 9zM140 189v41q0 9 9 9t9 -9v-41q0 -9 -9 -9t-9 9zM140 249v41q0 9 9 9t9 -9v-41q0 -9 -9 -9t-9 9zM140 309v41q0 9 9 9t9 -9v-41 q0 -9 -9 -9t-9 9zM140 369v41q0 9 9 9t9 -9v-41q0 -9 -9 -9t-9 9zM80 69v41q0 9 9 9t9 -9v-41q0 -9 -9 -9t-9 9zM80 129v41q0 9 9 9t9 -9v-41q0 -9 -9 -9t-9 9zM80 189v41q0 9 9 9t9 -9v-41q0 -9 -9 -9t-9 9zM80 249v41q0 9 9 9t9 -9v-41q0 -9 -9 -9t-9 9zM80 309v41 q0 9 9 9t9 -9v-41q0 -9 -9 -9t-9 9zM200 309v41q0 9 9 9t9 -9v-41q0 -9 -9 -9t-9 9zM260 369v41q0 9 9 9t9 -9v-41q0 -9 -9 -9t-9 9zM320 369v41q0 9 9 9t9 -9v-41q0 -9 -9 -9t-9 9zM80 9v41q0 9 9 9t9 -9v-41q0 -9 -9 -9t-9 9zM80 369v41q0 9 9 9t9 -9v-41q0 -9 -9 -9t-9 9 z" />
<glyph unicode="s" horiz-adv-x="420" d="M200 189v41q0 9 9 9t9 -9v-41q0 -9 -9 -9t-9 9zM80 69v41q0 9 9 9t9 -9v-41q0 -9 -9 -9t-9 9zM200 129v41q0 9 9 9t9 -9v-41q0 -9 -9 -9t-9 9zM260 9v41q0 9 9 9t9 -9v-41q0 -9 -9 -9t-9 9zM320 69v41q0 9 9 9t9 -9v-41q0 -9 -9 -9t-9 9zM320 129v41q0 9 9 9t9 -9v-41 q0 -9 -9 -9t-9 9zM320 309v41q0 9 9 9t9 -9v-41q0 -9 -9 -9t-9 9zM260 69v41q0 9 9 9t9 -9v-41q0 -9 -9 -9t-9 9zM260 129v41q0 9 9 9t9 -9v-41q0 -9 -9 -9t-9 9zM260 189v41q0 9 9 9t9 -9v-41q0 -9 -9 -9t-9 9zM260 369v41q0 9 9 9t9 -9v-41q0 -9 -9 -9t-9 9zM200 9v41 q0 9 9 9t9 -9v-41q0 -9 -9 -9t-9 9zM140 9v41q0 9 9 9t9 -9v-41q0 -9 -9 -9t-9 9zM200 249v41q0 9 9 9t9 -9v-41q0 -9 -9 -9t-9 9zM200 369v41q0 9 9 9t9 -9v-41q0 -9 -9 -9t-9 9zM140 189v41q0 9 9 9t9 -9v-41q0 -9 -9 -9t-9 9zM140 249v41q0 9 9 9t9 -9v-41q0 -9 -9 -9 t-9 9zM140 309v41q0 9 9 9t9 -9v-41q0 -9 -9 -9t-9 9zM140 369v41q0 9 9 9t9 -9v-41q0 -9 -9 -9t-9 9zM80 249v41q0 9 9 9t9 -9v-41q0 -9 -9 -9t-9 9zM80 309v41q0 9 9 9t9 -9v-41q0 -9 -9 -9t-9 9z" />
<glyph unicode="t" horiz-adv-x="360" d="M218 50v-41q0 -9 -9 -9t-9 9v41q0 9 9 9t9 -9zM158 110v-41q0 -9 -9 -9t-9 9v41q0 9 9 9t9 -9zM158 170v-41q0 -9 -9 -9t-9 9v41q0 9 9 9t9 -9zM158 230v-41q0 -9 -9 -9t-9 9v41q0 9 9 9t9 -9zM158 290v-41q0 -9 -9 -9t-9 9v41q0 9 9 9t9 -9zM158 350v-41q0 -9 -9 -9 t-9 9v41q0 9 9 9t9 -9zM158 410v-41q0 -9 -9 -9t-9 9v41q0 9 9 9t9 -9zM158 470v-41q0 -9 -9 -9t-9 9v41q0 9 9 9t9 -9zM158 530v-41q0 -9 -9 -9t-9 9v41q0 9 9 9t9 -9zM218 110v-41q0 -9 -9 -9t-9 9v41q0 9 9 9t9 -9zM218 170v-41q0 -9 -9 -9t-9 9v41q0 9 9 9t9 -9z M218 230v-41q0 -9 -9 -9t-9 9v41q0 9 9 9t9 -9zM218 290v-41q0 -9 -9 -9t-9 9v41q0 9 9 9t9 -9zM218 350v-41q0 -9 -9 -9t-9 9v41q0 9 9 9t9 -9zM218 410v-41q0 -9 -9 -9t-9 9v41q0 9 9 9t9 -9zM218 470v-41q0 -9 -9 -9t-9 9v41q0 9 9 9t9 -9zM218 530v-41q0 -9 -9 -9t-9 9 v41q0 9 9 9t9 -9zM98 410v-41q0 -9 -9 -9t-9 9v41q0 9 9 9t9 -9zM278 410v-41q0 -9 -9 -9t-9 9v41q0 9 9 9t9 -9zM278 50v-41q0 -9 -9 -9t-9 9v41q0 9 9 9t9 -9z" />
<glyph unicode="u" d="M338 410v-41q0 -9 -9 -9t-9 9v41q0 9 9 9t9 -9zM338 350v-41q0 -9 -9 -9t-9 9v41q0 9 9 9t9 -9zM338 290v-41q0 -9 -9 -9t-9 9v41q0 9 9 9t9 -9zM338 230v-41q0 -9 -9 -9t-9 9v41q0 9 9 9t9 -9zM338 170v-41q0 -9 -9 -9t-9 9v41q0 9 9 9t9 -9zM338 110v-41q0 -9 -9 -9 t-9 9v41q0 9 9 9t9 -9zM338 50v-41q0 -9 -9 -9t-9 9v41q0 9 9 9t9 -9zM398 350v-41q0 -9 -9 -9t-9 9v41q0 9 9 9t9 -9zM398 290v-41q0 -9 -9 -9t-9 9v41q0 9 9 9t9 -9zM398 230v-41q0 -9 -9 -9t-9 9v41q0 9 9 9t9 -9zM398 170v-41q0 -9 -9 -9t-9 9v41q0 9 9 9t9 -9zM398 110 v-41q0 -9 -9 -9t-9 9v41q0 9 9 9t9 -9zM278 50v-41q0 -9 -9 -9t-9 9v41q0 9 9 9t9 -9zM158 410v-41q0 -9 -9 -9t-9 9v41q0 9 9 9t9 -9zM98 350v-41q0 -9 -9 -9t-9 9v41q0 9 9 9t9 -9zM98 290v-41q0 -9 -9 -9t-9 9v41q0 9 9 9t9 -9zM98 230v-41q0 -9 -9 -9t-9 9v41q0 9 9 9 t9 -9zM98 170v-41q0 -9 -9 -9t-9 9v41q0 9 9 9t9 -9zM98 110v-41q0 -9 -9 -9t-9 9v41q0 9 9 9t9 -9zM218 50v-41q0 -9 -9 -9t-9 9v41q0 9 9 9t9 -9zM158 350v-41q0 -9 -9 -9t-9 9v41q0 9 9 9t9 -9zM158 290v-41q0 -9 -9 -9t-9 9v41q0 9 9 9t9 -9zM158 230v-41q0 -9 -9 -9 t-9 9v41q0 9 9 9t9 -9zM158 170v-41q0 -9 -9 -9t-9 9v41q0 9 9 9t9 -9zM158 110v-41q0 -9 -9 -9t-9 9v41q0 9 9 9t9 -9zM158 50v-41q0 -9 -9 -9t-9 9v41q0 9 9 9t9 -9zM98 410v-41q0 -9 -9 -9t-9 9v41q0 9 9 9t9 -9zM398 410v-41q0 -9 -9 -9t-9 9v41q0 9 9 9t9 -9zM398 50 v-41q0 -9 -9 -9t-9 9v41q0 9 9 9t9 -9z" />
<glyph unicode="v" d="M140 369v41q0 9 9 9t9 -9v-41q0 -9 -9 -9t-9 9zM140 309v41q0 9 9 9t9 -9v-41q0 -9 -9 -9t-9 9zM140 249v41q0 9 9 9t9 -9v-41q0 -9 -9 -9t-9 9zM140 189v41q0 9 9 9t9 -9v-41q0 -9 -9 -9t-9 9zM140 129v41q0 9 9 9t9 -9v-41q0 -9 -9 -9t-9 9zM140 69v41q0 9 9 9t9 -9 v-41q0 -9 -9 -9t-9 9zM140 9v41q0 9 9 9t9 -9v-41q0 -9 -9 -9t-9 9zM80 309v41q0 9 9 9t9 -9v-41q0 -9 -9 -9t-9 9zM80 249v41q0 9 9 9t9 -9v-41q0 -9 -9 -9t-9 9zM80 189v41q0 9 9 9t9 -9v-41q0 -9 -9 -9t-9 9zM80 129v41q0 9 9 9t9 -9v-41q0 -9 -9 -9t-9 9zM80 69v41 q0 9 9 9t9 -9v-41q0 -9 -9 -9t-9 9zM200 9v41q0 9 9 9t9 -9v-41q0 -9 -9 -9t-9 9zM320 369v41q0 9 9 9t9 -9v-41q0 -9 -9 -9t-9 9zM380 309v41q0 9 9 9t9 -9v-41q0 -9 -9 -9t-9 9zM380 249v41q0 9 9 9t9 -9v-41q0 -9 -9 -9t-9 9zM380 189v41q0 9 9 9t9 -9v-41q0 -9 -9 -9 t-9 9zM380 129v41q0 9 9 9t9 -9v-41q0 -9 -9 -9t-9 9zM260 9v41q0 9 9 9t9 -9v-41q0 -9 -9 -9t-9 9zM320 309v41q0 9 9 9t9 -9v-41q0 -9 -9 -9t-9 9zM320 249v41q0 9 9 9t9 -9v-41q0 -9 -9 -9t-9 9zM320 189v41q0 9 9 9t9 -9v-41q0 -9 -9 -9t-9 9zM320 129v41q0 9 9 9t9 -9 v-41q0 -9 -9 -9t-9 9zM320 69v41q0 9 9 9t9 -9v-41q0 -9 -9 -9t-9 9zM380 369v41q0 9 9 9t9 -9v-41q0 -9 -9 -9t-9 9zM80 369v41q0 9 9 9t9 -9v-41q0 -9 -9 -9t-9 9zM80 9v41q0 9 9 9t9 -9v-41q0 -9 -9 -9t-9 9z" />
<glyph unicode="w" horiz-adv-x="721" d="M140 369v41q0 9 9 9t9 -9v-41q0 -9 -9 -9t-9 9zM140 309v41q0 9 9 9t9 -9v-41q0 -9 -9 -9t-9 9zM140 249v41q0 9 9 9t9 -9v-41q0 -9 -9 -9t-9 9zM140 189v41q0 9 9 9t9 -9v-41q0 -9 -9 -9t-9 9zM140 129v41q0 9 9 9t9 -9v-41q0 -9 -9 -9t-9 9zM140 69v41q0 9 9 9t9 -9 v-41q0 -9 -9 -9t-9 9zM140 9v41q0 9 9 9t9 -9v-41q0 -9 -9 -9t-9 9zM80 309v41q0 9 9 9t9 -9v-41q0 -9 -9 -9t-9 9zM80 249v41q0 9 9 9t9 -9v-41q0 -9 -9 -9t-9 9zM80 189v41q0 9 9 9t9 -9v-41q0 -9 -9 -9t-9 9zM80 129v41q0 9 9 9t9 -9v-41q0 -9 -9 -9t-9 9zM80 69v41 q0 9 9 9t9 -9v-41q0 -9 -9 -9t-9 9zM200 9v41q0 9 9 9t9 -9v-41q0 -9 -9 -9t-9 9zM260 9v41q0 9 9 9t9 -9v-41q0 -9 -9 -9t-9 9zM80 369v41q0 9 9 9t9 -9v-41q0 -9 -9 -9t-9 9zM80 9v41q0 9 9 9t9 -9v-41q0 -9 -9 -9t-9 9zM380 369v41q0 9 9 9t9 -9v-41q0 -9 -9 -9t-9 9z M380 309v41q0 9 9 9t9 -9v-41q0 -9 -9 -9t-9 9zM380 249v41q0 9 9 9t9 -9v-41q0 -9 -9 -9t-9 9zM380 189v41q0 9 9 9t9 -9v-41q0 -9 -9 -9t-9 9zM380 129v41q0 9 9 9t9 -9v-41q0 -9 -9 -9t-9 9zM380 69v41q0 9 9 9t9 -9v-41q0 -9 -9 -9t-9 9zM380 9v41q0 9 9 9t9 -9v-41 q0 -9 -9 -9t-9 9zM320 309v41q0 9 9 9t9 -9v-41q0 -9 -9 -9t-9 9zM320 249v41q0 9 9 9t9 -9v-41q0 -9 -9 -9t-9 9zM320 189v41q0 9 9 9t9 -9v-41q0 -9 -9 -9t-9 9zM320 129v41q0 9 9 9t9 -9v-41q0 -9 -9 -9t-9 9zM320 69v41q0 9 9 9t9 -9v-41q0 -9 -9 -9t-9 9zM440 9v41 q0 9 9 9t9 -9v-41q0 -9 -9 -9t-9 9zM560 369v41q0 9 9 9t9 -9v-41q0 -9 -9 -9t-9 9zM620 309v41q0 9 9 9t9 -9v-41q0 -9 -9 -9t-9 9zM620 249v41q0 9 9 9t9 -9v-41q0 -9 -9 -9t-9 9zM620 189v41q0 9 9 9t9 -9v-41q0 -9 -9 -9t-9 9zM620 129v41q0 9 9 9t9 -9v-41q0 -9 -9 -9 t-9 9zM500 9v41q0 9 9 9t9 -9v-41q0 -9 -9 -9t-9 9zM560 309v41q0 9 9 9t9 -9v-41q0 -9 -9 -9t-9 9zM560 249v41q0 9 9 9t9 -9v-41q0 -9 -9 -9t-9 9zM560 189v41q0 9 9 9t9 -9v-41q0 -9 -9 -9t-9 9zM560 129v41q0 9 9 9t9 -9v-41q0 -9 -9 -9t-9 9zM560 69v41q0 9 9 9t9 -9 v-41q0 -9 -9 -9t-9 9zM620 369v41q0 9 9 9t9 -9v-41q0 -9 -9 -9t-9 9zM320 369v41q0 9 9 9t9 -9v-41q0 -9 -9 -9t-9 9zM320 9v41q0 9 9 9t9 -9v-41q0 -9 -9 -9t-9 9z" />
<glyph unicode="x" d="M140 189v41q0 9 9 9t9 -9v-41q0 -9 -9 -9t-9 9zM80 129v41q0 9 9 9t9 -9v-41q0 -9 -9 -9t-9 9zM140 129v41q0 9 9 9t9 -9v-41q0 -9 -9 -9t-9 9zM80 69v41q0 9 9 9t9 -9v-41q0 -9 -9 -9t-9 9zM140 69v41q0 9 9 9t9 -9v-41q0 -9 -9 -9t-9 9zM80 9v41q0 9 9 9t9 -9v-41 q0 -9 -9 -9t-9 9zM140 9v41q0 9 9 9t9 -9v-41q0 -9 -9 -9t-9 9zM320 9v41q0 9 9 9t9 -9v-41q0 -9 -9 -9t-9 9zM380 9v41q0 9 9 9t9 -9v-41q0 -9 -9 -9t-9 9zM320 69v41v4l3 3q2 2 3 2h3q4 0 8 -4v-1l1 -2v-2v-41v-2v-1l-1 -2l-3 -3l-1 -1h-2h-2h-3q-6 2 -6 7v2zM380 69v41v4 l3 3q2 2 3 2h3h2q1 0 3 -2q1 0 3 -2v-1l1 -2v-2v-41q0 -5 -4 -8q-1 -1 -5 -1q-7 0 -9 5v2v2zM200 189v41q0 9 9 9t9 -9v-41q0 -9 -9 -9t-9 9zM260 189v41q0 9 9 9t9 -9v-41q0 -9 -9 -9t-9 9zM320 129v41q0 9 9 9t9 -9v-41q0 -9 -9 -9t-9 9zM320 369v41q0 9 9 9t9 -9v-41 q0 -9 -9 -9t-9 9zM320 309v41q0 9 9 9t9 -9v-41q0 -9 -9 -9t-9 9zM320 249v41q0 9 9 9t9 -9v-41q0 -9 -9 -9t-9 9zM380 129v41q0 9 9 9t9 -9v-41q0 -9 -9 -9t-9 9zM380 369v41q0 9 9 9t9 -9v-41q0 -9 -9 -9t-9 9zM380 309v41q0 9 9 9t9 -9v-41q0 -9 -9 -9t-9 9zM380 249v41 q0 9 9 9t9 -9v-41q0 -9 -9 -9t-9 9zM320 189v41q0 9 9 9t9 -9v-41q0 -9 -9 -9t-9 9zM80 369v41q0 9 9 9t9 -9v-41q0 -9 -9 -9t-9 9zM80 309v41q0 9 9 9t9 -9v-41q0 -9 -9 -9t-9 9zM80 249v41q0 9 9 9t9 -9v-41q0 -9 -9 -9t-9 9zM140 369v41q0 9 9 9t9 -9v-41q0 -9 -9 -9 t-9 9zM140 309v41q0 9 9 9t9 -9v-41q0 -9 -9 -9t-9 9zM140 249v41q0 9 9 9t9 -9v-41q0 -9 -9 -9t-9 9z" />
<glyph unicode="y" d="M338 410v-41q0 -9 -9 -9t-9 9v41q0 9 9 9t9 -9zM338 350v-41q0 -9 -9 -9t-9 9v41q0 9 9 9t9 -9zM338 290v-41q0 -9 -9 -9t-9 9v41q0 9 9 9t9 -9zM338 230v-41q0 -9 -9 -9t-9 9v41q0 9 9 9t9 -9zM338 170v-41q0 -9 -9 -9t-9 9v41q0 9 9 9t9 -9zM338 110v-41q0 -9 -9 -9 t-9 9v41q0 9 9 9t9 -9zM338 50v-41q0 -9 -9 -9t-9 9v41q0 9 9 9t9 -9zM398 350v-41q0 -9 -9 -9t-9 9v41q0 9 9 9t9 -9zM398 290v-41q0 -9 -9 -9t-9 9v41q0 9 9 9t9 -9zM398 230v-41q0 -9 -9 -9t-9 9v41q0 9 9 9t9 -9zM398 170v-41q0 -9 -9 -9t-9 9v41q0 9 9 9t9 -9zM398 110 v-41q0 -9 -9 -9t-9 9v41q0 9 9 9t9 -9zM278 50v-41q0 -9 -9 -9t-9 9v41q0 9 9 9t9 -9zM158 410v-41q0 -9 -9 -9t-9 9v41q0 9 9 9t9 -9zM98 350v-41q0 -9 -9 -9t-9 9v41q0 9 9 9t9 -9zM98 290v-41q0 -9 -9 -9t-9 9v41q0 9 9 9t9 -9zM98 230v-41q0 -9 -9 -9t-9 9v41q0 9 9 9 t9 -9zM98 170v-41q0 -9 -9 -9t-9 9v41q0 9 9 9t9 -9zM98 110v-41q0 -9 -9 -9t-9 9v41q0 9 9 9t9 -9zM218 50v-41q0 -9 -9 -9t-9 9v41q0 9 9 9t9 -9zM158 350v-41q0 -9 -9 -9t-9 9v41q0 9 9 9t9 -9zM158 290v-41q0 -9 -9 -9t-9 9v41q0 9 9 9t9 -9zM158 230v-41q0 -9 -9 -9 t-9 9v41q0 9 9 9t9 -9zM158 170v-41q0 -9 -9 -9t-9 9v41q0 9 9 9t9 -9zM158 110v-41q0 -9 -9 -9t-9 9v41q0 9 9 9t9 -9zM158 50v-41q0 -9 -9 -9t-9 9v41q0 9 9 9t9 -9zM98 410v-41q0 -9 -9 -9t-9 9v41q0 9 9 9t9 -9zM398 50v-41q0 -9 -9 -9t-9 9v41q0 9 9 9t9 -9zM398 -10 v-41q0 -9 -9 -9t-9 9v41q0 9 9 9t9 -9zM398 -70v-41q0 -9 -9 -9t-9 9v41q0 9 9 9t9 -9zM338 -70v-41q0 -9 -9 -9t-9 9v41q0 9 9 9t9 -9zM338 -10v-41q0 -9 -9 -9t-9 9v41q0 9 9 9t9 -9zM398 410v-41q0 -9 -9 -9t-9 9v41q0 9 9 9t9 -9zM338 -130v-41q0 -9 -9 -9t-9 9v41 q0 9 9 9t9 -9zM278 -130v-41q0 -9 -9 -9t-9 9v41q0 9 9 9t9 -9zM218 -130v-41q0 -9 -9 -9t-9 9v41q0 9 9 9t9 -9zM158 -130v-41q0 -9 -9 -9t-9 9v41q0 9 9 9t9 -9zM98 -70v-41q0 -9 -9 -9t-9 9v41q0 9 9 9t9 -9z" />
<glyph unicode="z" d="M338 50v-41q0 -9 -9 -9t-9 9v41q0 9 9 9t9 -9zM158 410v-41q0 -9 -9 -9t-9 9v41q0 9 9 9t9 -9zM98 110v-41q0 -9 -9 -9t-9 9v41q0 9 9 9t9 -9zM98 50v-41q0 -9 -9 -9t-9 9v41q0 9 9 9t9 -9zM158 170v-41q0 -9 -9 -9t-9 9v41q0 9 9 9t9 -9zM158 110v-41q0 -9 -9 -9t-9 9 v41q0 9 9 9t9 -9zM158 50v-41q0 -9 -9 -9t-9 9v41q0 9 9 9t9 -9zM98 410v-41q0 -9 -9 -9t-9 9v41q0 9 9 9t9 -9zM278 50v-41q0 -9 -9 -9t-9 9v41q0 9 9 9t9 -9zM218 50v-41q0 -9 -9 -9t-9 9v41q0 9 9 9t9 -9zM278 290v-41q0 -9 -9 -9t-9 9v41q0 9 9 9t9 -9zM218 230v-41 q0 -9 -9 -9t-9 9v41q0 9 9 9t9 -9zM278 410v-41q0 -9 -9 -9t-9 9v41q0 9 9 9t9 -9zM218 410v-41q0 -9 -9 -9t-9 9v41q0 9 9 9t9 -9zM338 410v-41q0 -9 -9 -9t-9 9v41q0 9 9 9t9 -9zM398 410v-41q0 -9 -9 -9t-9 9v41q0 9 9 9t9 -9zM398 50v-41q0 -9 -9 -9t-9 9v41q0 9 9 9 t9 -9zM278 230v-41q0 -9 -9 -9t-9 9v41q0 9 9 9t9 -9zM218 170v-41q0 -9 -9 -9t-9 9v41q0 9 9 9t9 -9zM338 350v-41q0 -9 -9 -9t-9 9v41q0 9 9 9t9 -9zM338 290v-41q0 -9 -9 -9t-9 9v41q0 9 9 9t9 -9zM398 350v-41q0 -9 -9 -9t-9 9v41q0 9 9 9t9 -9z" />
<glyph unicode="{" horiz-adv-x="300" d="M200 549v41q0 9 9 9t9 -9v-41q0 -9 -9 -9t-9 9zM140 369v41q0 9 9 9t9 -9v-41q0 -9 -9 -9t-9 9zM140 429v41q0 9 9 9t9 -9v-41q0 -9 -9 -9t-9 9zM140 489v41q0 9 9 9t9 -9v-41q0 -9 -9 -9t-9 9zM140 189v41q0 9 9 9t9 -9v-41q0 -9 -9 -9t-9 9zM140 309v41q0 9 9 9t9 -9 v-41q0 -9 -9 -9t-9 9zM140 9v41q0 9 9 9t9 -9v-41q0 -9 -9 -9t-9 9zM140 69v41q0 9 9 9t9 -9v-41q0 -9 -9 -9t-9 9zM140 129v41q0 9 9 9t9 -9v-41q0 -9 -9 -9t-9 9zM200 -51v41q0 9 9 9t9 -9v-41q0 -9 -9 -9t-9 9zM80 249v41q0 9 9 9t9 -9v-41q0 -9 -9 -9t-9 9z" />
<glyph unicode="|" horiz-adv-x="300" d="M140 549v41q0 9 9 9t9 -9v-41q0 -9 -9 -9t-9 9zM140 609v41q0 9 9 9t9 -9v-41q0 -9 -9 -9t-9 9zM140 669v41q0 9 9 9t9 -9v-41q0 -9 -9 -9t-9 9zM140 369v41q0 9 9 9t9 -9v-41q0 -9 -9 -9t-9 9zM140 429v41q0 9 9 9t9 -9v-41q0 -9 -9 -9t-9 9zM140 489v41q0 9 9 9t9 -9 v-41q0 -9 -9 -9t-9 9zM140 189v41q0 9 9 9t9 -9v-41q0 -9 -9 -9t-9 9zM140 249v41q0 9 9 9t9 -9v-41q0 -9 -9 -9t-9 9zM140 309v41q0 9 9 9t9 -9v-41q0 -9 -9 -9t-9 9zM140 9v41q0 9 9 9t9 -9v-41q0 -9 -9 -9t-9 9zM140 69v41q0 9 9 9t9 -9v-41q0 -9 -9 -9t-9 9zM140 129v41 q0 9 9 9t9 -9v-41q0 -9 -9 -9t-9 9zM140 -111v41q0 9 9 9t9 -9v-41q0 -9 -9 -9t-9 9zM140 -51v41q0 9 9 9t9 -9v-41q0 -9 -9 -9t-9 9z" />
<glyph unicode="}" horiz-adv-x="300" d="M98 590v-41q0 -9 -9 -9t-9 9v41q0 9 9 9t9 -9zM158 410v-41q0 -9 -9 -9t-9 9v41q0 9 9 9t9 -9zM158 470v-41q0 -9 -9 -9t-9 9v41q0 9 9 9t9 -9zM158 530v-41q0 -9 -9 -9t-9 9v41q0 9 9 9t9 -9zM158 230v-41q0 -9 -9 -9t-9 9v41q0 9 9 9t9 -9zM158 350v-41q0 -9 -9 -9 t-9 9v41q0 9 9 9t9 -9zM158 50v-41q0 -9 -9 -9t-9 9v41q0 9 9 9t9 -9zM158 110v-41q0 -9 -9 -9t-9 9v41q0 9 9 9t9 -9zM158 170v-41q0 -9 -9 -9t-9 9v41q0 9 9 9t9 -9zM98 -10v-41q0 -9 -9 -9t-9 9v41q0 9 9 9t9 -9zM218 290v-41q0 -9 -9 -9t-9 9v41q0 9 9 9t9 -9z" />
<glyph unicode="~" d="M80 309v41q0 9 9 9t9 -9v-41q0 -9 -9 -9t-9 9zM140 369v41q0 9 9 9t9 -9v-41q0 -9 -9 -9t-9 9zM200 369v41q0 9 9 9t9 -9v-41q0 -9 -9 -9t-9 9zM260 309v41q0 9 9 9t9 -9v-41q0 -9 -9 -9t-9 9zM320 309v41q0 9 9 9t9 -9v-41q0 -9 -9 -9t-9 9zM380 369v41q0 9 9 9t9 -9 v-41q0 -9 -9 -9t-9 9z" />
<glyph unicode="&#xa1;" horiz-adv-x="360" d="M218 530v-41q0 -9 -9 -9t-9 9v41q0 9 9 9t9 -9zM158 410v-41q0 -9 -9 -9t-9 9v41q0 9 9 9t9 -9zM158 350v-41q0 -9 -9 -9t-9 9v41q0 9 9 9t9 -9zM158 290v-41q0 -9 -9 -9t-9 9v41q0 9 9 9t9 -9zM158 230v-41q0 -9 -9 -9t-9 9v41q0 9 9 9t9 -9zM158 170v-41q0 -9 -9 -9 t-9 9v41q0 9 9 9t9 -9zM158 110v-41q0 -9 -9 -9t-9 9v41q0 9 9 9t9 -9zM158 50v-41q0 -9 -9 -9t-9 9v41q0 9 9 9t9 -9zM218 410v-41q0 -9 -9 -9t-9 9v41q0 9 9 9t9 -9zM218 350v-41q0 -9 -9 -9t-9 9v41q0 9 9 9t9 -9zM218 290v-41q0 -9 -9 -9t-9 9v41q0 9 9 9t9 -9zM218 230 v-41q0 -9 -9 -9t-9 9v41q0 9 9 9t9 -9zM218 170v-41q0 -9 -9 -9t-9 9v41q0 9 9 9t9 -9zM218 110v-41q0 -9 -9 -9t-9 9v41q0 9 9 9t9 -9zM218 50v-41q0 -9 -9 -9t-9 9v41q0 9 9 9t9 -9zM158 530v-41q0 -9 -9 -9t-9 9v41q0 9 9 9t9 -9z" />
<glyph unicode="&#xa2;" horiz-adv-x="420" d="M80 249v41q0 9 9 9t9 -9v-41q0 -9 -9 -9t-9 9zM80 309v41q0 9 9 9t9 -9v-41q0 -9 -9 -9t-9 9zM80 369v41q0 9 9 9t9 -9v-41q0 -9 -9 -9t-9 9zM80 429v41q0 9 9 9t9 -9v-41q0 -9 -9 -9t-9 9zM200 489v41q0 9 9 9t9 -9v-41q0 -9 -9 -9t-9 9zM260 489v41q0 9 9 9t9 -9v-41 q0 -9 -9 -9t-9 9zM320 249v41q0 9 9 9t9 -9v-41q0 -9 -9 -9t-9 9zM320 429v41q0 9 9 9t9 -9v-41q0 -9 -9 -9t-9 9zM260 189v41q0 9 9 9t9 -9v-41q0 -9 -9 -9t-9 9zM200 189v41q0 9 9 9t9 -9v-41q0 -9 -9 -9t-9 9zM200 549v41q0 9 9 9t9 -9v-41q0 -9 -9 -9t-9 9zM140 489v41 q0 9 9 9t9 -9v-41q0 -9 -9 -9t-9 9zM140 189v41q0 9 9 9t9 -9v-41q0 -9 -9 -9t-9 9zM200 129v41q0 9 9 9t9 -9v-41q0 -9 -9 -9t-9 9zM200 249v41q0 9 9 9t9 -9v-41q0 -9 -9 -9t-9 9zM200 309v41q0 9 9 9t9 -9v-41q0 -9 -9 -9t-9 9zM200 369v41q0 9 9 9t9 -9v-41q0 -9 -9 -9 t-9 9zM200 429v41q0 9 9 9t9 -9v-41q0 -9 -9 -9t-9 9z" />
<glyph unicode="&#xa3;" d="M398 50v-41q0 -9 -9 -9t-9 9v41q0 9 9 9t9 -9zM218 530v-41q0 -9 -9 -9t-9 9v41q0 9 9 9t9 -9zM158 470v-41q0 -9 -9 -9t-9 9v41q0 9 9 9t9 -9zM158 410v-41q0 -9 -9 -9t-9 9v41q0 9 9 9t9 -9zM158 350v-41q0 -9 -9 -9t-9 9v41q0 9 9 9t9 -9zM158 290v-41q0 -9 -9 -9 t-9 9v41q0 9 9 9t9 -9zM158 230v-41q0 -9 -9 -9t-9 9v41q0 9 9 9t9 -9zM158 170v-41q0 -9 -9 -9t-9 9v41q0 9 9 9t9 -9zM158 110v-41q0 -9 -9 -9t-9 9v41q0 9 9 9t9 -9zM158 50v-41q0 -9 -9 -9t-9 9v41q0 9 9 9t9 -9zM218 470v-41q0 -9 -9 -9t-9 9v41q0 9 9 9t9 -9zM218 410 v-41q0 -9 -9 -9t-9 9v41q0 9 9 9t9 -9zM218 350v-41q0 -9 -9 -9t-9 9v41q0 9 9 9t9 -9zM218 290v-41q0 -9 -9 -9t-9 9v41q0 9 9 9t9 -9zM218 230v-41q0 -9 -9 -9t-9 9v41q0 9 9 9t9 -9zM218 170v-41q0 -9 -9 -9t-9 9v41q0 9 9 9t9 -9zM218 110v-41q0 -9 -9 -9t-9 9v41 q0 9 9 9t9 -9zM218 50v-41q0 -9 -9 -9t-9 9v41q0 9 9 9t9 -9zM278 530v-41q0 -9 -9 -9t-9 9v41q0 9 9 9t9 -9zM338 50v-41q0 -9 -9 -9t-9 9v41q0 9 9 9t9 -9zM278 50v-41q0 -9 -9 -9t-9 9v41q0 9 9 9t9 -9zM98 290v-41q0 -9 -9 -9t-9 9v41q0 9 9 9t9 -9zM98 50v-41 q0 -9 -9 -9t-9 9v41q0 9 9 9t9 -9zM278 290v-41q0 -9 -9 -9t-9 9v41q0 9 9 9t9 -9zM458 110v-41q0 -9 -9 -9t-9 9v41q0 9 9 9t9 -9zM338 530v-41q0 -9 -9 -9t-9 9v41q0 9 9 9t9 -9zM398 470v-41q0 -9 -9 -9t-9 9v41q0 9 9 9t9 -9z" />
<glyph unicode="&#xa5;" d="M140 429v41q0 9 9 9t9 -9v-41q0 -9 -9 -9t-9 9zM80 489v41q0 9 9 9t9 -9v-41q0 -9 -9 -9t-9 9zM260 309v41q0 9 9 9t9 -9v-41q0 -9 -9 -9t-9 9zM260 369v41q0 9 9 9t9 -9v-41q0 -9 -9 -9t-9 9zM380 489v41q0 9 9 9t9 -9v-41q0 -9 -9 -9t-9 9zM200 309v41q0 9 9 9t9 -9 v-41q0 -9 -9 -9t-9 9zM200 369v41q0 9 9 9t9 -9v-41q0 -9 -9 -9t-9 9zM320 429v41q0 9 9 9t9 -9v-41q0 -9 -9 -9t-9 9zM260 249v41q0 9 9 9t9 -9v-41q0 -9 -9 -9t-9 9zM200 249v41q0 9 9 9t9 -9v-41q0 -9 -9 -9t-9 9zM260 189v41q0 9 9 9t9 -9v-41q0 -9 -9 -9t-9 9zM200 189 v41q0 9 9 9t9 -9v-41q0 -9 -9 -9t-9 9zM260 129v41q0 9 9 9t9 -9v-41q0 -9 -9 -9t-9 9zM200 129v41q0 9 9 9t9 -9v-41q0 -9 -9 -9t-9 9zM260 69v41q0 9 9 9t9 -9v-41q0 -9 -9 -9t-9 9zM200 69v41q0 9 9 9t9 -9v-41q0 -9 -9 -9t-9 9zM260 9v41q0 9 9 9t9 -9v-41q0 -9 -9 -9 t-9 9zM200 9v41q0 9 9 9t9 -9v-41q0 -9 -9 -9t-9 9zM140 309v41q0 9 9 9t9 -9v-41q0 -9 -9 -9t-9 9zM80 309v41q0 9 9 9t9 -9v-41q0 -9 -9 -9t-9 9zM380 309v41q0 9 9 9t9 -9v-41q0 -9 -9 -9t-9 9zM320 309v41q0 9 9 9t9 -9v-41q0 -9 -9 -9t-9 9zM140 189v41q0 9 9 9t9 -9 v-41q0 -9 -9 -9t-9 9zM80 189v41q0 9 9 9t9 -9v-41q0 -9 -9 -9t-9 9zM380 189v41q0 9 9 9t9 -9v-41q0 -9 -9 -9t-9 9zM320 189v41q0 9 9 9t9 -9v-41q0 -9 -9 -9t-9 9z" />
<glyph unicode="&#xa6;" horiz-adv-x="500" />
<glyph unicode="&#xa7;" horiz-adv-x="420" d="M200 309v41q0 9 9 9t9 -9v-41q0 -9 -9 -9t-9 9zM320 129v41q0 9 9 9t9 -9v-41q0 -9 -9 -9t-9 9zM320 189v41q0 9 9 9t9 -9v-41q0 -9 -9 -9t-9 9zM320 249v41q0 9 9 9t9 -9v-41q0 -9 -9 -9t-9 9zM320 489v41q0 9 9 9t9 -9v-41q0 -9 -9 -9t-9 9zM260 249v41q0 9 9 9t9 -9 v-41q0 -9 -9 -9t-9 9zM260 309v41q0 9 9 9t9 -9v-41q0 -9 -9 -9t-9 9zM260 549v41q0 9 9 9t9 -9v-41q0 -9 -9 -9t-9 9zM200 369v41q0 9 9 9t9 -9v-41q0 -9 -9 -9t-9 9zM200 549v41q0 9 9 9t9 -9v-41q0 -9 -9 -9t-9 9zM140 369v41q0 9 9 9t9 -9v-41q0 -9 -9 -9t-9 9zM140 429 v41q0 9 9 9t9 -9v-41q0 -9 -9 -9t-9 9zM140 489v41q0 9 9 9t9 -9v-41q0 -9 -9 -9t-9 9zM140 549v41q0 9 9 9t9 -9v-41q0 -9 -9 -9t-9 9zM80 429v41q0 9 9 9t9 -9v-41q0 -9 -9 -9t-9 9zM80 489v41q0 9 9 9t9 -9v-41q0 -9 -9 -9t-9 9zM218 170v-41q0 -9 -9 -9t-9 9v41q0 9 9 9 t9 -9zM98 350v-41q0 -9 -9 -9t-9 9v41q0 9 9 9t9 -9zM98 290v-41q0 -9 -9 -9t-9 9v41q0 9 9 9t9 -9zM98 230v-41q0 -9 -9 -9t-9 9v41q0 9 9 9t9 -9zM98 -10v-41q0 -9 -9 -9t-9 9v41q0 9 9 9t9 -9zM158 230v-41q0 -9 -9 -9t-9 9v41q0 9 9 9t9 -9zM158 170v-41q0 -9 -9 -9 t-9 9v41q0 9 9 9t9 -9zM158 -70v-41q0 -9 -9 -9t-9 9v41q0 9 9 9t9 -9zM218 110v-41q0 -9 -9 -9t-9 9v41q0 9 9 9t9 -9zM218 -70v-41q0 -9 -9 -9t-9 9v41q0 9 9 9t9 -9zM278 110v-41q0 -9 -9 -9t-9 9v41q0 9 9 9t9 -9zM278 50v-41q0 -9 -9 -9t-9 9v41q0 9 9 9t9 -9zM278 -10 v-41q0 -9 -9 -9t-9 9v41q0 9 9 9t9 -9zM278 -70v-41q0 -9 -9 -9t-9 9v41q0 9 9 9t9 -9zM338 50v-41q0 -9 -9 -9t-9 9v41q0 9 9 9t9 -9zM338 -10v-41q0 -9 -9 -9t-9 9v41q0 9 9 9t9 -9z" />
<glyph unicode="&#xa8;" d="M320 489v41q0 9 9 9t9 -9v-41q0 -9 -9 -9t-9 9zM140 489v41q0 9 9 9t9 -9v-41q0 -9 -9 -9t-9 9z" />
<glyph unicode="&#xa9;" horiz-adv-x="600" d="M140 69v41q0 9 9 9t9 -9v-41q0 -9 -9 -9t-9 9zM260 129v41q0 9 9 9t9 -9v-41q0 -9 -9 -9t-9 9zM200 189v41q0 9 9 9t9 -9v-41q0 -9 -9 -9t-9 9zM200 249v41q0 9 9 9t9 -9v-41q0 -9 -9 -9t-9 9zM200 309v41q0 9 9 9t9 -9v-41q0 -9 -9 -9t-9 9zM140 429v41q0 9 9 9t9 -9 v-41q0 -9 -9 -9t-9 9zM80 129v41q0 9 9 9t9 -9v-41q0 -9 -9 -9t-9 9zM80 189v41q0 9 9 9t9 -9v-41q0 -9 -9 -9t-9 9zM80 249v41q0 9 9 9t9 -9v-41q0 -9 -9 -9t-9 9zM80 309v41q0 9 9 9t9 -9v-41q0 -9 -9 -9t-9 9zM80 369v41q0 9 9 9t9 -9v-41q0 -9 -9 -9t-9 9zM200 489v41 q0 9 9 9t9 -9v-41q0 -9 -9 -9t-9 9zM500 129v41q0 9 9 9t9 -9v-41q0 -9 -9 -9t-9 9zM500 189v41q0 9 9 9t9 -9v-41q0 -9 -9 -9t-9 9zM500 249v41q0 9 9 9t9 -9v-41q0 -9 -9 -9t-9 9zM500 309v41q0 9 9 9t9 -9v-41q0 -9 -9 -9t-9 9zM500 369v41q0 9 9 9t9 -9v-41q0 -9 -9 -9 t-9 9zM260 489v41q0 9 9 9t9 -9v-41q0 -9 -9 -9t-9 9zM440 69v41q0 9 9 9t9 -9v-41q0 -9 -9 -9t-9 9zM440 429v41q0 9 9 9t9 -9v-41q0 -9 -9 -9t-9 9zM260 9v41q0 9 9 9t9 -9v-41q0 -9 -9 -9t-9 9zM200 9v41q0 9 9 9t9 -9v-41q0 -9 -9 -9t-9 9zM320 489v41q0 9 9 9t9 -9v-41 q0 -9 -9 -9t-9 9zM320 9v41q0 9 9 9t9 -9v-41q0 -9 -9 -9t-9 9zM380 489v41q0 9 9 9t9 -9v-41q0 -9 -9 -9t-9 9zM380 9v41q0 9 9 9t9 -9v-41q0 -9 -9 -9t-9 9zM320 129v41q0 9 9 9t9 -9v-41q0 -9 -9 -9t-9 9zM380 189v41q0 9 9 9t9 -9v-41q0 -9 -9 -9t-9 9zM380 309v41 q0 9 9 9t9 -9v-41q0 -9 -9 -9t-9 9zM320 369v41q0 9 9 9t9 -9v-41q0 -9 -9 -9t-9 9zM260 369v41q0 9 9 9t9 -9v-41q0 -9 -9 -9t-9 9z" />
<glyph unicode="&#xaa;" horiz-adv-x="360" d="M140 249v41q0 9 9 9t9 -9v-41q0 -9 -9 -9t-9 9zM80 309v41q0 9 9 9t9 -9v-41q0 -9 -9 -9t-9 9zM140 369v41q0 9 9 9t9 -9v-41q0 -9 -9 -9t-9 9zM200 249v41q0 9 9 9t9 -9v-41q0 -9 -9 -9t-9 9zM260 309v41q0 9 9 9t9 -9v-41q0 -9 -9 -9t-9 9zM260 429v41q0 9 9 9t9 -9 v-41q0 -9 -9 -9t-9 9zM200 489v41q0 9 9 9t9 -9v-41q0 -9 -9 -9t-9 9zM140 489v41q0 9 9 9t9 -9v-41q0 -9 -9 -9t-9 9zM260 369v41q0 9 9 9t9 -9v-41q0 -9 -9 -9t-9 9zM200 369v41q0 9 9 9t9 -9v-41q0 -9 -9 -9t-9 9zM260 249v41q0 9 9 9t9 -9v-41q0 -9 -9 -9t-9 9z" />
<glyph unicode="&#xab;" d="M98 170v-41q0 -9 -9 -9t-9 9v41q0 9 9 9t9 -9zM158 110v-41q0 -9 -9 -9t-9 9v41q0 9 9 9t9 -9zM218 50v-41q0 -9 -9 -9t-9 9v41q0 9 9 9t9 -9zM38 230v-41q0 -9 -9 -9t-9 9v41q0 9 9 9t9 -9zM98 290v-41q0 -9 -9 -9t-9 9v41q0 9 9 9t9 -9zM158 350v-41q0 -9 -9 -9t-9 9 v41q0 9 9 9t9 -9zM218 410v-41q0 -9 -9 -9t-9 9v41q0 9 9 9t9 -9zM278 170v-41q0 -9 -9 -9t-9 9v41q0 9 9 9t9 -9zM338 110v-41q0 -9 -9 -9t-9 9v41q0 9 9 9t9 -9zM398 50v-41q0 -9 -9 -9t-9 9v41q0 9 9 9t9 -9zM218 230v-41q0 -9 -9 -9t-9 9v41q0 9 9 9t9 -9zM278 290v-41 q0 -9 -9 -9t-9 9v41q0 9 9 9t9 -9zM338 350v-41q0 -9 -9 -9t-9 9v41q0 9 9 9t9 -9zM398 410v-41q0 -9 -9 -9t-9 9v41q0 9 9 9t9 -9z" />
<glyph unicode="&#xac;" horiz-adv-x="500" />
<glyph unicode="&#xad;" horiz-adv-x="420" d="M158 290v-41q0 -9 -9 -9t-9 9v41q0 9 9 9t9 -9zM98 290v-41q0 -9 -9 -9t-9 9v41q0 9 9 9t9 -9zM278 290v-41q0 -9 -9 -9t-9 9v41q0 9 9 9t9 -9zM218 290v-41q0 -9 -9 -9t-9 9v41q0 9 9 9t9 -9zM338 290v-41q0 -9 -9 -9t-9 9v41q0 9 9 9t9 -9z" />
<glyph unicode="&#xae;" horiz-adv-x="600" d="M140 69v41q0 9 9 9t9 -9v-41q0 -9 -9 -9t-9 9zM200 129v41q0 9 9 9t9 -9v-41q0 -9 -9 -9t-9 9zM200 189v41q0 9 9 9t9 -9v-41q0 -9 -9 -9t-9 9zM200 249v41q0 9 9 9t9 -9v-41q0 -9 -9 -9t-9 9zM200 309v41q0 9 9 9t9 -9v-41q0 -9 -9 -9t-9 9zM200 369v41q0 9 9 9t9 -9 v-41q0 -9 -9 -9t-9 9zM140 429v41q0 9 9 9t9 -9v-41q0 -9 -9 -9t-9 9zM80 129v41q0 9 9 9t9 -9v-41q0 -9 -9 -9t-9 9zM80 189v41q0 9 9 9t9 -9v-41q0 -9 -9 -9t-9 9zM80 249v41q0 9 9 9t9 -9v-41q0 -9 -9 -9t-9 9zM80 309v41q0 9 9 9t9 -9v-41q0 -9 -9 -9t-9 9zM80 369v41 q0 9 9 9t9 -9v-41q0 -9 -9 -9t-9 9zM200 489v41q0 9 9 9t9 -9v-41q0 -9 -9 -9t-9 9zM500 129v41q0 9 9 9t9 -9v-41q0 -9 -9 -9t-9 9zM500 189v41q0 9 9 9t9 -9v-41q0 -9 -9 -9t-9 9zM500 249v41q0 9 9 9t9 -9v-41q0 -9 -9 -9t-9 9zM500 309v41q0 9 9 9t9 -9v-41q0 -9 -9 -9 t-9 9zM500 369v41q0 9 9 9t9 -9v-41q0 -9 -9 -9t-9 9zM260 489v41q0 9 9 9t9 -9v-41q0 -9 -9 -9t-9 9zM440 69v41q0 9 9 9t9 -9v-41q0 -9 -9 -9t-9 9zM440 429v41q0 9 9 9t9 -9v-41q0 -9 -9 -9t-9 9zM260 9v41q0 9 9 9t9 -9v-41q0 -9 -9 -9t-9 9zM200 9v41q0 9 9 9t9 -9v-41 q0 -9 -9 -9t-9 9zM320 489v41q0 9 9 9t9 -9v-41q0 -9 -9 -9t-9 9zM320 9v41q0 9 9 9t9 -9v-41q0 -9 -9 -9t-9 9zM380 489v41q0 9 9 9t9 -9v-41q0 -9 -9 -9t-9 9zM380 9v41q0 9 9 9t9 -9v-41q0 -9 -9 -9t-9 9zM380 129v41q0 9 9 9t9 -9v-41q0 -9 -9 -9t-9 9zM380 189v41 q0 9 9 9t9 -9v-41q0 -9 -9 -9t-9 9zM320 249v41q0 9 9 9t9 -9v-41q0 -9 -9 -9t-9 9zM380 309v41q0 9 9 9t9 -9v-41q0 -9 -9 -9t-9 9zM320 369v41q0 9 9 9t9 -9v-41q0 -9 -9 -9t-9 9zM260 249v41q0 9 9 9t9 -9v-41q0 -9 -9 -9t-9 9zM260 369v41q0 9 9 9t9 -9v-41q0 -9 -9 -9 t-9 9z" />
<glyph unicode="&#xaf;" horiz-adv-x="500" />
<glyph unicode="&#xb0;" horiz-adv-x="360" d="M140 309v41q0 9 9 9t9 -9v-41q0 -9 -9 -9t-9 9zM200 309v41q0 9 9 9t9 -9v-41q0 -9 -9 -9t-9 9zM140 489v41q0 9 9 9t9 -9v-41q0 -9 -9 -9t-9 9zM200 489v41q0 9 9 9t9 -9v-41q0 -9 -9 -9t-9 9zM260 429v41q0 9 9 9t9 -9v-41q0 -9 -9 -9t-9 9zM260 369v41q0 9 9 9t9 -9 v-41q0 -9 -9 -9t-9 9zM80 429v41q0 9 9 9t9 -9v-41q0 -9 -9 -9t-9 9zM80 369v41q0 9 9 9t9 -9v-41q0 -9 -9 -9t-9 9z" />
<glyph unicode="&#xb1;" d="M158 290v-41q0 -9 -9 -9t-9 9v41q0 9 9 9t9 -9zM98 290v-41q0 -9 -9 -9t-9 9v41q0 9 9 9t9 -9zM278 290v-41q0 -9 -9 -9t-9 9v41q0 9 9 9t9 -9zM218 290v-41q0 -9 -9 -9t-9 9v41q0 9 9 9t9 -9zM338 290v-41q0 -9 -9 -9t-9 9v41q0 9 9 9t9 -9zM398 290v-41q0 -9 -9 -9 t-9 9v41q0 9 9 9t9 -9zM458 290v-41q0 -9 -9 -9t-9 9v41q0 9 9 9t9 -9zM278 350v-41q0 -9 -9 -9t-9 9v41q0 9 9 9t9 -9zM278 410v-41q0 -9 -9 -9t-9 9v41q0 9 9 9t9 -9zM278 230v-41q0 -9 -9 -9t-9 9v41q0 9 9 9t9 -9zM278 170v-41q0 -9 -9 -9t-9 9v41q0 9 9 9t9 -9zM158 50 v-41q0 -9 -9 -9t-9 9v41q0 9 9 9t9 -9zM98 50v-41q0 -9 -9 -9t-9 9v41q0 9 9 9t9 -9zM218 50v-41q0 -9 -9 -9t-9 9v41q0 9 9 9t9 -9zM338 50v-41q0 -9 -9 -9t-9 9v41q0 9 9 9t9 -9zM278 50v-41q0 -9 -9 -9t-9 9v41q0 9 9 9t9 -9zM398 50v-41q0 -9 -9 -9t-9 9v41q0 9 9 9 t9 -9zM458 50v-41q0 -9 -9 -9t-9 9v41q0 9 9 9t9 -9z" />
<glyph unicode="&#xb2;" horiz-adv-x="500" />
<glyph unicode="&#xb3;" horiz-adv-x="500" />
<glyph unicode="&#xb4;" horiz-adv-x="300" d="M200 549v41q0 9 9 9t9 -9v-41q0 -9 -9 -9t-9 9zM140 489v41q0 9 9 9t9 -9v-41q0 -9 -9 -9t-9 9z" />
<glyph unicode="&#xb5;" d="M338 410v-41q0 -9 -9 -9t-9 9v41q0 9 9 9t9 -9zM338 350v-41q0 -9 -9 -9t-9 9v41q0 9 9 9t9 -9zM338 290v-41q0 -9 -9 -9t-9 9v41q0 9 9 9t9 -9zM338 230v-41q0 -9 -9 -9t-9 9v41q0 9 9 9t9 -9zM338 170v-41q0 -9 -9 -9t-9 9v41q0 9 9 9t9 -9zM338 110v-41q0 -9 -9 -9 t-9 9v41q0 9 9 9t9 -9zM338 50v-41q0 -9 -9 -9t-9 9v41q0 9 9 9t9 -9zM398 350v-41q0 -9 -9 -9t-9 9v41q0 9 9 9t9 -9zM398 290v-41q0 -9 -9 -9t-9 9v41q0 9 9 9t9 -9zM398 230v-41q0 -9 -9 -9t-9 9v41q0 9 9 9t9 -9zM398 170v-41q0 -9 -9 -9t-9 9v41q0 9 9 9t9 -9zM398 110 v-41q0 -9 -9 -9t-9 9v41q0 9 9 9t9 -9zM278 50v-41q0 -9 -9 -9t-9 9v41q0 9 9 9t9 -9zM158 410v-41q0 -9 -9 -9t-9 9v41q0 9 9 9t9 -9zM98 350v-41q0 -9 -9 -9t-9 9v41q0 9 9 9t9 -9zM98 290v-41q0 -9 -9 -9t-9 9v41q0 9 9 9t9 -9zM98 230v-41q0 -9 -9 -9t-9 9v41q0 9 9 9 t9 -9zM98 170v-41q0 -9 -9 -9t-9 9v41q0 9 9 9t9 -9zM98 110v-41q0 -9 -9 -9t-9 9v41q0 9 9 9t9 -9zM218 50v-41q0 -9 -9 -9t-9 9v41q0 9 9 9t9 -9zM158 350v-41q0 -9 -9 -9t-9 9v41q0 9 9 9t9 -9zM158 290v-41q0 -9 -9 -9t-9 9v41q0 9 9 9t9 -9zM158 230v-41q0 -9 -9 -9 t-9 9v41q0 9 9 9t9 -9zM158 170v-41q0 -9 -9 -9t-9 9v41q0 9 9 9t9 -9zM158 110v-41q0 -9 -9 -9t-9 9v41q0 9 9 9t9 -9zM158 50v-41q0 -9 -9 -9t-9 9v41q0 9 9 9t9 -9zM98 410v-41q0 -9 -9 -9t-9 9v41q0 9 9 9t9 -9zM398 410v-41q0 -9 -9 -9t-9 9v41q0 9 9 9t9 -9zM398 50 v-41q0 -9 -9 -9t-9 9v41q0 9 9 9t9 -9zM98 50v-41q0 -9 -9 -9t-9 9v41q0 9 9 9t9 -9zM98 -10v-41q0 -9 -9 -9t-9 9v41q0 9 9 9t9 -9zM98 -70v-41q0 -9 -9 -9t-9 9v41q0 9 9 9t9 -9zM158 -70v-41q0 -9 -9 -9t-9 9v41q0 9 9 9t9 -9zM158 -10v-41q0 -9 -9 -9t-9 9v41q0 9 9 9 t9 -9z" />
<glyph unicode="&#x3bc;" d="M338 410v-41q0 -9 -9 -9t-9 9v41q0 9 9 9t9 -9zM338 350v-41q0 -9 -9 -9t-9 9v41q0 9 9 9t9 -9zM338 290v-41q0 -9 -9 -9t-9 9v41q0 9 9 9t9 -9zM338 230v-41q0 -9 -9 -9t-9 9v41q0 9 9 9t9 -9zM338 170v-41q0 -9 -9 -9t-9 9v41q0 9 9 9t9 -9zM338 110v-41q0 -9 -9 -9 t-9 9v41q0 9 9 9t9 -9zM338 50v-41q0 -9 -9 -9t-9 9v41q0 9 9 9t9 -9zM398 350v-41q0 -9 -9 -9t-9 9v41q0 9 9 9t9 -9zM398 290v-41q0 -9 -9 -9t-9 9v41q0 9 9 9t9 -9zM398 230v-41q0 -9 -9 -9t-9 9v41q0 9 9 9t9 -9zM398 170v-41q0 -9 -9 -9t-9 9v41q0 9 9 9t9 -9zM398 110 v-41q0 -9 -9 -9t-9 9v41q0 9 9 9t9 -9zM278 50v-41q0 -9 -9 -9t-9 9v41q0 9 9 9t9 -9zM158 410v-41q0 -9 -9 -9t-9 9v41q0 9 9 9t9 -9zM98 350v-41q0 -9 -9 -9t-9 9v41q0 9 9 9t9 -9zM98 290v-41q0 -9 -9 -9t-9 9v41q0 9 9 9t9 -9zM98 230v-41q0 -9 -9 -9t-9 9v41q0 9 9 9 t9 -9zM98 170v-41q0 -9 -9 -9t-9 9v41q0 9 9 9t9 -9zM98 110v-41q0 -9 -9 -9t-9 9v41q0 9 9 9t9 -9zM218 50v-41q0 -9 -9 -9t-9 9v41q0 9 9 9t9 -9zM158 350v-41q0 -9 -9 -9t-9 9v41q0 9 9 9t9 -9zM158 290v-41q0 -9 -9 -9t-9 9v41q0 9 9 9t9 -9zM158 230v-41q0 -9 -9 -9 t-9 9v41q0 9 9 9t9 -9zM158 170v-41q0 -9 -9 -9t-9 9v41q0 9 9 9t9 -9zM158 110v-41q0 -9 -9 -9t-9 9v41q0 9 9 9t9 -9zM158 50v-41q0 -9 -9 -9t-9 9v41q0 9 9 9t9 -9zM98 410v-41q0 -9 -9 -9t-9 9v41q0 9 9 9t9 -9zM398 410v-41q0 -9 -9 -9t-9 9v41q0 9 9 9t9 -9zM398 50 v-41q0 -9 -9 -9t-9 9v41q0 9 9 9t9 -9zM98 50v-41q0 -9 -9 -9t-9 9v41q0 9 9 9t9 -9zM98 -10v-41q0 -9 -9 -9t-9 9v41q0 9 9 9t9 -9zM98 -70v-41q0 -9 -9 -9t-9 9v41q0 9 9 9t9 -9zM158 -70v-41q0 -9 -9 -9t-9 9v41q0 9 9 9t9 -9zM158 -10v-41q0 -9 -9 -9t-9 9v41q0 9 9 9 t9 -9z" />
<glyph unicode="&#xb6;" horiz-adv-x="540" d="M140 489v41q0 9 9 9t9 -9v-41q0 -9 -9 -9t-9 9zM140 429v41q0 9 9 9t9 -9v-41q0 -9 -9 -9t-9 9zM140 369v41q0 9 9 9t9 -9v-41q0 -9 -9 -9t-9 9zM140 309v41q0 9 9 9t9 -9v-41q0 -9 -9 -9t-9 9zM140 249v41q0 9 9 9t9 -9v-41q0 -9 -9 -9t-9 9zM80 429v41q0 9 9 9t9 -9 v-41q0 -9 -9 -9t-9 9zM80 369v41q0 9 9 9t9 -9v-41q0 -9 -9 -9t-9 9zM80 309v41q0 9 9 9t9 -9v-41q0 -9 -9 -9t-9 9zM440 489v41q0 9 9 9t9 -9v-41q0 -9 -9 -9t-9 9zM320 489v41q0 9 9 9t9 -9v-41q0 -9 -9 -9t-9 9zM440 429v41q0 9 9 9t9 -9v-41q0 -9 -9 -9t-9 9zM440 369 v41q0 9 9 9t9 -9v-41q0 -9 -9 -9t-9 9zM440 309v41q0 9 9 9t9 -9v-41q0 -9 -9 -9t-9 9zM440 249v41q0 9 9 9t9 -9v-41q0 -9 -9 -9t-9 9zM440 189v41q0 9 9 9t9 -9v-41q0 -9 -9 -9t-9 9zM440 129v41q0 9 9 9t9 -9v-41q0 -9 -9 -9t-9 9zM440 69v41q0 9 9 9t9 -9v-41 q0 -9 -9 -9t-9 9zM440 9v41q0 9 9 9t9 -9v-41q0 -9 -9 -9t-9 9zM320 429v41q0 9 9 9t9 -9v-41q0 -9 -9 -9t-9 9zM320 369v41q0 9 9 9t9 -9v-41q0 -9 -9 -9t-9 9zM320 309v41q0 9 9 9t9 -9v-41q0 -9 -9 -9t-9 9zM320 249v41q0 9 9 9t9 -9v-41q0 -9 -9 -9t-9 9zM320 189v41 q0 9 9 9t9 -9v-41q0 -9 -9 -9t-9 9zM320 129v41q0 9 9 9t9 -9v-41q0 -9 -9 -9t-9 9zM320 69v41q0 9 9 9t9 -9v-41q0 -9 -9 -9t-9 9zM320 9v41q0 9 9 9t9 -9v-41q0 -9 -9 -9t-9 9zM260 489v41q0 9 9 9t9 -9v-41q0 -9 -9 -9t-9 9zM200 489v41q0 9 9 9t9 -9v-41q0 -9 -9 -9 t-9 9zM200 249v41q0 9 9 9t9 -9v-41q0 -9 -9 -9t-9 9zM260 249v41q0 9 9 9t9 -9v-41q0 -9 -9 -9t-9 9zM380 489v41q0 9 9 9t9 -9v-41q0 -9 -9 -9t-9 9z" />
<glyph unicode="&#xb7;" horiz-adv-x="240" d="M98 310v-41q0 -9 -9 -9t-9 9v41q0 9 9 9t9 -9zM158 310v-41q0 -9 -9 -9t-9 9v41q0 9 9 9t9 -9zM98 250v-41q0 -9 -9 -9t-9 9v41q0 9 9 9t9 -9zM158 250v-41q0 -9 -9 -9t-9 9v41q0 9 9 9t9 -9z" />
<glyph unicode="&#xb8;" d="M200 -51v41q0 9 9 9t9 -9v-41q0 -9 -9 -9t-9 9zM260 -51v41q0 9 9 9t9 -9v-41q0 -9 -9 -9t-9 9zM200 -171v41q0 9 9 9t9 -9v-41q0 -9 -9 -9t-9 9zM260 -111v41q0 9 9 9t9 -9v-41q0 -9 -9 -9t-9 9z" />
<glyph unicode="&#xb9;" horiz-adv-x="500" />
<glyph unicode="&#xba;" horiz-adv-x="360" d="M140 249v41q0 9 9 9t9 -9v-41q0 -9 -9 -9t-9 9zM80 309v41q0 9 9 9t9 -9v-41q0 -9 -9 -9t-9 9zM80 369v41q0 9 9 9t9 -9v-41q0 -9 -9 -9t-9 9zM80 429v41q0 9 9 9t9 -9v-41q0 -9 -9 -9t-9 9zM200 249v41q0 9 9 9t9 -9v-41q0 -9 -9 -9t-9 9zM260 309v41q0 9 9 9t9 -9v-41 q0 -9 -9 -9t-9 9zM260 429v41q0 9 9 9t9 -9v-41q0 -9 -9 -9t-9 9zM200 489v41q0 9 9 9t9 -9v-41q0 -9 -9 -9t-9 9zM140 489v41q0 9 9 9t9 -9v-41q0 -9 -9 -9t-9 9zM260 369v41q0 9 9 9t9 -9v-41q0 -9 -9 -9t-9 9z" />
<glyph unicode="&#xbb;" d="M380 129v41q0 9 9 9t9 -9v-41q0 -9 -9 -9t-9 9zM320 69v41q0 9 9 9t9 -9v-41q0 -9 -9 -9t-9 9zM260 9v41q0 9 9 9t9 -9v-41q0 -9 -9 -9t-9 9zM440 189v41q0 9 9 9t9 -9v-41q0 -9 -9 -9t-9 9zM380 249v41q0 9 9 9t9 -9v-41q0 -9 -9 -9t-9 9zM320 309v41q0 9 9 9t9 -9v-41 q0 -9 -9 -9t-9 9zM260 369v41q0 9 9 9t9 -9v-41q0 -9 -9 -9t-9 9zM200 129v41q0 9 9 9t9 -9v-41q0 -9 -9 -9t-9 9zM140 69v41q0 9 9 9t9 -9v-41q0 -9 -9 -9t-9 9zM80 9v41q0 9 9 9t9 -9v-41q0 -9 -9 -9t-9 9zM260 189v41q0 9 9 9t9 -9v-41q0 -9 -9 -9t-9 9zM200 249v41 q0 9 9 9t9 -9v-41q0 -9 -9 -9t-9 9zM140 309v41q0 9 9 9t9 -9v-41q0 -9 -9 -9t-9 9zM80 369v41q0 9 9 9t9 -9v-41q0 -9 -9 -9t-9 9z" />
<glyph unicode="&#xbc;" horiz-adv-x="500" />
<glyph unicode="&#xbd;" horiz-adv-x="500" />
<glyph unicode="&#xbe;" horiz-adv-x="500" />
<glyph unicode="&#xbf;" d="M200 309v41q0 9 9 9t9 -9v-41q0 -9 -9 -9t-9 9zM260 249v41q0 9 9 9t9 -9v-41q0 -9 -9 -9t-9 9zM140 189v41q0 9 9 9t9 -9v-41q0 -9 -9 -9t-9 9zM140 129v41q0 9 9 9t9 -9v-41q0 -9 -9 -9t-9 9zM140 69v41q0 9 9 9t9 -9v-41q0 -9 -9 -9t-9 9zM140 9v41q0 9 9 9t9 -9v-41 q0 -9 -9 -9t-9 9zM260 309v41q0 9 9 9t9 -9v-41q0 -9 -9 -9t-9 9zM200 249v41q0 9 9 9t9 -9v-41q0 -9 -9 -9t-9 9zM200 189v41q0 9 9 9t9 -9v-41q0 -9 -9 -9t-9 9zM80 129v41q0 9 9 9t9 -9v-41q0 -9 -9 -9t-9 9zM80 69v41q0 9 9 9t9 -9v-41q0 -9 -9 -9t-9 9zM200 9v41 q0 9 9 9t9 -9v-41q0 -9 -9 -9t-9 9zM380 69v41q0 9 9 9t9 -9v-41q0 -9 -9 -9t-9 9zM260 9v41q0 9 9 9t9 -9v-41q0 -9 -9 -9t-9 9zM320 9v41q0 9 9 9t9 -9v-41q0 -9 -9 -9t-9 9zM260 489v41q0 9 9 9t9 -9v-41q0 -9 -9 -9t-9 9zM200 489v41q0 9 9 9t9 -9v-41q0 -9 -9 -9t-9 9z M260 429v41q0 9 9 9t9 -9v-41q0 -9 -9 -9t-9 9zM200 429v41q0 9 9 9t9 -9v-41q0 -9 -9 -9t-9 9z" />
<glyph unicode="&#xc0;" d="M338 530v-41q0 -9 -9 -9t-9 9v41q0 9 9 9t9 -9zM338 470v-41q0 -9 -9 -9t-9 9v41q0 9 9 9t9 -9zM338 410v-41q0 -9 -9 -9t-9 9v41q0 9 9 9t9 -9zM338 350v-41q0 -9 -9 -9t-9 9v41q0 9 9 9t9 -9zM338 290v-41q0 -9 -9 -9t-9 9v41q0 9 9 9t9 -9zM338 230v-41q0 -9 -9 -9 t-9 9v41q0 9 9 9t9 -9zM338 170v-41q0 -9 -9 -9t-9 9v41q0 9 9 9t9 -9zM338 110v-41q0 -9 -9 -9t-9 9v41q0 9 9 9t9 -9zM338 50v-41q0 -9 -9 -9t-9 9v41q0 9 9 9t9 -9zM398 470v-41q0 -9 -9 -9t-9 9v41q0 9 9 9t9 -9zM398 410v-41q0 -9 -9 -9t-9 9v41q0 9 9 9t9 -9zM398 350 v-41q0 -9 -9 -9t-9 9v41q0 9 9 9t9 -9zM398 290v-41q0 -9 -9 -9t-9 9v41q0 9 9 9t9 -9zM398 230v-41q0 -9 -9 -9t-9 9v41q0 9 9 9t9 -9zM398 170v-41q0 -9 -9 -9t-9 9v41q0 9 9 9t9 -9zM398 110v-41q0 -9 -9 -9t-9 9v41q0 9 9 9t9 -9zM398 50v-41q0 -9 -9 -9t-9 9v41 q0 9 9 9t9 -9zM158 530v-41q0 -9 -9 -9t-9 9v41q0 9 9 9t9 -9zM98 470v-41q0 -9 -9 -9t-9 9v41q0 9 9 9t9 -9zM98 410v-41q0 -9 -9 -9t-9 9v41q0 9 9 9t9 -9zM98 350v-41q0 -9 -9 -9t-9 9v41q0 9 9 9t9 -9zM98 290v-41q0 -9 -9 -9t-9 9v41q0 9 9 9t9 -9zM98 230v-41 q0 -9 -9 -9t-9 9v41q0 9 9 9t9 -9zM98 170v-41q0 -9 -9 -9t-9 9v41q0 9 9 9t9 -9zM98 110v-41q0 -9 -9 -9t-9 9v41q0 9 9 9t9 -9zM98 50v-41q0 -9 -9 -9t-9 9v41q0 9 9 9t9 -9zM158 470v-41q0 -9 -9 -9t-9 9v41q0 9 9 9t9 -9zM158 410v-41q0 -9 -9 -9t-9 9v41q0 9 9 9t9 -9z M158 350v-41q0 -9 -9 -9t-9 9v41q0 9 9 9t9 -9zM158 290v-41q0 -9 -9 -9t-9 9v41q0 9 9 9t9 -9zM158 230v-41q0 -9 -9 -9t-9 9v41q0 9 9 9t9 -9zM158 170v-41q0 -9 -9 -9t-9 9v41q0 9 9 9t9 -9zM158 110v-41q0 -9 -9 -9t-9 9v41q0 9 9 9t9 -9zM158 50v-41q0 -9 -9 -9t-9 9 v41q0 9 9 9t9 -9zM218 530v-41q0 -9 -9 -9t-9 9v41q0 9 9 9t9 -9zM278 530v-41q0 -9 -9 -9t-9 9v41q0 9 9 9t9 -9zM278 290v-41q0 -9 -9 -9t-9 9v41q0 9 9 9t9 -9zM218 290v-41q0 -9 -9 -9t-9 9v41q0 9 9 9t9 -9zM218 710v-41q0 -9 -9 -9t-9 9v41q0 9 9 9t9 -9zM278 650v-41 q0 -9 -9 -9t-9 9v41q0 9 9 9t9 -9z" />
<glyph unicode="&#xc1;" d="M338 530v-41q0 -9 -9 -9t-9 9v41q0 9 9 9t9 -9zM338 470v-41q0 -9 -9 -9t-9 9v41q0 9 9 9t9 -9zM338 410v-41q0 -9 -9 -9t-9 9v41q0 9 9 9t9 -9zM338 350v-41q0 -9 -9 -9t-9 9v41q0 9 9 9t9 -9zM338 290v-41q0 -9 -9 -9t-9 9v41q0 9 9 9t9 -9zM338 230v-41q0 -9 -9 -9 t-9 9v41q0 9 9 9t9 -9zM338 170v-41q0 -9 -9 -9t-9 9v41q0 9 9 9t9 -9zM338 110v-41q0 -9 -9 -9t-9 9v41q0 9 9 9t9 -9zM338 50v-41q0 -9 -9 -9t-9 9v41q0 9 9 9t9 -9zM398 470v-41q0 -9 -9 -9t-9 9v41q0 9 9 9t9 -9zM398 410v-41q0 -9 -9 -9t-9 9v41q0 9 9 9t9 -9zM398 350 v-41q0 -9 -9 -9t-9 9v41q0 9 9 9t9 -9zM398 290v-41q0 -9 -9 -9t-9 9v41q0 9 9 9t9 -9zM398 230v-41q0 -9 -9 -9t-9 9v41q0 9 9 9t9 -9zM398 170v-41q0 -9 -9 -9t-9 9v41q0 9 9 9t9 -9zM398 110v-41q0 -9 -9 -9t-9 9v41q0 9 9 9t9 -9zM398 50v-41q0 -9 -9 -9t-9 9v41 q0 9 9 9t9 -9zM158 530v-41q0 -9 -9 -9t-9 9v41q0 9 9 9t9 -9zM98 470v-41q0 -9 -9 -9t-9 9v41q0 9 9 9t9 -9zM98 410v-41q0 -9 -9 -9t-9 9v41q0 9 9 9t9 -9zM98 350v-41q0 -9 -9 -9t-9 9v41q0 9 9 9t9 -9zM98 290v-41q0 -9 -9 -9t-9 9v41q0 9 9 9t9 -9zM98 230v-41 q0 -9 -9 -9t-9 9v41q0 9 9 9t9 -9zM98 170v-41q0 -9 -9 -9t-9 9v41q0 9 9 9t9 -9zM98 110v-41q0 -9 -9 -9t-9 9v41q0 9 9 9t9 -9zM98 50v-41q0 -9 -9 -9t-9 9v41q0 9 9 9t9 -9zM158 470v-41q0 -9 -9 -9t-9 9v41q0 9 9 9t9 -9zM158 410v-41q0 -9 -9 -9t-9 9v41q0 9 9 9t9 -9z M158 350v-41q0 -9 -9 -9t-9 9v41q0 9 9 9t9 -9zM158 290v-41q0 -9 -9 -9t-9 9v41q0 9 9 9t9 -9zM158 230v-41q0 -9 -9 -9t-9 9v41q0 9 9 9t9 -9zM158 170v-41q0 -9 -9 -9t-9 9v41q0 9 9 9t9 -9zM158 110v-41q0 -9 -9 -9t-9 9v41q0 9 9 9t9 -9zM158 50v-41q0 -9 -9 -9t-9 9 v41q0 9 9 9t9 -9zM218 530v-41q0 -9 -9 -9t-9 9v41q0 9 9 9t9 -9zM278 530v-41q0 -9 -9 -9t-9 9v41q0 9 9 9t9 -9zM278 290v-41q0 -9 -9 -9t-9 9v41q0 9 9 9t9 -9zM218 290v-41q0 -9 -9 -9t-9 9v41q0 9 9 9t9 -9zM260 669v41q0 9 9 9t9 -9v-41q0 -9 -9 -9t-9 9zM200 609v41 q0 9 9 9t9 -9v-41q0 -9 -9 -9t-9 9z" />
<glyph unicode="&#xc2;" d="M338 530v-41q0 -9 -9 -9t-9 9v41q0 9 9 9t9 -9zM338 470v-41q0 -9 -9 -9t-9 9v41q0 9 9 9t9 -9zM338 410v-41q0 -9 -9 -9t-9 9v41q0 9 9 9t9 -9zM338 350v-41q0 -9 -9 -9t-9 9v41q0 9 9 9t9 -9zM338 290v-41q0 -9 -9 -9t-9 9v41q0 9 9 9t9 -9zM338 230v-41q0 -9 -9 -9 t-9 9v41q0 9 9 9t9 -9zM338 170v-41q0 -9 -9 -9t-9 9v41q0 9 9 9t9 -9zM338 110v-41q0 -9 -9 -9t-9 9v41q0 9 9 9t9 -9zM338 50v-41q0 -9 -9 -9t-9 9v41q0 9 9 9t9 -9zM398 470v-41q0 -9 -9 -9t-9 9v41q0 9 9 9t9 -9zM398 410v-41q0 -9 -9 -9t-9 9v41q0 9 9 9t9 -9zM398 350 v-41q0 -9 -9 -9t-9 9v41q0 9 9 9t9 -9zM398 290v-41q0 -9 -9 -9t-9 9v41q0 9 9 9t9 -9zM398 230v-41q0 -9 -9 -9t-9 9v41q0 9 9 9t9 -9zM398 170v-41q0 -9 -9 -9t-9 9v41q0 9 9 9t9 -9zM398 110v-41q0 -9 -9 -9t-9 9v41q0 9 9 9t9 -9zM398 50v-41q0 -9 -9 -9t-9 9v41 q0 9 9 9t9 -9zM158 530v-41q0 -9 -9 -9t-9 9v41q0 9 9 9t9 -9zM98 470v-41q0 -9 -9 -9t-9 9v41q0 9 9 9t9 -9zM98 410v-41q0 -9 -9 -9t-9 9v41q0 9 9 9t9 -9zM98 350v-41q0 -9 -9 -9t-9 9v41q0 9 9 9t9 -9zM98 290v-41q0 -9 -9 -9t-9 9v41q0 9 9 9t9 -9zM98 230v-41 q0 -9 -9 -9t-9 9v41q0 9 9 9t9 -9zM98 170v-41q0 -9 -9 -9t-9 9v41q0 9 9 9t9 -9zM98 110v-41q0 -9 -9 -9t-9 9v41q0 9 9 9t9 -9zM98 50v-41q0 -9 -9 -9t-9 9v41q0 9 9 9t9 -9zM158 470v-41q0 -9 -9 -9t-9 9v41q0 9 9 9t9 -9zM158 410v-41q0 -9 -9 -9t-9 9v41q0 9 9 9t9 -9z M158 350v-41q0 -9 -9 -9t-9 9v41q0 9 9 9t9 -9zM158 290v-41q0 -9 -9 -9t-9 9v41q0 9 9 9t9 -9zM158 230v-41q0 -9 -9 -9t-9 9v41q0 9 9 9t9 -9zM158 170v-41q0 -9 -9 -9t-9 9v41q0 9 9 9t9 -9zM158 110v-41q0 -9 -9 -9t-9 9v41q0 9 9 9t9 -9zM158 50v-41q0 -9 -9 -9t-9 9 v41q0 9 9 9t9 -9zM218 530v-41q0 -9 -9 -9t-9 9v41q0 9 9 9t9 -9zM278 530v-41q0 -9 -9 -9t-9 9v41q0 9 9 9t9 -9zM278 290v-41q0 -9 -9 -9t-9 9v41q0 9 9 9t9 -9zM218 290v-41q0 -9 -9 -9t-9 9v41q0 9 9 9t9 -9zM140 609v41q0 9 9 9t9 -9v-41q0 -9 -9 -9t-9 9zM200 669v41 q0 9 9 9t9 -9v-41q0 -9 -9 -9t-9 9zM260 669v41q0 9 9 9t9 -9v-41q0 -9 -9 -9t-9 9zM320 609v41q0 9 9 9t9 -9v-41q0 -9 -9 -9t-9 9z" />
<glyph unicode="&#xc3;" d="M338 530v-41q0 -9 -9 -9t-9 9v41q0 9 9 9t9 -9zM338 470v-41q0 -9 -9 -9t-9 9v41q0 9 9 9t9 -9zM338 410v-41q0 -9 -9 -9t-9 9v41q0 9 9 9t9 -9zM338 350v-41q0 -9 -9 -9t-9 9v41q0 9 9 9t9 -9zM338 290v-41q0 -9 -9 -9t-9 9v41q0 9 9 9t9 -9zM338 230v-41q0 -9 -9 -9 t-9 9v41q0 9 9 9t9 -9zM338 170v-41q0 -9 -9 -9t-9 9v41q0 9 9 9t9 -9zM338 110v-41q0 -9 -9 -9t-9 9v41q0 9 9 9t9 -9zM338 50v-41q0 -9 -9 -9t-9 9v41q0 9 9 9t9 -9zM398 470v-41q0 -9 -9 -9t-9 9v41q0 9 9 9t9 -9zM398 410v-41q0 -9 -9 -9t-9 9v41q0 9 9 9t9 -9zM398 350 v-41q0 -9 -9 -9t-9 9v41q0 9 9 9t9 -9zM398 290v-41q0 -9 -9 -9t-9 9v41q0 9 9 9t9 -9zM398 230v-41q0 -9 -9 -9t-9 9v41q0 9 9 9t9 -9zM398 170v-41q0 -9 -9 -9t-9 9v41q0 9 9 9t9 -9zM398 110v-41q0 -9 -9 -9t-9 9v41q0 9 9 9t9 -9zM398 50v-41q0 -9 -9 -9t-9 9v41 q0 9 9 9t9 -9zM158 530v-41q0 -9 -9 -9t-9 9v41q0 9 9 9t9 -9zM98 470v-41q0 -9 -9 -9t-9 9v41q0 9 9 9t9 -9zM98 410v-41q0 -9 -9 -9t-9 9v41q0 9 9 9t9 -9zM98 350v-41q0 -9 -9 -9t-9 9v41q0 9 9 9t9 -9zM98 290v-41q0 -9 -9 -9t-9 9v41q0 9 9 9t9 -9zM98 230v-41 q0 -9 -9 -9t-9 9v41q0 9 9 9t9 -9zM98 170v-41q0 -9 -9 -9t-9 9v41q0 9 9 9t9 -9zM98 110v-41q0 -9 -9 -9t-9 9v41q0 9 9 9t9 -9zM98 50v-41q0 -9 -9 -9t-9 9v41q0 9 9 9t9 -9zM158 470v-41q0 -9 -9 -9t-9 9v41q0 9 9 9t9 -9zM158 410v-41q0 -9 -9 -9t-9 9v41q0 9 9 9t9 -9z M158 350v-41q0 -9 -9 -9t-9 9v41q0 9 9 9t9 -9zM158 290v-41q0 -9 -9 -9t-9 9v41q0 9 9 9t9 -9zM158 230v-41q0 -9 -9 -9t-9 9v41q0 9 9 9t9 -9zM158 170v-41q0 -9 -9 -9t-9 9v41q0 9 9 9t9 -9zM158 110v-41q0 -9 -9 -9t-9 9v41q0 9 9 9t9 -9zM158 50v-41q0 -9 -9 -9t-9 9 v41q0 9 9 9t9 -9zM218 530v-41q0 -9 -9 -9t-9 9v41q0 9 9 9t9 -9zM278 530v-41q0 -9 -9 -9t-9 9v41q0 9 9 9t9 -9zM278 290v-41q0 -9 -9 -9t-9 9v41q0 9 9 9t9 -9zM218 290v-41q0 -9 -9 -9t-9 9v41q0 9 9 9t9 -9zM80 609v41q0 9 9 9t9 -9v-41q0 -9 -9 -9t-9 9zM140 669v41 q0 9 9 9t9 -9v-41q0 -9 -9 -9t-9 9zM200 669v41q0 9 9 9t9 -9v-41q0 -9 -9 -9t-9 9zM260 609v41q0 9 9 9t9 -9v-41q0 -9 -9 -9t-9 9zM320 609v41q0 9 9 9t9 -9v-41q0 -9 -9 -9t-9 9zM380 669v41q0 9 9 9t9 -9v-41q0 -9 -9 -9t-9 9z" />
<glyph unicode="&#xc4;" d="M338 530v-41q0 -9 -9 -9t-9 9v41q0 9 9 9t9 -9zM338 470v-41q0 -9 -9 -9t-9 9v41q0 9 9 9t9 -9zM338 410v-41q0 -9 -9 -9t-9 9v41q0 9 9 9t9 -9zM338 350v-41q0 -9 -9 -9t-9 9v41q0 9 9 9t9 -9zM338 290v-41q0 -9 -9 -9t-9 9v41q0 9 9 9t9 -9zM338 230v-41q0 -9 -9 -9 t-9 9v41q0 9 9 9t9 -9zM338 170v-41q0 -9 -9 -9t-9 9v41q0 9 9 9t9 -9zM338 110v-41q0 -9 -9 -9t-9 9v41q0 9 9 9t9 -9zM338 50v-41q0 -9 -9 -9t-9 9v41q0 9 9 9t9 -9zM398 470v-41q0 -9 -9 -9t-9 9v41q0 9 9 9t9 -9zM398 410v-41q0 -9 -9 -9t-9 9v41q0 9 9 9t9 -9zM398 350 v-41q0 -9 -9 -9t-9 9v41q0 9 9 9t9 -9zM398 290v-41q0 -9 -9 -9t-9 9v41q0 9 9 9t9 -9zM398 230v-41q0 -9 -9 -9t-9 9v41q0 9 9 9t9 -9zM398 170v-41q0 -9 -9 -9t-9 9v41q0 9 9 9t9 -9zM398 110v-41q0 -9 -9 -9t-9 9v41q0 9 9 9t9 -9zM398 50v-41q0 -9 -9 -9t-9 9v41 q0 9 9 9t9 -9zM158 530v-41q0 -9 -9 -9t-9 9v41q0 9 9 9t9 -9zM98 470v-41q0 -9 -9 -9t-9 9v41q0 9 9 9t9 -9zM98 410v-41q0 -9 -9 -9t-9 9v41q0 9 9 9t9 -9zM98 350v-41q0 -9 -9 -9t-9 9v41q0 9 9 9t9 -9zM98 290v-41q0 -9 -9 -9t-9 9v41q0 9 9 9t9 -9zM98 230v-41 q0 -9 -9 -9t-9 9v41q0 9 9 9t9 -9zM98 170v-41q0 -9 -9 -9t-9 9v41q0 9 9 9t9 -9zM98 110v-41q0 -9 -9 -9t-9 9v41q0 9 9 9t9 -9zM98 50v-41q0 -9 -9 -9t-9 9v41q0 9 9 9t9 -9zM158 470v-41q0 -9 -9 -9t-9 9v41q0 9 9 9t9 -9zM158 410v-41q0 -9 -9 -9t-9 9v41q0 9 9 9t9 -9z M158 350v-41q0 -9 -9 -9t-9 9v41q0 9 9 9t9 -9zM158 290v-41q0 -9 -9 -9t-9 9v41q0 9 9 9t9 -9zM158 230v-41q0 -9 -9 -9t-9 9v41q0 9 9 9t9 -9zM158 170v-41q0 -9 -9 -9t-9 9v41q0 9 9 9t9 -9zM158 110v-41q0 -9 -9 -9t-9 9v41q0 9 9 9t9 -9zM158 50v-41q0 -9 -9 -9t-9 9 v41q0 9 9 9t9 -9zM218 530v-41q0 -9 -9 -9t-9 9v41q0 9 9 9t9 -9zM278 530v-41q0 -9 -9 -9t-9 9v41q0 9 9 9t9 -9zM278 290v-41q0 -9 -9 -9t-9 9v41q0 9 9 9t9 -9zM218 290v-41q0 -9 -9 -9t-9 9v41q0 9 9 9t9 -9zM320 609v41q0 9 9 9t9 -9v-41q0 -9 -9 -9t-9 9zM140 609v41 q0 9 9 9t9 -9v-41q0 -9 -9 -9t-9 9z" />
<glyph unicode="&#xc5;" d="M338 530v-41q0 -9 -9 -9t-9 9v41q0 9 9 9t9 -9zM338 470v-41q0 -9 -9 -9t-9 9v41q0 9 9 9t9 -9zM338 410v-41q0 -9 -9 -9t-9 9v41q0 9 9 9t9 -9zM338 350v-41q0 -9 -9 -9t-9 9v41q0 9 9 9t9 -9zM338 290v-41q0 -9 -9 -9t-9 9v41q0 9 9 9t9 -9zM338 230v-41q0 -9 -9 -9 t-9 9v41q0 9 9 9t9 -9zM338 170v-41q0 -9 -9 -9t-9 9v41q0 9 9 9t9 -9zM338 110v-41q0 -9 -9 -9t-9 9v41q0 9 9 9t9 -9zM338 50v-41q0 -9 -9 -9t-9 9v41q0 9 9 9t9 -9zM398 470v-41q0 -9 -9 -9t-9 9v41q0 9 9 9t9 -9zM398 410v-41q0 -9 -9 -9t-9 9v41q0 9 9 9t9 -9zM398 350 v-41q0 -9 -9 -9t-9 9v41q0 9 9 9t9 -9zM398 290v-41q0 -9 -9 -9t-9 9v41q0 9 9 9t9 -9zM398 230v-41q0 -9 -9 -9t-9 9v41q0 9 9 9t9 -9zM398 170v-41q0 -9 -9 -9t-9 9v41q0 9 9 9t9 -9zM398 110v-41q0 -9 -9 -9t-9 9v41q0 9 9 9t9 -9zM398 50v-41q0 -9 -9 -9t-9 9v41 q0 9 9 9t9 -9zM158 530v-41q0 -9 -9 -9t-9 9v41q0 9 9 9t9 -9zM98 470v-41q0 -9 -9 -9t-9 9v41q0 9 9 9t9 -9zM98 410v-41q0 -9 -9 -9t-9 9v41q0 9 9 9t9 -9zM98 350v-41q0 -9 -9 -9t-9 9v41q0 9 9 9t9 -9zM98 290v-41q0 -9 -9 -9t-9 9v41q0 9 9 9t9 -9zM98 230v-41 q0 -9 -9 -9t-9 9v41q0 9 9 9t9 -9zM98 170v-41q0 -9 -9 -9t-9 9v41q0 9 9 9t9 -9zM98 110v-41q0 -9 -9 -9t-9 9v41q0 9 9 9t9 -9zM98 50v-41q0 -9 -9 -9t-9 9v41q0 9 9 9t9 -9zM158 470v-41q0 -9 -9 -9t-9 9v41q0 9 9 9t9 -9zM158 410v-41q0 -9 -9 -9t-9 9v41q0 9 9 9t9 -9z M158 350v-41q0 -9 -9 -9t-9 9v41q0 9 9 9t9 -9zM158 290v-41q0 -9 -9 -9t-9 9v41q0 9 9 9t9 -9zM158 230v-41q0 -9 -9 -9t-9 9v41q0 9 9 9t9 -9zM158 170v-41q0 -9 -9 -9t-9 9v41q0 9 9 9t9 -9zM158 110v-41q0 -9 -9 -9t-9 9v41q0 9 9 9t9 -9zM158 50v-41q0 -9 -9 -9t-9 9 v41q0 9 9 9t9 -9zM218 530v-41q0 -9 -9 -9t-9 9v41q0 9 9 9t9 -9zM278 530v-41q0 -9 -9 -9t-9 9v41q0 9 9 9t9 -9zM278 290v-41q0 -9 -9 -9t-9 9v41q0 9 9 9t9 -9zM218 290v-41q0 -9 -9 -9t-9 9v41q0 9 9 9t9 -9zM200 669v41q0 9 9 9t9 -9v-41q0 -9 -9 -9t-9 9zM260 669v41 q0 9 9 9t9 -9v-41q0 -9 -9 -9t-9 9zM320 609v41q0 9 9 9t9 -9v-41q0 -9 -9 -9t-9 9zM320 549v41q0 9 9 9t9 -9v-41q0 -9 -9 -9t-9 9zM140 609v41q0 9 9 9t9 -9v-41q0 -9 -9 -9t-9 9zM140 549v41q0 9 9 9t9 -9v-41q0 -9 -9 -9t-9 9z" />
<glyph unicode="&#xc6;" horiz-adv-x="660" d="M158 530v-41q0 -9 -9 -9t-9 9v41q0 9 9 9t9 -9zM98 470v-41q0 -9 -9 -9t-9 9v41q0 9 9 9t9 -9zM98 410v-41q0 -9 -9 -9t-9 9v41q0 9 9 9t9 -9zM98 350v-41q0 -9 -9 -9t-9 9v41q0 9 9 9t9 -9zM98 290v-41q0 -9 -9 -9t-9 9v41q0 9 9 9t9 -9zM98 230v-41q0 -9 -9 -9t-9 9v41 q0 9 9 9t9 -9zM98 170v-41q0 -9 -9 -9t-9 9v41q0 9 9 9t9 -9zM98 110v-41q0 -9 -9 -9t-9 9v41q0 9 9 9t9 -9zM98 50v-41q0 -9 -9 -9t-9 9v41q0 9 9 9t9 -9zM158 470v-41q0 -9 -9 -9t-9 9v41q0 9 9 9t9 -9zM158 410v-41q0 -9 -9 -9t-9 9v41q0 9 9 9t9 -9zM158 350v-41 q0 -9 -9 -9t-9 9v41q0 9 9 9t9 -9zM158 290v-41q0 -9 -9 -9t-9 9v41q0 9 9 9t9 -9zM158 230v-41q0 -9 -9 -9t-9 9v41q0 9 9 9t9 -9zM158 170v-41q0 -9 -9 -9t-9 9v41q0 9 9 9t9 -9zM158 110v-41q0 -9 -9 -9t-9 9v41q0 9 9 9t9 -9zM158 50v-41q0 -9 -9 -9t-9 9v41q0 9 9 9 t9 -9zM218 530v-41q0 -9 -9 -9t-9 9v41q0 9 9 9t9 -9zM278 530v-41q0 -9 -9 -9t-9 9v41q0 9 9 9t9 -9zM278 290v-41q0 -9 -9 -9t-9 9v41q0 9 9 9t9 -9zM218 290v-41q0 -9 -9 -9t-9 9v41q0 9 9 9t9 -9zM578 50v-41q0 -9 -9 -9t-9 9v41q0 9 9 9t9 -9zM398 530v-41q0 -9 -9 -9 t-9 9v41q0 9 9 9t9 -9zM338 470v-41q0 -9 -9 -9t-9 9v41q0 9 9 9t9 -9zM338 410v-41q0 -9 -9 -9t-9 9v41q0 9 9 9t9 -9zM338 350v-41q0 -9 -9 -9t-9 9v41q0 9 9 9t9 -9zM338 290v-41q0 -9 -9 -9t-9 9v41q0 9 9 9t9 -9zM338 230v-41q0 -9 -9 -9t-9 9v41q0 9 9 9t9 -9z M338 170v-41q0 -9 -9 -9t-9 9v41q0 9 9 9t9 -9zM338 110v-41q0 -9 -9 -9t-9 9v41q0 9 9 9t9 -9zM338 50v-41q0 -9 -9 -9t-9 9v41q0 9 9 9t9 -9zM398 470v-41q0 -9 -9 -9t-9 9v41q0 9 9 9t9 -9zM398 410v-41q0 -9 -9 -9t-9 9v41q0 9 9 9t9 -9zM398 350v-41q0 -9 -9 -9t-9 9 v41q0 9 9 9t9 -9zM398 290v-41q0 -9 -9 -9t-9 9v41q0 9 9 9t9 -9zM398 230v-41q0 -9 -9 -9t-9 9v41q0 9 9 9t9 -9zM398 170v-41q0 -9 -9 -9t-9 9v41q0 9 9 9t9 -9zM398 110v-41q0 -9 -9 -9t-9 9v41q0 9 9 9t9 -9zM398 50v-41q0 -9 -9 -9t-9 9v41q0 9 9 9t9 -9zM338 530v-41 q0 -9 -9 -9t-9 9v41q0 9 9 9t9 -9zM518 50v-41q0 -9 -9 -9t-9 9v41q0 9 9 9t9 -9zM458 50v-41q0 -9 -9 -9t-9 9v41q0 9 9 9t9 -9zM518 290v-41q0 -9 -9 -9t-9 9v41q0 9 9 9t9 -9zM458 290v-41q0 -9 -9 -9t-9 9v41q0 9 9 9t9 -9zM518 530v-41q0 -9 -9 -9t-9 9v41q0 9 9 9 t9 -9zM458 530v-41q0 -9 -9 -9t-9 9v41q0 9 9 9t9 -9zM578 530v-41q0 -9 -9 -9t-9 9v41q0 9 9 9t9 -9z" />
<glyph unicode="&#xc7;" d="M140 9v41q0 9 9 9t9 -9v-41q0 -9 -9 -9t-9 9zM140 69v41q0 9 9 9t9 -9v-41q0 -9 -9 -9t-9 9zM140 129v41q0 9 9 9t9 -9v-41q0 -9 -9 -9t-9 9zM140 189v41q0 9 9 9t9 -9v-41q0 -9 -9 -9t-9 9zM140 249v41q0 9 9 9t9 -9v-41q0 -9 -9 -9t-9 9zM140 309v41q0 9 9 9t9 -9v-41 q0 -9 -9 -9t-9 9zM140 369v41q0 9 9 9t9 -9v-41q0 -9 -9 -9t-9 9zM140 429v41q0 9 9 9t9 -9v-41q0 -9 -9 -9t-9 9zM140 489v41q0 9 9 9t9 -9v-41q0 -9 -9 -9t-9 9zM80 69v41q0 9 9 9t9 -9v-41q0 -9 -9 -9t-9 9zM80 129v41q0 9 9 9t9 -9v-41q0 -9 -9 -9t-9 9zM80 189v41 q0 9 9 9t9 -9v-41q0 -9 -9 -9t-9 9zM80 249v41q0 9 9 9t9 -9v-41q0 -9 -9 -9t-9 9zM80 309v41q0 9 9 9t9 -9v-41q0 -9 -9 -9t-9 9zM80 369v41q0 9 9 9t9 -9v-41q0 -9 -9 -9t-9 9zM80 429v41q0 9 9 9t9 -9v-41q0 -9 -9 -9t-9 9zM200 489v41q0 9 9 9t9 -9v-41q0 -9 -9 -9t-9 9 zM320 9v41q0 9 9 9t9 -9v-41q0 -9 -9 -9t-9 9zM380 69v41q0 9 9 9t9 -9v-41q0 -9 -9 -9t-9 9zM380 429v41q0 9 9 9t9 -9v-41q0 -9 -9 -9t-9 9zM260 489v41q0 9 9 9t9 -9v-41q0 -9 -9 -9t-9 9zM320 489v41q0 9 9 9t9 -9v-41q0 -9 -9 -9t-9 9zM260 9v41q0 9 9 9t9 -9v-41 q0 -9 -9 -9t-9 9zM200 9v41q0 9 9 9t9 -9v-41q0 -9 -9 -9t-9 9zM200 -51v41q0 9 9 9t9 -9v-41q0 -9 -9 -9t-9 9zM260 -51v41q0 9 9 9t9 -9v-41q0 -9 -9 -9t-9 9zM200 -171v41q0 9 9 9t9 -9v-41q0 -9 -9 -9t-9 9zM260 -111v41q0 9 9 9t9 -9v-41q0 -9 -9 -9t-9 9z" />
<glyph unicode="&#xc8;" horiz-adv-x="420" d="M338 50v-41q0 -9 -9 -9t-9 9v41q0 9 9 9t9 -9zM158 530v-41q0 -9 -9 -9t-9 9v41q0 9 9 9t9 -9zM98 470v-41q0 -9 -9 -9t-9 9v41q0 9 9 9t9 -9zM98 410v-41q0 -9 -9 -9t-9 9v41q0 9 9 9t9 -9zM98 350v-41q0 -9 -9 -9t-9 9v41q0 9 9 9t9 -9zM98 290v-41q0 -9 -9 -9t-9 9v41 q0 9 9 9t9 -9zM98 230v-41q0 -9 -9 -9t-9 9v41q0 9 9 9t9 -9zM98 170v-41q0 -9 -9 -9t-9 9v41q0 9 9 9t9 -9zM98 110v-41q0 -9 -9 -9t-9 9v41q0 9 9 9t9 -9zM98 50v-41q0 -9 -9 -9t-9 9v41q0 9 9 9t9 -9zM158 470v-41q0 -9 -9 -9t-9 9v41q0 9 9 9t9 -9zM158 410v-41 q0 -9 -9 -9t-9 9v41q0 9 9 9t9 -9zM158 350v-41q0 -9 -9 -9t-9 9v41q0 9 9 9t9 -9zM158 290v-41q0 -9 -9 -9t-9 9v41q0 9 9 9t9 -9zM158 230v-41q0 -9 -9 -9t-9 9v41q0 9 9 9t9 -9zM158 170v-41q0 -9 -9 -9t-9 9v41q0 9 9 9t9 -9zM158 110v-41q0 -9 -9 -9t-9 9v41q0 9 9 9 t9 -9zM158 50v-41q0 -9 -9 -9t-9 9v41q0 9 9 9t9 -9zM98 530v-41q0 -9 -9 -9t-9 9v41q0 9 9 9t9 -9zM278 50v-41q0 -9 -9 -9t-9 9v41q0 9 9 9t9 -9zM218 50v-41q0 -9 -9 -9t-9 9v41q0 9 9 9t9 -9zM278 290v-41q0 -9 -9 -9t-9 9v41q0 9 9 9t9 -9zM218 290v-41q0 -9 -9 -9 t-9 9v41q0 9 9 9t9 -9zM278 530v-41q0 -9 -9 -9t-9 9v41q0 9 9 9t9 -9zM218 530v-41q0 -9 -9 -9t-9 9v41q0 9 9 9t9 -9zM338 530v-41q0 -9 -9 -9t-9 9v41q0 9 9 9t9 -9zM158 710v-41q0 -9 -9 -9t-9 9v41q0 9 9 9t9 -9zM218 650v-41q0 -9 -9 -9t-9 9v41q0 9 9 9t9 -9z" />
<glyph unicode="&#xc9;" horiz-adv-x="420" d="M338 50v-41q0 -9 -9 -9t-9 9v41q0 9 9 9t9 -9zM158 530v-41q0 -9 -9 -9t-9 9v41q0 9 9 9t9 -9zM98 470v-41q0 -9 -9 -9t-9 9v41q0 9 9 9t9 -9zM98 410v-41q0 -9 -9 -9t-9 9v41q0 9 9 9t9 -9zM98 350v-41q0 -9 -9 -9t-9 9v41q0 9 9 9t9 -9zM98 290v-41q0 -9 -9 -9t-9 9v41 q0 9 9 9t9 -9zM98 230v-41q0 -9 -9 -9t-9 9v41q0 9 9 9t9 -9zM98 170v-41q0 -9 -9 -9t-9 9v41q0 9 9 9t9 -9zM98 110v-41q0 -9 -9 -9t-9 9v41q0 9 9 9t9 -9zM98 50v-41q0 -9 -9 -9t-9 9v41q0 9 9 9t9 -9zM158 470v-41q0 -9 -9 -9t-9 9v41q0 9 9 9t9 -9zM158 410v-41 q0 -9 -9 -9t-9 9v41q0 9 9 9t9 -9zM158 350v-41q0 -9 -9 -9t-9 9v41q0 9 9 9t9 -9zM158 290v-41q0 -9 -9 -9t-9 9v41q0 9 9 9t9 -9zM158 230v-41q0 -9 -9 -9t-9 9v41q0 9 9 9t9 -9zM158 170v-41q0 -9 -9 -9t-9 9v41q0 9 9 9t9 -9zM158 110v-41q0 -9 -9 -9t-9 9v41q0 9 9 9 t9 -9zM158 50v-41q0 -9 -9 -9t-9 9v41q0 9 9 9t9 -9zM98 530v-41q0 -9 -9 -9t-9 9v41q0 9 9 9t9 -9zM278 50v-41q0 -9 -9 -9t-9 9v41q0 9 9 9t9 -9zM218 50v-41q0 -9 -9 -9t-9 9v41q0 9 9 9t9 -9zM278 290v-41q0 -9 -9 -9t-9 9v41q0 9 9 9t9 -9zM218 290v-41q0 -9 -9 -9 t-9 9v41q0 9 9 9t9 -9zM278 530v-41q0 -9 -9 -9t-9 9v41q0 9 9 9t9 -9zM218 530v-41q0 -9 -9 -9t-9 9v41q0 9 9 9t9 -9zM338 530v-41q0 -9 -9 -9t-9 9v41q0 9 9 9t9 -9zM200 669v41q0 9 9 9t9 -9v-41q0 -9 -9 -9t-9 9zM140 609v41q0 9 9 9t9 -9v-41q0 -9 -9 -9t-9 9z" />
<glyph unicode="&#xca;" horiz-adv-x="420" d="M338 50v-41q0 -9 -9 -9t-9 9v41q0 9 9 9t9 -9zM158 530v-41q0 -9 -9 -9t-9 9v41q0 9 9 9t9 -9zM98 470v-41q0 -9 -9 -9t-9 9v41q0 9 9 9t9 -9zM98 410v-41q0 -9 -9 -9t-9 9v41q0 9 9 9t9 -9zM98 350v-41q0 -9 -9 -9t-9 9v41q0 9 9 9t9 -9zM98 290v-41q0 -9 -9 -9t-9 9v41 q0 9 9 9t9 -9zM98 230v-41q0 -9 -9 -9t-9 9v41q0 9 9 9t9 -9zM98 170v-41q0 -9 -9 -9t-9 9v41q0 9 9 9t9 -9zM98 110v-41q0 -9 -9 -9t-9 9v41q0 9 9 9t9 -9zM98 50v-41q0 -9 -9 -9t-9 9v41q0 9 9 9t9 -9zM158 470v-41q0 -9 -9 -9t-9 9v41q0 9 9 9t9 -9zM158 410v-41 q0 -9 -9 -9t-9 9v41q0 9 9 9t9 -9zM158 350v-41q0 -9 -9 -9t-9 9v41q0 9 9 9t9 -9zM158 290v-41q0 -9 -9 -9t-9 9v41q0 9 9 9t9 -9zM158 230v-41q0 -9 -9 -9t-9 9v41q0 9 9 9t9 -9zM158 170v-41q0 -9 -9 -9t-9 9v41q0 9 9 9t9 -9zM158 110v-41q0 -9 -9 -9t-9 9v41q0 9 9 9 t9 -9zM158 50v-41q0 -9 -9 -9t-9 9v41q0 9 9 9t9 -9zM98 530v-41q0 -9 -9 -9t-9 9v41q0 9 9 9t9 -9zM278 50v-41q0 -9 -9 -9t-9 9v41q0 9 9 9t9 -9zM218 50v-41q0 -9 -9 -9t-9 9v41q0 9 9 9t9 -9zM278 290v-41q0 -9 -9 -9t-9 9v41q0 9 9 9t9 -9zM218 290v-41q0 -9 -9 -9 t-9 9v41q0 9 9 9t9 -9zM278 530v-41q0 -9 -9 -9t-9 9v41q0 9 9 9t9 -9zM218 530v-41q0 -9 -9 -9t-9 9v41q0 9 9 9t9 -9zM338 530v-41q0 -9 -9 -9t-9 9v41q0 9 9 9t9 -9zM80 609v41q0 9 9 9t9 -9v-41q0 -9 -9 -9t-9 9zM140 669v41q0 9 9 9t9 -9v-41q0 -9 -9 -9t-9 9zM200 669 v41q0 9 9 9t9 -9v-41q0 -9 -9 -9t-9 9zM260 609v41q0 9 9 9t9 -9v-41q0 -9 -9 -9t-9 9z" />
<glyph unicode="&#xcb;" horiz-adv-x="420" d="M338 50v-41q0 -9 -9 -9t-9 9v41q0 9 9 9t9 -9zM158 530v-41q0 -9 -9 -9t-9 9v41q0 9 9 9t9 -9zM98 470v-41q0 -9 -9 -9t-9 9v41q0 9 9 9t9 -9zM98 410v-41q0 -9 -9 -9t-9 9v41q0 9 9 9t9 -9zM98 350v-41q0 -9 -9 -9t-9 9v41q0 9 9 9t9 -9zM98 290v-41q0 -9 -9 -9t-9 9v41 q0 9 9 9t9 -9zM98 230v-41q0 -9 -9 -9t-9 9v41q0 9 9 9t9 -9zM98 170v-41q0 -9 -9 -9t-9 9v41q0 9 9 9t9 -9zM98 110v-41q0 -9 -9 -9t-9 9v41q0 9 9 9t9 -9zM98 50v-41q0 -9 -9 -9t-9 9v41q0 9 9 9t9 -9zM158 470v-41q0 -9 -9 -9t-9 9v41q0 9 9 9t9 -9zM158 410v-41 q0 -9 -9 -9t-9 9v41q0 9 9 9t9 -9zM158 350v-41q0 -9 -9 -9t-9 9v41q0 9 9 9t9 -9zM158 290v-41q0 -9 -9 -9t-9 9v41q0 9 9 9t9 -9zM158 230v-41q0 -9 -9 -9t-9 9v41q0 9 9 9t9 -9zM158 170v-41q0 -9 -9 -9t-9 9v41q0 9 9 9t9 -9zM158 110v-41q0 -9 -9 -9t-9 9v41q0 9 9 9 t9 -9zM158 50v-41q0 -9 -9 -9t-9 9v41q0 9 9 9t9 -9zM98 530v-41q0 -9 -9 -9t-9 9v41q0 9 9 9t9 -9zM278 50v-41q0 -9 -9 -9t-9 9v41q0 9 9 9t9 -9zM218 50v-41q0 -9 -9 -9t-9 9v41q0 9 9 9t9 -9zM278 290v-41q0 -9 -9 -9t-9 9v41q0 9 9 9t9 -9zM218 290v-41q0 -9 -9 -9 t-9 9v41q0 9 9 9t9 -9zM278 530v-41q0 -9 -9 -9t-9 9v41q0 9 9 9t9 -9zM218 530v-41q0 -9 -9 -9t-9 9v41q0 9 9 9t9 -9zM338 530v-41q0 -9 -9 -9t-9 9v41q0 9 9 9t9 -9zM260 609v41q0 9 9 9t9 -9v-41q0 -9 -9 -9t-9 9zM80 609v41q0 9 9 9t9 -9v-41q0 -9 -9 -9t-9 9z" />
<glyph unicode="&#xcc;" horiz-adv-x="240" d="M158 530v-41q0 -9 -9 -9t-9 9v41q0 9 9 9t9 -9zM98 470v-41q0 -9 -9 -9t-9 9v41q0 9 9 9t9 -9zM98 410v-41q0 -9 -9 -9t-9 9v41q0 9 9 9t9 -9zM98 350v-41q0 -9 -9 -9t-9 9v41q0 9 9 9t9 -9zM98 290v-41q0 -9 -9 -9t-9 9v41q0 9 9 9t9 -9zM98 230v-41q0 -9 -9 -9t-9 9v41 q0 9 9 9t9 -9zM98 170v-41q0 -9 -9 -9t-9 9v41q0 9 9 9t9 -9zM98 110v-41q0 -9 -9 -9t-9 9v41q0 9 9 9t9 -9zM98 50v-41q0 -9 -9 -9t-9 9v41q0 9 9 9t9 -9zM158 470v-41q0 -9 -9 -9t-9 9v41q0 9 9 9t9 -9zM158 410v-41q0 -9 -9 -9t-9 9v41q0 9 9 9t9 -9zM158 350v-41 q0 -9 -9 -9t-9 9v41q0 9 9 9t9 -9zM158 290v-41q0 -9 -9 -9t-9 9v41q0 9 9 9t9 -9zM158 230v-41q0 -9 -9 -9t-9 9v41q0 9 9 9t9 -9zM158 170v-41q0 -9 -9 -9t-9 9v41q0 9 9 9t9 -9zM158 110v-41q0 -9 -9 -9t-9 9v41q0 9 9 9t9 -9zM158 50v-41q0 -9 -9 -9t-9 9v41q0 9 9 9 t9 -9zM98 530v-41q0 -9 -9 -9t-9 9v41q0 9 9 9t9 -9zM98 710v-41q0 -9 -9 -9t-9 9v41q0 9 9 9t9 -9zM158 650v-41q0 -9 -9 -9t-9 9v41q0 9 9 9t9 -9z" />
<glyph unicode="&#xcd;" horiz-adv-x="240" d="M158 530v-41q0 -9 -9 -9t-9 9v41q0 9 9 9t9 -9zM98 470v-41q0 -9 -9 -9t-9 9v41q0 9 9 9t9 -9zM98 410v-41q0 -9 -9 -9t-9 9v41q0 9 9 9t9 -9zM98 350v-41q0 -9 -9 -9t-9 9v41q0 9 9 9t9 -9zM98 290v-41q0 -9 -9 -9t-9 9v41q0 9 9 9t9 -9zM98 230v-41q0 -9 -9 -9t-9 9v41 q0 9 9 9t9 -9zM98 170v-41q0 -9 -9 -9t-9 9v41q0 9 9 9t9 -9zM98 110v-41q0 -9 -9 -9t-9 9v41q0 9 9 9t9 -9zM98 50v-41q0 -9 -9 -9t-9 9v41q0 9 9 9t9 -9zM158 470v-41q0 -9 -9 -9t-9 9v41q0 9 9 9t9 -9zM158 410v-41q0 -9 -9 -9t-9 9v41q0 9 9 9t9 -9zM158 350v-41 q0 -9 -9 -9t-9 9v41q0 9 9 9t9 -9zM158 290v-41q0 -9 -9 -9t-9 9v41q0 9 9 9t9 -9zM158 230v-41q0 -9 -9 -9t-9 9v41q0 9 9 9t9 -9zM158 170v-41q0 -9 -9 -9t-9 9v41q0 9 9 9t9 -9zM158 110v-41q0 -9 -9 -9t-9 9v41q0 9 9 9t9 -9zM158 50v-41q0 -9 -9 -9t-9 9v41q0 9 9 9 t9 -9zM98 530v-41q0 -9 -9 -9t-9 9v41q0 9 9 9t9 -9zM140 669v41q0 9 9 9t9 -9v-41q0 -9 -9 -9t-9 9zM80 609v41q0 9 9 9t9 -9v-41q0 -9 -9 -9t-9 9z" />
<glyph unicode="&#xce;" horiz-adv-x="240" d="M158 530v-41q0 -9 -9 -9t-9 9v41q0 9 9 9t9 -9zM98 470v-41q0 -9 -9 -9t-9 9v41q0 9 9 9t9 -9zM98 410v-41q0 -9 -9 -9t-9 9v41q0 9 9 9t9 -9zM98 350v-41q0 -9 -9 -9t-9 9v41q0 9 9 9t9 -9zM98 290v-41q0 -9 -9 -9t-9 9v41q0 9 9 9t9 -9zM98 230v-41q0 -9 -9 -9t-9 9v41 q0 9 9 9t9 -9zM98 170v-41q0 -9 -9 -9t-9 9v41q0 9 9 9t9 -9zM98 110v-41q0 -9 -9 -9t-9 9v41q0 9 9 9t9 -9zM98 50v-41q0 -9 -9 -9t-9 9v41q0 9 9 9t9 -9zM158 470v-41q0 -9 -9 -9t-9 9v41q0 9 9 9t9 -9zM158 410v-41q0 -9 -9 -9t-9 9v41q0 9 9 9t9 -9zM158 350v-41 q0 -9 -9 -9t-9 9v41q0 9 9 9t9 -9zM158 290v-41q0 -9 -9 -9t-9 9v41q0 9 9 9t9 -9zM158 230v-41q0 -9 -9 -9t-9 9v41q0 9 9 9t9 -9zM158 170v-41q0 -9 -9 -9t-9 9v41q0 9 9 9t9 -9zM158 110v-41q0 -9 -9 -9t-9 9v41q0 9 9 9t9 -9zM158 50v-41q0 -9 -9 -9t-9 9v41q0 9 9 9 t9 -9zM98 530v-41q0 -9 -9 -9t-9 9v41q0 9 9 9t9 -9zM20 609v41q0 9 9 9t9 -9v-41q0 -9 -9 -9t-9 9zM80 669v41q0 9 9 9t9 -9v-41q0 -9 -9 -9t-9 9zM140 669v41q0 9 9 9t9 -9v-41q0 -9 -9 -9t-9 9zM200 609v41q0 9 9 9t9 -9v-41q0 -9 -9 -9t-9 9z" />
<glyph unicode="&#xcf;" horiz-adv-x="240" d="M158 530v-41q0 -9 -9 -9t-9 9v41q0 9 9 9t9 -9zM98 470v-41q0 -9 -9 -9t-9 9v41q0 9 9 9t9 -9zM98 410v-41q0 -9 -9 -9t-9 9v41q0 9 9 9t9 -9zM98 350v-41q0 -9 -9 -9t-9 9v41q0 9 9 9t9 -9zM98 290v-41q0 -9 -9 -9t-9 9v41q0 9 9 9t9 -9zM98 230v-41q0 -9 -9 -9t-9 9v41 q0 9 9 9t9 -9zM98 170v-41q0 -9 -9 -9t-9 9v41q0 9 9 9t9 -9zM98 110v-41q0 -9 -9 -9t-9 9v41q0 9 9 9t9 -9zM98 50v-41q0 -9 -9 -9t-9 9v41q0 9 9 9t9 -9zM158 470v-41q0 -9 -9 -9t-9 9v41q0 9 9 9t9 -9zM158 410v-41q0 -9 -9 -9t-9 9v41q0 9 9 9t9 -9zM158 350v-41 q0 -9 -9 -9t-9 9v41q0 9 9 9t9 -9zM158 290v-41q0 -9 -9 -9t-9 9v41q0 9 9 9t9 -9zM158 230v-41q0 -9 -9 -9t-9 9v41q0 9 9 9t9 -9zM158 170v-41q0 -9 -9 -9t-9 9v41q0 9 9 9t9 -9zM158 110v-41q0 -9 -9 -9t-9 9v41q0 9 9 9t9 -9zM158 50v-41q0 -9 -9 -9t-9 9v41q0 9 9 9 t9 -9zM98 530v-41q0 -9 -9 -9t-9 9v41q0 9 9 9t9 -9zM200 609v41q0 9 9 9t9 -9v-41q0 -9 -9 -9t-9 9zM20 609v41q0 9 9 9t9 -9v-41q0 -9 -9 -9t-9 9z" />
<glyph unicode="&#xd0;" d="M140 9v41q0 9 9 9t9 -9v-41q0 -9 -9 -9t-9 9zM140 69v41q0 9 9 9t9 -9v-41q0 -9 -9 -9t-9 9zM140 129v41q0 9 9 9t9 -9v-41q0 -9 -9 -9t-9 9zM140 189v41q0 9 9 9t9 -9v-41q0 -9 -9 -9t-9 9zM140 249v41q0 9 9 9t9 -9v-41q0 -9 -9 -9t-9 9zM140 309v41q0 9 9 9t9 -9v-41 q0 -9 -9 -9t-9 9zM140 369v41q0 9 9 9t9 -9v-41q0 -9 -9 -9t-9 9zM140 429v41q0 9 9 9t9 -9v-41q0 -9 -9 -9t-9 9zM140 489v41q0 9 9 9t9 -9v-41q0 -9 -9 -9t-9 9zM80 69v41q0 9 9 9t9 -9v-41q0 -9 -9 -9t-9 9zM80 129v41q0 9 9 9t9 -9v-41q0 -9 -9 -9t-9 9zM80 189v41 q0 9 9 9t9 -9v-41q0 -9 -9 -9t-9 9zM80 249v41q0 9 9 9t9 -9v-41q0 -9 -9 -9t-9 9zM80 309v41q0 9 9 9t9 -9v-41q0 -9 -9 -9t-9 9zM80 369v41q0 9 9 9t9 -9v-41q0 -9 -9 -9t-9 9zM80 429v41q0 9 9 9t9 -9v-41q0 -9 -9 -9t-9 9zM200 489v41q0 9 9 9t9 -9v-41q0 -9 -9 -9t-9 9 zM320 9v41q0 9 9 9t9 -9v-41q0 -9 -9 -9t-9 9zM380 69v41q0 9 9 9t9 -9v-41q0 -9 -9 -9t-9 9zM380 129v41q0 9 9 9t9 -9v-41q0 -9 -9 -9t-9 9zM380 189v41q0 9 9 9t9 -9v-41q0 -9 -9 -9t-9 9zM380 249v41q0 9 9 9t9 -9v-41q0 -9 -9 -9t-9 9zM380 309v41q0 9 9 9t9 -9v-41 q0 -9 -9 -9t-9 9zM380 369v41q0 9 9 9t9 -9v-41q0 -9 -9 -9t-9 9zM380 429v41q0 9 9 9t9 -9v-41q0 -9 -9 -9t-9 9zM260 489v41q0 9 9 9t9 -9v-41q0 -9 -9 -9t-9 9zM320 69v41q0 9 9 9t9 -9v-41q0 -9 -9 -9t-9 9zM320 129v41q0 9 9 9t9 -9v-41q0 -9 -9 -9t-9 9zM320 189v41 q0 9 9 9t9 -9v-41q0 -9 -9 -9t-9 9zM320 249v41q0 9 9 9t9 -9v-41q0 -9 -9 -9t-9 9zM320 309v41q0 9 9 9t9 -9v-41q0 -9 -9 -9t-9 9zM320 369v41q0 9 9 9t9 -9v-41q0 -9 -9 -9t-9 9zM320 429v41q0 9 9 9t9 -9v-41q0 -9 -9 -9t-9 9zM320 489v41q0 9 9 9t9 -9v-41q0 -9 -9 -9 t-9 9zM260 9v41q0 9 9 9t9 -9v-41q0 -9 -9 -9t-9 9zM200 9v41q0 9 9 9t9 -9v-41q0 -9 -9 -9t-9 9zM80 489v41q0 9 9 9t9 -9v-41q0 -9 -9 -9t-9 9zM80 9v41q0 9 9 9t9 -9v-41q0 -9 -9 -9t-9 9zM200 249v41q0 9 9 9t9 -9v-41q0 -9 -9 -9t-9 9zM20 249v41q0 9 9 9t9 -9v-41 q0 -9 -9 -9t-9 9z" />
<glyph unicode="&#xd1;" horiz-adv-x="540" d="M380 170v-41q0 -9 9 -9t9 9v41q0 9 -9 9t-9 -9zM380 110v-41q0 -9 9 -9t9 9v41q0 9 -9 9t-9 -9zM380 50v-41q0 -9 9 -9t9 9v41q0 9 -9 9t-9 -9zM320 230v-41q0 -9 9 -9t9 9v41q0 9 -9 9t-9 -9zM320 170v-41q0 -9 9 -9t9 9v41q0 9 -9 9t-9 -9zM320 110v-41q0 -9 9 -9t9 9 v41q0 9 -9 9t-9 -9zM320 50v-41q0 -9 9 -9t9 9v41q0 9 -9 9t-9 -9zM200 350v-41q0 -9 9 -9t9 9v41q0 9 -9 9t-9 -9zM260 290v-41q0 -9 9 -9t9 9v41q0 9 -9 9t-9 -9zM140 530v-41q0 -9 9 -9t9 9v41q0 9 -9 9t-9 -9zM80 530v-41q0 -9 9 -9t9 9v41q0 9 -9 9t-9 -9zM80 50v-41 q0 -9 9 -9t9 9v41q0 9 -9 9t-9 -9zM200 290v-41q0 -9 9 -9t9 9v41q0 9 -9 9t-9 -9zM260 230v-41q0 -9 9 -9t9 9v41q0 9 -9 9t-9 -9zM140 410v-41q0 -9 9 -9t9 9v41q0 9 -9 9t-9 -9zM140 350v-41q0 -9 9 -9t9 9v41q0 9 -9 9t-9 -9zM80 470v-41q0 -9 9 -9t9 9v41q0 9 -9 9 t-9 -9zM80 410v-41q0 -9 9 -9t9 9v41q0 9 -9 9t-9 -9zM140 470v-41q0 -9 9 -9t9 9v41q0 9 -9 9t-9 -9zM200 410v-41q0 -9 9 -9t9 9v41q0 9 -9 9t-9 -9zM260 350v-41q0 -9 9 -9t9 9v41q0 9 -9 9t-9 -9zM320 290v-41q0 -9 9 -9t9 9v41q0 9 -9 9t-9 -9zM380 230v-41q0 -9 9 -9 t9 9v41q0 9 -9 9t-9 -9zM80 110v-41q0 -9 9 -9t9 9v41q0 9 -9 9t-9 -9zM80 170v-41q0 -9 9 -9t9 9v41q0 9 -9 9t-9 -9zM80 230v-41q0 -9 9 -9t9 9v41q0 9 -9 9t-9 -9zM80 290v-41q0 -9 9 -9t9 9v41q0 9 -9 9t-9 -9zM80 350v-41q0 -9 9 -9t9 9v41q0 9 -9 9t-9 -9zM440 530 v-41q0 -9 9 -9t9 9v41q0 9 -9 9t-9 -9zM440 50v-41q0 -9 9 -9t9 9v41q0 9 -9 9t-9 -9zM440 470v-41q0 -9 9 -9t9 9v41q0 9 -9 9t-9 -9zM440 410v-41q0 -9 9 -9t9 9v41q0 9 -9 9t-9 -9zM440 110v-41q0 -9 9 -9t9 9v41q0 9 -9 9t-9 -9zM440 170v-41q0 -9 9 -9t9 9v41q0 9 -9 9 t-9 -9zM440 230v-41q0 -9 9 -9t9 9v41q0 9 -9 9t-9 -9zM440 290v-41q0 -9 9 -9t9 9v41q0 9 -9 9t-9 -9zM440 350v-41q0 -9 9 -9t9 9v41q0 9 -9 9t-9 -9zM80 609v41q0 9 9 9t9 -9v-41q0 -9 -9 -9t-9 9zM140 669v41q0 9 9 9t9 -9v-41q0 -9 -9 -9t-9 9zM200 669v41q0 9 9 9 t9 -9v-41q0 -9 -9 -9t-9 9zM260 609v41q0 9 9 9t9 -9v-41q0 -9 -9 -9t-9 9zM320 609v41q0 9 9 9t9 -9v-41q0 -9 -9 -9t-9 9zM380 669v41q0 9 9 9t9 -9v-41q0 -9 -9 -9t-9 9z" />
<glyph unicode="&#xd2;" d="M140 9v41q0 9 9 9t9 -9v-41q0 -9 -9 -9t-9 9zM140 69v41q0 9 9 9t9 -9v-41q0 -9 -9 -9t-9 9zM140 129v41q0 9 9 9t9 -9v-41q0 -9 -9 -9t-9 9zM140 189v41q0 9 9 9t9 -9v-41q0 -9 -9 -9t-9 9zM140 249v41q0 9 9 9t9 -9v-41q0 -9 -9 -9t-9 9zM140 309v41q0 9 9 9t9 -9v-41 q0 -9 -9 -9t-9 9zM140 369v41q0 9 9 9t9 -9v-41q0 -9 -9 -9t-9 9zM140 429v41q0 9 9 9t9 -9v-41q0 -9 -9 -9t-9 9zM140 489v41q0 9 9 9t9 -9v-41q0 -9 -9 -9t-9 9zM80 69v41q0 9 9 9t9 -9v-41q0 -9 -9 -9t-9 9zM80 129v41q0 9 9 9t9 -9v-41q0 -9 -9 -9t-9 9zM80 189v41 q0 9 9 9t9 -9v-41q0 -9 -9 -9t-9 9zM80 249v41q0 9 9 9t9 -9v-41q0 -9 -9 -9t-9 9zM80 309v41q0 9 9 9t9 -9v-41q0 -9 -9 -9t-9 9zM80 369v41q0 9 9 9t9 -9v-41q0 -9 -9 -9t-9 9zM80 429v41q0 9 9 9t9 -9v-41q0 -9 -9 -9t-9 9zM200 489v41q0 9 9 9t9 -9v-41q0 -9 -9 -9t-9 9 zM320 9v41q0 9 9 9t9 -9v-41q0 -9 -9 -9t-9 9zM380 69v41q0 9 9 9t9 -9v-41q0 -9 -9 -9t-9 9zM380 129v41q0 9 9 9t9 -9v-41q0 -9 -9 -9t-9 9zM380 189v41q0 9 9 9t9 -9v-41q0 -9 -9 -9t-9 9zM380 249v41q0 9 9 9t9 -9v-41q0 -9 -9 -9t-9 9zM380 309v41q0 9 9 9t9 -9v-41 q0 -9 -9 -9t-9 9zM380 369v41q0 9 9 9t9 -9v-41q0 -9 -9 -9t-9 9zM380 429v41q0 9 9 9t9 -9v-41q0 -9 -9 -9t-9 9zM260 489v41q0 9 9 9t9 -9v-41q0 -9 -9 -9t-9 9zM320 69v41q0 9 9 9t9 -9v-41q0 -9 -9 -9t-9 9zM320 129v41q0 9 9 9t9 -9v-41q0 -9 -9 -9t-9 9zM320 189v41 q0 9 9 9t9 -9v-41q0 -9 -9 -9t-9 9zM320 249v41q0 9 9 9t9 -9v-41q0 -9 -9 -9t-9 9zM320 309v41q0 9 9 9t9 -9v-41q0 -9 -9 -9t-9 9zM320 369v41q0 9 9 9t9 -9v-41q0 -9 -9 -9t-9 9zM320 429v41q0 9 9 9t9 -9v-41q0 -9 -9 -9t-9 9zM320 489v41q0 9 9 9t9 -9v-41q0 -9 -9 -9 t-9 9zM260 9v41q0 9 9 9t9 -9v-41q0 -9 -9 -9t-9 9zM200 9v41q0 9 9 9t9 -9v-41q0 -9 -9 -9t-9 9zM218 710v-41q0 -9 -9 -9t-9 9v41q0 9 9 9t9 -9zM278 650v-41q0 -9 -9 -9t-9 9v41q0 9 9 9t9 -9z" />
<glyph unicode="&#xd3;" d="M140 9v41q0 9 9 9t9 -9v-41q0 -9 -9 -9t-9 9zM140 69v41q0 9 9 9t9 -9v-41q0 -9 -9 -9t-9 9zM140 129v41q0 9 9 9t9 -9v-41q0 -9 -9 -9t-9 9zM140 189v41q0 9 9 9t9 -9v-41q0 -9 -9 -9t-9 9zM140 249v41q0 9 9 9t9 -9v-41q0 -9 -9 -9t-9 9zM140 309v41q0 9 9 9t9 -9v-41 q0 -9 -9 -9t-9 9zM140 369v41q0 9 9 9t9 -9v-41q0 -9 -9 -9t-9 9zM140 429v41q0 9 9 9t9 -9v-41q0 -9 -9 -9t-9 9zM140 489v41q0 9 9 9t9 -9v-41q0 -9 -9 -9t-9 9zM80 69v41q0 9 9 9t9 -9v-41q0 -9 -9 -9t-9 9zM80 129v41q0 9 9 9t9 -9v-41q0 -9 -9 -9t-9 9zM80 189v41 q0 9 9 9t9 -9v-41q0 -9 -9 -9t-9 9zM80 249v41q0 9 9 9t9 -9v-41q0 -9 -9 -9t-9 9zM80 309v41q0 9 9 9t9 -9v-41q0 -9 -9 -9t-9 9zM80 369v41q0 9 9 9t9 -9v-41q0 -9 -9 -9t-9 9zM80 429v41q0 9 9 9t9 -9v-41q0 -9 -9 -9t-9 9zM200 489v41q0 9 9 9t9 -9v-41q0 -9 -9 -9t-9 9 zM320 9v41q0 9 9 9t9 -9v-41q0 -9 -9 -9t-9 9zM380 69v41q0 9 9 9t9 -9v-41q0 -9 -9 -9t-9 9zM380 129v41q0 9 9 9t9 -9v-41q0 -9 -9 -9t-9 9zM380 189v41q0 9 9 9t9 -9v-41q0 -9 -9 -9t-9 9zM380 249v41q0 9 9 9t9 -9v-41q0 -9 -9 -9t-9 9zM380 309v41q0 9 9 9t9 -9v-41 q0 -9 -9 -9t-9 9zM380 369v41q0 9 9 9t9 -9v-41q0 -9 -9 -9t-9 9zM380 429v41q0 9 9 9t9 -9v-41q0 -9 -9 -9t-9 9zM260 489v41q0 9 9 9t9 -9v-41q0 -9 -9 -9t-9 9zM320 69v41q0 9 9 9t9 -9v-41q0 -9 -9 -9t-9 9zM320 129v41q0 9 9 9t9 -9v-41q0 -9 -9 -9t-9 9zM320 189v41 q0 9 9 9t9 -9v-41q0 -9 -9 -9t-9 9zM320 249v41q0 9 9 9t9 -9v-41q0 -9 -9 -9t-9 9zM320 309v41q0 9 9 9t9 -9v-41q0 -9 -9 -9t-9 9zM320 369v41q0 9 9 9t9 -9v-41q0 -9 -9 -9t-9 9zM320 429v41q0 9 9 9t9 -9v-41q0 -9 -9 -9t-9 9zM320 489v41q0 9 9 9t9 -9v-41q0 -9 -9 -9 t-9 9zM260 9v41q0 9 9 9t9 -9v-41q0 -9 -9 -9t-9 9zM200 9v41q0 9 9 9t9 -9v-41q0 -9 -9 -9t-9 9zM260 669v41q0 9 9 9t9 -9v-41q0 -9 -9 -9t-9 9zM200 609v41q0 9 9 9t9 -9v-41q0 -9 -9 -9t-9 9z" />
<glyph unicode="&#xd4;" d="M140 9v41q0 9 9 9t9 -9v-41q0 -9 -9 -9t-9 9zM140 69v41q0 9 9 9t9 -9v-41q0 -9 -9 -9t-9 9zM140 129v41q0 9 9 9t9 -9v-41q0 -9 -9 -9t-9 9zM140 189v41q0 9 9 9t9 -9v-41q0 -9 -9 -9t-9 9zM140 249v41q0 9 9 9t9 -9v-41q0 -9 -9 -9t-9 9zM140 309v41q0 9 9 9t9 -9v-41 q0 -9 -9 -9t-9 9zM140 369v41q0 9 9 9t9 -9v-41q0 -9 -9 -9t-9 9zM140 429v41q0 9 9 9t9 -9v-41q0 -9 -9 -9t-9 9zM140 489v41q0 9 9 9t9 -9v-41q0 -9 -9 -9t-9 9zM80 69v41q0 9 9 9t9 -9v-41q0 -9 -9 -9t-9 9zM80 129v41q0 9 9 9t9 -9v-41q0 -9 -9 -9t-9 9zM80 189v41 q0 9 9 9t9 -9v-41q0 -9 -9 -9t-9 9zM80 249v41q0 9 9 9t9 -9v-41q0 -9 -9 -9t-9 9zM80 309v41q0 9 9 9t9 -9v-41q0 -9 -9 -9t-9 9zM80 369v41q0 9 9 9t9 -9v-41q0 -9 -9 -9t-9 9zM80 429v41q0 9 9 9t9 -9v-41q0 -9 -9 -9t-9 9zM200 489v41q0 9 9 9t9 -9v-41q0 -9 -9 -9t-9 9 zM320 9v41q0 9 9 9t9 -9v-41q0 -9 -9 -9t-9 9zM380 69v41q0 9 9 9t9 -9v-41q0 -9 -9 -9t-9 9zM380 129v41q0 9 9 9t9 -9v-41q0 -9 -9 -9t-9 9zM380 189v41q0 9 9 9t9 -9v-41q0 -9 -9 -9t-9 9zM380 249v41q0 9 9 9t9 -9v-41q0 -9 -9 -9t-9 9zM380 309v41q0 9 9 9t9 -9v-41 q0 -9 -9 -9t-9 9zM380 369v41q0 9 9 9t9 -9v-41q0 -9 -9 -9t-9 9zM380 429v41q0 9 9 9t9 -9v-41q0 -9 -9 -9t-9 9zM260 489v41q0 9 9 9t9 -9v-41q0 -9 -9 -9t-9 9zM320 69v41q0 9 9 9t9 -9v-41q0 -9 -9 -9t-9 9zM320 129v41q0 9 9 9t9 -9v-41q0 -9 -9 -9t-9 9zM320 189v41 q0 9 9 9t9 -9v-41q0 -9 -9 -9t-9 9zM320 249v41q0 9 9 9t9 -9v-41q0 -9 -9 -9t-9 9zM320 309v41q0 9 9 9t9 -9v-41q0 -9 -9 -9t-9 9zM320 369v41q0 9 9 9t9 -9v-41q0 -9 -9 -9t-9 9zM320 429v41q0 9 9 9t9 -9v-41q0 -9 -9 -9t-9 9zM320 489v41q0 9 9 9t9 -9v-41q0 -9 -9 -9 t-9 9zM260 9v41q0 9 9 9t9 -9v-41q0 -9 -9 -9t-9 9zM200 9v41q0 9 9 9t9 -9v-41q0 -9 -9 -9t-9 9zM140 609v41q0 9 9 9t9 -9v-41q0 -9 -9 -9t-9 9zM200 669v41q0 9 9 9t9 -9v-41q0 -9 -9 -9t-9 9zM260 669v41q0 9 9 9t9 -9v-41q0 -9 -9 -9t-9 9zM320 609v41q0 9 9 9t9 -9 v-41q0 -9 -9 -9t-9 9z" />
<glyph unicode="&#xd5;" d="M140 9v41q0 9 9 9t9 -9v-41q0 -9 -9 -9t-9 9zM140 69v41q0 9 9 9t9 -9v-41q0 -9 -9 -9t-9 9zM140 129v41q0 9 9 9t9 -9v-41q0 -9 -9 -9t-9 9zM140 189v41q0 9 9 9t9 -9v-41q0 -9 -9 -9t-9 9zM140 249v41q0 9 9 9t9 -9v-41q0 -9 -9 -9t-9 9zM140 309v41q0 9 9 9t9 -9v-41 q0 -9 -9 -9t-9 9zM140 369v41q0 9 9 9t9 -9v-41q0 -9 -9 -9t-9 9zM140 429v41q0 9 9 9t9 -9v-41q0 -9 -9 -9t-9 9zM140 489v41q0 9 9 9t9 -9v-41q0 -9 -9 -9t-9 9zM80 69v41q0 9 9 9t9 -9v-41q0 -9 -9 -9t-9 9zM80 129v41q0 9 9 9t9 -9v-41q0 -9 -9 -9t-9 9zM80 189v41 q0 9 9 9t9 -9v-41q0 -9 -9 -9t-9 9zM80 249v41q0 9 9 9t9 -9v-41q0 -9 -9 -9t-9 9zM80 309v41q0 9 9 9t9 -9v-41q0 -9 -9 -9t-9 9zM80 369v41q0 9 9 9t9 -9v-41q0 -9 -9 -9t-9 9zM80 429v41q0 9 9 9t9 -9v-41q0 -9 -9 -9t-9 9zM200 489v41q0 9 9 9t9 -9v-41q0 -9 -9 -9t-9 9 zM320 9v41q0 9 9 9t9 -9v-41q0 -9 -9 -9t-9 9zM380 69v41q0 9 9 9t9 -9v-41q0 -9 -9 -9t-9 9zM380 129v41q0 9 9 9t9 -9v-41q0 -9 -9 -9t-9 9zM380 189v41q0 9 9 9t9 -9v-41q0 -9 -9 -9t-9 9zM380 249v41q0 9 9 9t9 -9v-41q0 -9 -9 -9t-9 9zM380 309v41q0 9 9 9t9 -9v-41 q0 -9 -9 -9t-9 9zM380 369v41q0 9 9 9t9 -9v-41q0 -9 -9 -9t-9 9zM380 429v41q0 9 9 9t9 -9v-41q0 -9 -9 -9t-9 9zM260 489v41q0 9 9 9t9 -9v-41q0 -9 -9 -9t-9 9zM320 69v41q0 9 9 9t9 -9v-41q0 -9 -9 -9t-9 9zM320 129v41q0 9 9 9t9 -9v-41q0 -9 -9 -9t-9 9zM320 189v41 q0 9 9 9t9 -9v-41q0 -9 -9 -9t-9 9zM320 249v41q0 9 9 9t9 -9v-41q0 -9 -9 -9t-9 9zM320 309v41q0 9 9 9t9 -9v-41q0 -9 -9 -9t-9 9zM320 369v41q0 9 9 9t9 -9v-41q0 -9 -9 -9t-9 9zM320 429v41q0 9 9 9t9 -9v-41q0 -9 -9 -9t-9 9zM320 489v41q0 9 9 9t9 -9v-41q0 -9 -9 -9 t-9 9zM260 9v41q0 9 9 9t9 -9v-41q0 -9 -9 -9t-9 9zM200 9v41q0 9 9 9t9 -9v-41q0 -9 -9 -9t-9 9zM80 609v41q0 9 9 9t9 -9v-41q0 -9 -9 -9t-9 9zM140 669v41q0 9 9 9t9 -9v-41q0 -9 -9 -9t-9 9zM200 669v41q0 9 9 9t9 -9v-41q0 -9 -9 -9t-9 9zM260 609v41q0 9 9 9t9 -9v-41 q0 -9 -9 -9t-9 9zM320 609v41q0 9 9 9t9 -9v-41q0 -9 -9 -9t-9 9zM380 669v41q0 9 9 9t9 -9v-41q0 -9 -9 -9t-9 9z" />
<glyph unicode="&#xd6;" d="M140 9v41q0 9 9 9t9 -9v-41q0 -9 -9 -9t-9 9zM140 69v41q0 9 9 9t9 -9v-41q0 -9 -9 -9t-9 9zM140 129v41q0 9 9 9t9 -9v-41q0 -9 -9 -9t-9 9zM140 189v41q0 9 9 9t9 -9v-41q0 -9 -9 -9t-9 9zM140 249v41q0 9 9 9t9 -9v-41q0 -9 -9 -9t-9 9zM140 309v41q0 9 9 9t9 -9v-41 q0 -9 -9 -9t-9 9zM140 369v41q0 9 9 9t9 -9v-41q0 -9 -9 -9t-9 9zM140 429v41q0 9 9 9t9 -9v-41q0 -9 -9 -9t-9 9zM140 489v41q0 9 9 9t9 -9v-41q0 -9 -9 -9t-9 9zM80 69v41q0 9 9 9t9 -9v-41q0 -9 -9 -9t-9 9zM80 129v41q0 9 9 9t9 -9v-41q0 -9 -9 -9t-9 9zM80 189v41 q0 9 9 9t9 -9v-41q0 -9 -9 -9t-9 9zM80 249v41q0 9 9 9t9 -9v-41q0 -9 -9 -9t-9 9zM80 309v41q0 9 9 9t9 -9v-41q0 -9 -9 -9t-9 9zM80 369v41q0 9 9 9t9 -9v-41q0 -9 -9 -9t-9 9zM80 429v41q0 9 9 9t9 -9v-41q0 -9 -9 -9t-9 9zM200 489v41q0 9 9 9t9 -9v-41q0 -9 -9 -9t-9 9 zM320 9v41q0 9 9 9t9 -9v-41q0 -9 -9 -9t-9 9zM380 69v41q0 9 9 9t9 -9v-41q0 -9 -9 -9t-9 9zM380 129v41q0 9 9 9t9 -9v-41q0 -9 -9 -9t-9 9zM380 189v41q0 9 9 9t9 -9v-41q0 -9 -9 -9t-9 9zM380 249v41q0 9 9 9t9 -9v-41q0 -9 -9 -9t-9 9zM380 309v41q0 9 9 9t9 -9v-41 q0 -9 -9 -9t-9 9zM380 369v41q0 9 9 9t9 -9v-41q0 -9 -9 -9t-9 9zM380 429v41q0 9 9 9t9 -9v-41q0 -9 -9 -9t-9 9zM260 489v41q0 9 9 9t9 -9v-41q0 -9 -9 -9t-9 9zM320 69v41q0 9 9 9t9 -9v-41q0 -9 -9 -9t-9 9zM320 129v41q0 9 9 9t9 -9v-41q0 -9 -9 -9t-9 9zM320 189v41 q0 9 9 9t9 -9v-41q0 -9 -9 -9t-9 9zM320 249v41q0 9 9 9t9 -9v-41q0 -9 -9 -9t-9 9zM320 309v41q0 9 9 9t9 -9v-41q0 -9 -9 -9t-9 9zM320 369v41q0 9 9 9t9 -9v-41q0 -9 -9 -9t-9 9zM320 429v41q0 9 9 9t9 -9v-41q0 -9 -9 -9t-9 9zM320 489v41q0 9 9 9t9 -9v-41q0 -9 -9 -9 t-9 9zM260 9v41q0 9 9 9t9 -9v-41q0 -9 -9 -9t-9 9zM200 9v41q0 9 9 9t9 -9v-41q0 -9 -9 -9t-9 9zM320 609v41q0 9 9 9t9 -9v-41q0 -9 -9 -9t-9 9zM140 609v41q0 9 9 9t9 -9v-41q0 -9 -9 -9t-9 9z" />
<glyph unicode="&#xd7;" d="M158 170v-41q0 -9 -9 -9t-9 9v41q0 9 9 9t9 -9zM98 110v-41q0 -9 -9 -9t-9 9v41q0 9 9 9t9 -9zM218 230v-41q0 -9 -9 -9t-9 9v41q0 9 9 9t9 -9zM338 230v-41q0 -9 -9 -9t-9 9v41q0 9 9 9t9 -9zM398 170v-41q0 -9 -9 -9t-9 9v41q0 9 9 9t9 -9zM458 110v-41q0 -9 -9 -9 t-9 9v41q0 9 9 9t9 -9zM158 410v-41q0 -9 -9 -9t-9 9v41q0 9 9 9t9 -9zM98 470v-41q0 -9 -9 -9t-9 9v41q0 9 9 9t9 -9zM278 290v-41q0 -9 -9 -9t-9 9v41q0 9 9 9t9 -9zM218 350v-41q0 -9 -9 -9t-9 9v41q0 9 9 9t9 -9zM338 350v-41q0 -9 -9 -9t-9 9v41q0 9 9 9t9 -9zM398 410 v-41q0 -9 -9 -9t-9 9v41q0 9 9 9t9 -9zM458 470v-41q0 -9 -9 -9t-9 9v41q0 9 9 9t9 -9z" />
<glyph unicode="&#xd8;" d="M140 9v41q0 9 9 9t9 -9v-41q0 -9 -9 -9t-9 9zM140 69v41q0 9 9 9t9 -9v-41q0 -9 -9 -9t-9 9zM140 129v41q0 9 9 9t9 -9v-41q0 -9 -9 -9t-9 9zM140 189v41q0 9 9 9t9 -9v-41q0 -9 -9 -9t-9 9zM140 249v41q0 9 9 9t9 -9v-41q0 -9 -9 -9t-9 9zM140 309v41q0 9 9 9t9 -9v-41 q0 -9 -9 -9t-9 9zM140 369v41q0 9 9 9t9 -9v-41q0 -9 -9 -9t-9 9zM140 429v41q0 9 9 9t9 -9v-41q0 -9 -9 -9t-9 9zM140 489v41q0 9 9 9t9 -9v-41q0 -9 -9 -9t-9 9zM80 69v41q0 9 9 9t9 -9v-41q0 -9 -9 -9t-9 9zM80 129v41q0 9 9 9t9 -9v-41q0 -9 -9 -9t-9 9zM80 189v41 q0 9 9 9t9 -9v-41q0 -9 -9 -9t-9 9zM80 249v41q0 9 9 9t9 -9v-41q0 -9 -9 -9t-9 9zM80 309v41q0 9 9 9t9 -9v-41q0 -9 -9 -9t-9 9zM80 369v41q0 9 9 9t9 -9v-41q0 -9 -9 -9t-9 9zM80 429v41q0 9 9 9t9 -9v-41q0 -9 -9 -9t-9 9zM200 489v41q0 9 9 9t9 -9v-41q0 -9 -9 -9t-9 9 zM320 9v41q0 9 9 9t9 -9v-41q0 -9 -9 -9t-9 9zM380 69v41q0 9 9 9t9 -9v-41q0 -9 -9 -9t-9 9zM380 129v41q0 9 9 9t9 -9v-41q0 -9 -9 -9t-9 9zM380 189v41q0 9 9 9t9 -9v-41q0 -9 -9 -9t-9 9zM380 249v41q0 9 9 9t9 -9v-41q0 -9 -9 -9t-9 9zM380 309v41q0 9 9 9t9 -9v-41 q0 -9 -9 -9t-9 9zM380 369v41q0 9 9 9t9 -9v-41q0 -9 -9 -9t-9 9zM380 429v41q0 9 9 9t9 -9v-41q0 -9 -9 -9t-9 9zM260 489v41q0 9 9 9t9 -9v-41q0 -9 -9 -9t-9 9zM320 69v41q0 9 9 9t9 -9v-41q0 -9 -9 -9t-9 9zM320 129v41q0 9 9 9t9 -9v-41q0 -9 -9 -9t-9 9zM320 189v41 q0 9 9 9t9 -9v-41q0 -9 -9 -9t-9 9zM320 249v41q0 9 9 9t9 -9v-41q0 -9 -9 -9t-9 9zM320 309v41q0 9 9 9t9 -9v-41q0 -9 -9 -9t-9 9zM320 369v41q0 9 9 9t9 -9v-41q0 -9 -9 -9t-9 9zM320 429v41q0 9 9 9t9 -9v-41q0 -9 -9 -9t-9 9zM320 489v41q0 9 9 9t9 -9v-41q0 -9 -9 -9 t-9 9zM260 9v41q0 9 9 9t9 -9v-41q0 -9 -9 -9t-9 9zM200 9v41q0 9 9 9t9 -9v-41q0 -9 -9 -9t-9 9zM200 249v41q0 9 9 9t9 -9v-41q0 -9 -9 -9t-9 9zM260 309v41q0 9 9 9t9 -9v-41q0 -9 -9 -9t-9 9zM20 69v41q0 9 9 9t9 -9v-41q0 -9 -9 -9t-9 9zM-40 9v41q0 9 9 9t9 -9v-41 q0 -9 -9 -9t-9 9zM440 489v41q0 9 9 9t9 -9v-41q0 -9 -9 -9t-9 9z" />
<glyph unicode="&#xd9;" d="M140 9v41q0 9 9 9t9 -9v-41q0 -9 -9 -9t-9 9zM140 69v41q0 9 9 9t9 -9v-41q0 -9 -9 -9t-9 9zM140 129v41q0 9 9 9t9 -9v-41q0 -9 -9 -9t-9 9zM140 189v41q0 9 9 9t9 -9v-41q0 -9 -9 -9t-9 9zM140 249v41q0 9 9 9t9 -9v-41q0 -9 -9 -9t-9 9zM140 309v41q0 9 9 9t9 -9v-41 q0 -9 -9 -9t-9 9zM140 369v41q0 9 9 9t9 -9v-41q0 -9 -9 -9t-9 9zM140 429v41q0 9 9 9t9 -9v-41q0 -9 -9 -9t-9 9zM140 489v41q0 9 9 9t9 -9v-41q0 -9 -9 -9t-9 9zM80 69v41q0 9 9 9t9 -9v-41q0 -9 -9 -9t-9 9zM80 129v41q0 9 9 9t9 -9v-41q0 -9 -9 -9t-9 9zM80 189v41 q0 9 9 9t9 -9v-41q0 -9 -9 -9t-9 9zM80 249v41q0 9 9 9t9 -9v-41q0 -9 -9 -9t-9 9zM80 309v41q0 9 9 9t9 -9v-41q0 -9 -9 -9t-9 9zM80 369v41q0 9 9 9t9 -9v-41q0 -9 -9 -9t-9 9zM80 429v41q0 9 9 9t9 -9v-41q0 -9 -9 -9t-9 9zM80 489v41q0 9 9 9t9 -9v-41q0 -9 -9 -9t-9 9z M320 9v41q0 9 9 9t9 -9v-41q0 -9 -9 -9t-9 9zM380 69v41q0 9 9 9t9 -9v-41q0 -9 -9 -9t-9 9zM380 129v41q0 9 9 9t9 -9v-41q0 -9 -9 -9t-9 9zM380 189v41q0 9 9 9t9 -9v-41q0 -9 -9 -9t-9 9zM380 249v41q0 9 9 9t9 -9v-41q0 -9 -9 -9t-9 9zM380 309v41q0 9 9 9t9 -9v-41 q0 -9 -9 -9t-9 9zM380 369v41q0 9 9 9t9 -9v-41q0 -9 -9 -9t-9 9zM380 429v41q0 9 9 9t9 -9v-41q0 -9 -9 -9t-9 9zM380 489v41q0 9 9 9t9 -9v-41q0 -9 -9 -9t-9 9zM320 69v41q0 9 9 9t9 -9v-41q0 -9 -9 -9t-9 9zM320 129v41q0 9 9 9t9 -9v-41q0 -9 -9 -9t-9 9zM320 189v41 q0 9 9 9t9 -9v-41q0 -9 -9 -9t-9 9zM320 249v41q0 9 9 9t9 -9v-41q0 -9 -9 -9t-9 9zM320 309v41q0 9 9 9t9 -9v-41q0 -9 -9 -9t-9 9zM320 369v41q0 9 9 9t9 -9v-41q0 -9 -9 -9t-9 9zM320 429v41q0 9 9 9t9 -9v-41q0 -9 -9 -9t-9 9zM320 489v41q0 9 9 9t9 -9v-41q0 -9 -9 -9 t-9 9zM260 9v41q0 9 9 9t9 -9v-41q0 -9 -9 -9t-9 9zM200 9v41q0 9 9 9t9 -9v-41q0 -9 -9 -9t-9 9zM218 710v-41q0 -9 -9 -9t-9 9v41q0 9 9 9t9 -9zM278 650v-41q0 -9 -9 -9t-9 9v41q0 9 9 9t9 -9z" />
<glyph unicode="&#xda;" d="M140 9v41q0 9 9 9t9 -9v-41q0 -9 -9 -9t-9 9zM140 69v41q0 9 9 9t9 -9v-41q0 -9 -9 -9t-9 9zM140 129v41q0 9 9 9t9 -9v-41q0 -9 -9 -9t-9 9zM140 189v41q0 9 9 9t9 -9v-41q0 -9 -9 -9t-9 9zM140 249v41q0 9 9 9t9 -9v-41q0 -9 -9 -9t-9 9zM140 309v41q0 9 9 9t9 -9v-41 q0 -9 -9 -9t-9 9zM140 369v41q0 9 9 9t9 -9v-41q0 -9 -9 -9t-9 9zM140 429v41q0 9 9 9t9 -9v-41q0 -9 -9 -9t-9 9zM140 489v41q0 9 9 9t9 -9v-41q0 -9 -9 -9t-9 9zM80 69v41q0 9 9 9t9 -9v-41q0 -9 -9 -9t-9 9zM80 129v41q0 9 9 9t9 -9v-41q0 -9 -9 -9t-9 9zM80 189v41 q0 9 9 9t9 -9v-41q0 -9 -9 -9t-9 9zM80 249v41q0 9 9 9t9 -9v-41q0 -9 -9 -9t-9 9zM80 309v41q0 9 9 9t9 -9v-41q0 -9 -9 -9t-9 9zM80 369v41q0 9 9 9t9 -9v-41q0 -9 -9 -9t-9 9zM80 429v41q0 9 9 9t9 -9v-41q0 -9 -9 -9t-9 9zM80 489v41q0 9 9 9t9 -9v-41q0 -9 -9 -9t-9 9z M320 9v41q0 9 9 9t9 -9v-41q0 -9 -9 -9t-9 9zM380 69v41q0 9 9 9t9 -9v-41q0 -9 -9 -9t-9 9zM380 129v41q0 9 9 9t9 -9v-41q0 -9 -9 -9t-9 9zM380 189v41q0 9 9 9t9 -9v-41q0 -9 -9 -9t-9 9zM380 249v41q0 9 9 9t9 -9v-41q0 -9 -9 -9t-9 9zM380 309v41q0 9 9 9t9 -9v-41 q0 -9 -9 -9t-9 9zM380 369v41q0 9 9 9t9 -9v-41q0 -9 -9 -9t-9 9zM380 429v41q0 9 9 9t9 -9v-41q0 -9 -9 -9t-9 9zM380 489v41q0 9 9 9t9 -9v-41q0 -9 -9 -9t-9 9zM320 69v41q0 9 9 9t9 -9v-41q0 -9 -9 -9t-9 9zM320 129v41q0 9 9 9t9 -9v-41q0 -9 -9 -9t-9 9zM320 189v41 q0 9 9 9t9 -9v-41q0 -9 -9 -9t-9 9zM320 249v41q0 9 9 9t9 -9v-41q0 -9 -9 -9t-9 9zM320 309v41q0 9 9 9t9 -9v-41q0 -9 -9 -9t-9 9zM320 369v41q0 9 9 9t9 -9v-41q0 -9 -9 -9t-9 9zM320 429v41q0 9 9 9t9 -9v-41q0 -9 -9 -9t-9 9zM320 489v41q0 9 9 9t9 -9v-41q0 -9 -9 -9 t-9 9zM260 9v41q0 9 9 9t9 -9v-41q0 -9 -9 -9t-9 9zM200 9v41q0 9 9 9t9 -9v-41q0 -9 -9 -9t-9 9zM260 669v41q0 9 9 9t9 -9v-41q0 -9 -9 -9t-9 9zM200 609v41q0 9 9 9t9 -9v-41q0 -9 -9 -9t-9 9z" />
<glyph unicode="&#xdb;" d="M140 9v41q0 9 9 9t9 -9v-41q0 -9 -9 -9t-9 9zM140 69v41q0 9 9 9t9 -9v-41q0 -9 -9 -9t-9 9zM140 129v41q0 9 9 9t9 -9v-41q0 -9 -9 -9t-9 9zM140 189v41q0 9 9 9t9 -9v-41q0 -9 -9 -9t-9 9zM140 249v41q0 9 9 9t9 -9v-41q0 -9 -9 -9t-9 9zM140 309v41q0 9 9 9t9 -9v-41 q0 -9 -9 -9t-9 9zM140 369v41q0 9 9 9t9 -9v-41q0 -9 -9 -9t-9 9zM140 429v41q0 9 9 9t9 -9v-41q0 -9 -9 -9t-9 9zM140 489v41q0 9 9 9t9 -9v-41q0 -9 -9 -9t-9 9zM80 69v41q0 9 9 9t9 -9v-41q0 -9 -9 -9t-9 9zM80 129v41q0 9 9 9t9 -9v-41q0 -9 -9 -9t-9 9zM80 189v41 q0 9 9 9t9 -9v-41q0 -9 -9 -9t-9 9zM80 249v41q0 9 9 9t9 -9v-41q0 -9 -9 -9t-9 9zM80 309v41q0 9 9 9t9 -9v-41q0 -9 -9 -9t-9 9zM80 369v41q0 9 9 9t9 -9v-41q0 -9 -9 -9t-9 9zM80 429v41q0 9 9 9t9 -9v-41q0 -9 -9 -9t-9 9zM80 489v41q0 9 9 9t9 -9v-41q0 -9 -9 -9t-9 9z M320 9v41q0 9 9 9t9 -9v-41q0 -9 -9 -9t-9 9zM380 69v41q0 9 9 9t9 -9v-41q0 -9 -9 -9t-9 9zM380 129v41q0 9 9 9t9 -9v-41q0 -9 -9 -9t-9 9zM380 189v41q0 9 9 9t9 -9v-41q0 -9 -9 -9t-9 9zM380 249v41q0 9 9 9t9 -9v-41q0 -9 -9 -9t-9 9zM380 309v41q0 9 9 9t9 -9v-41 q0 -9 -9 -9t-9 9zM380 369v41q0 9 9 9t9 -9v-41q0 -9 -9 -9t-9 9zM380 429v41q0 9 9 9t9 -9v-41q0 -9 -9 -9t-9 9zM380 489v41q0 9 9 9t9 -9v-41q0 -9 -9 -9t-9 9zM320 69v41q0 9 9 9t9 -9v-41q0 -9 -9 -9t-9 9zM320 129v41q0 9 9 9t9 -9v-41q0 -9 -9 -9t-9 9zM320 189v41 q0 9 9 9t9 -9v-41q0 -9 -9 -9t-9 9zM320 249v41q0 9 9 9t9 -9v-41q0 -9 -9 -9t-9 9zM320 309v41q0 9 9 9t9 -9v-41q0 -9 -9 -9t-9 9zM320 369v41q0 9 9 9t9 -9v-41q0 -9 -9 -9t-9 9zM320 429v41q0 9 9 9t9 -9v-41q0 -9 -9 -9t-9 9zM320 489v41q0 9 9 9t9 -9v-41q0 -9 -9 -9 t-9 9zM260 9v41q0 9 9 9t9 -9v-41q0 -9 -9 -9t-9 9zM200 9v41q0 9 9 9t9 -9v-41q0 -9 -9 -9t-9 9zM140 609v41q0 9 9 9t9 -9v-41q0 -9 -9 -9t-9 9zM200 669v41q0 9 9 9t9 -9v-41q0 -9 -9 -9t-9 9zM260 669v41q0 9 9 9t9 -9v-41q0 -9 -9 -9t-9 9zM320 609v41q0 9 9 9t9 -9 v-41q0 -9 -9 -9t-9 9z" />
<glyph unicode="&#xdc;" d="M140 9v41q0 9 9 9t9 -9v-41q0 -9 -9 -9t-9 9zM140 69v41q0 9 9 9t9 -9v-41q0 -9 -9 -9t-9 9zM140 129v41q0 9 9 9t9 -9v-41q0 -9 -9 -9t-9 9zM140 189v41q0 9 9 9t9 -9v-41q0 -9 -9 -9t-9 9zM140 249v41q0 9 9 9t9 -9v-41q0 -9 -9 -9t-9 9zM140 309v41q0 9 9 9t9 -9v-41 q0 -9 -9 -9t-9 9zM140 369v41q0 9 9 9t9 -9v-41q0 -9 -9 -9t-9 9zM140 429v41q0 9 9 9t9 -9v-41q0 -9 -9 -9t-9 9zM140 489v41q0 9 9 9t9 -9v-41q0 -9 -9 -9t-9 9zM80 69v41q0 9 9 9t9 -9v-41q0 -9 -9 -9t-9 9zM80 129v41q0 9 9 9t9 -9v-41q0 -9 -9 -9t-9 9zM80 189v41 q0 9 9 9t9 -9v-41q0 -9 -9 -9t-9 9zM80 249v41q0 9 9 9t9 -9v-41q0 -9 -9 -9t-9 9zM80 309v41q0 9 9 9t9 -9v-41q0 -9 -9 -9t-9 9zM80 369v41q0 9 9 9t9 -9v-41q0 -9 -9 -9t-9 9zM80 429v41q0 9 9 9t9 -9v-41q0 -9 -9 -9t-9 9zM80 489v41q0 9 9 9t9 -9v-41q0 -9 -9 -9t-9 9z M320 9v41q0 9 9 9t9 -9v-41q0 -9 -9 -9t-9 9zM380 69v41q0 9 9 9t9 -9v-41q0 -9 -9 -9t-9 9zM380 129v41q0 9 9 9t9 -9v-41q0 -9 -9 -9t-9 9zM380 189v41q0 9 9 9t9 -9v-41q0 -9 -9 -9t-9 9zM380 249v41q0 9 9 9t9 -9v-41q0 -9 -9 -9t-9 9zM380 309v41q0 9 9 9t9 -9v-41 q0 -9 -9 -9t-9 9zM380 369v41q0 9 9 9t9 -9v-41q0 -9 -9 -9t-9 9zM380 429v41q0 9 9 9t9 -9v-41q0 -9 -9 -9t-9 9zM380 489v41q0 9 9 9t9 -9v-41q0 -9 -9 -9t-9 9zM320 69v41q0 9 9 9t9 -9v-41q0 -9 -9 -9t-9 9zM320 129v41q0 9 9 9t9 -9v-41q0 -9 -9 -9t-9 9zM320 189v41 q0 9 9 9t9 -9v-41q0 -9 -9 -9t-9 9zM320 249v41q0 9 9 9t9 -9v-41q0 -9 -9 -9t-9 9zM320 309v41q0 9 9 9t9 -9v-41q0 -9 -9 -9t-9 9zM320 369v41q0 9 9 9t9 -9v-41q0 -9 -9 -9t-9 9zM320 429v41q0 9 9 9t9 -9v-41q0 -9 -9 -9t-9 9zM320 489v41q0 9 9 9t9 -9v-41q0 -9 -9 -9 t-9 9zM260 9v41q0 9 9 9t9 -9v-41q0 -9 -9 -9t-9 9zM200 9v41q0 9 9 9t9 -9v-41q0 -9 -9 -9t-9 9zM320 609v41q0 9 9 9t9 -9v-41q0 -9 -9 -9t-9 9zM140 609v41q0 9 9 9t9 -9v-41q0 -9 -9 -9t-9 9z" />
<glyph unicode="&#xdd;" d="M140 249v41q0 9 9 9t9 -9v-41q0 -9 -9 -9t-9 9zM140 309v41q0 9 9 9t9 -9v-41q0 -9 -9 -9t-9 9zM140 369v41q0 9 9 9t9 -9v-41q0 -9 -9 -9t-9 9zM140 429v41q0 9 9 9t9 -9v-41q0 -9 -9 -9t-9 9zM140 489v41q0 9 9 9t9 -9v-41q0 -9 -9 -9t-9 9zM80 309v41q0 9 9 9t9 -9 v-41q0 -9 -9 -9t-9 9zM80 369v41q0 9 9 9t9 -9v-41q0 -9 -9 -9t-9 9zM80 429v41q0 9 9 9t9 -9v-41q0 -9 -9 -9t-9 9zM80 489v41q0 9 9 9t9 -9v-41q0 -9 -9 -9t-9 9zM320 249v41q0 9 9 9t9 -9v-41q0 -9 -9 -9t-9 9zM380 309v41q0 9 9 9t9 -9v-41q0 -9 -9 -9t-9 9zM380 369v41 q0 9 9 9t9 -9v-41q0 -9 -9 -9t-9 9zM380 429v41q0 9 9 9t9 -9v-41q0 -9 -9 -9t-9 9zM380 489v41q0 9 9 9t9 -9v-41q0 -9 -9 -9t-9 9zM320 309v41q0 9 9 9t9 -9v-41q0 -9 -9 -9t-9 9zM320 369v41q0 9 9 9t9 -9v-41q0 -9 -9 -9t-9 9zM320 429v41q0 9 9 9t9 -9v-41q0 -9 -9 -9 t-9 9zM320 489v41q0 9 9 9t9 -9v-41q0 -9 -9 -9t-9 9zM260 249v41q0 9 9 9t9 -9v-41q0 -9 -9 -9t-9 9zM200 249v41q0 9 9 9t9 -9v-41q0 -9 -9 -9t-9 9zM260 189v41q0 9 9 9t9 -9v-41q0 -9 -9 -9t-9 9zM200 189v41q0 9 9 9t9 -9v-41q0 -9 -9 -9t-9 9zM260 129v41q0 9 9 9 t9 -9v-41q0 -9 -9 -9t-9 9zM200 129v41q0 9 9 9t9 -9v-41q0 -9 -9 -9t-9 9zM260 69v41q0 9 9 9t9 -9v-41q0 -9 -9 -9t-9 9zM200 69v41q0 9 9 9t9 -9v-41q0 -9 -9 -9t-9 9zM260 9v41q0 9 9 9t9 -9v-41q0 -9 -9 -9t-9 9zM200 9v41q0 9 9 9t9 -9v-41q0 -9 -9 -9t-9 9zM260 669 v41q0 9 9 9t9 -9v-41q0 -9 -9 -9t-9 9zM200 609v41q0 9 9 9t9 -9v-41q0 -9 -9 -9t-9 9z" />
<glyph unicode="&#xde;" d="M338 530v-41q0 -9 -9 -9t-9 9v41q0 9 9 9t9 -9zM338 470v-41q0 -9 -9 -9t-9 9v41q0 9 9 9t9 -9zM338 410v-41q0 -9 -9 -9t-9 9v41q0 9 9 9t9 -9zM338 350v-41q0 -9 -9 -9t-9 9v41q0 9 9 9t9 -9zM338 290v-41q0 -9 -9 -9t-9 9v41q0 9 9 9t9 -9zM398 470v-41q0 -9 -9 -9 t-9 9v41q0 9 9 9t9 -9zM398 410v-41q0 -9 -9 -9t-9 9v41q0 9 9 9t9 -9zM398 350v-41q0 -9 -9 -9t-9 9v41q0 9 9 9t9 -9zM98 530v-41q0 -9 -9 -9t-9 9v41q0 9 9 9t9 -9zM158 530v-41q0 -9 -9 -9t-9 9v41q0 9 9 9t9 -9zM98 470v-41q0 -9 -9 -9t-9 9v41q0 9 9 9t9 -9zM98 410 v-41q0 -9 -9 -9t-9 9v41q0 9 9 9t9 -9zM98 350v-41q0 -9 -9 -9t-9 9v41q0 9 9 9t9 -9zM98 290v-41q0 -9 -9 -9t-9 9v41q0 9 9 9t9 -9zM98 230v-41q0 -9 -9 -9t-9 9v41q0 9 9 9t9 -9zM98 170v-41q0 -9 -9 -9t-9 9v41q0 9 9 9t9 -9zM98 110v-41q0 -9 -9 -9t-9 9v41q0 9 9 9 t9 -9zM98 50v-41q0 -9 -9 -9t-9 9v41q0 9 9 9t9 -9zM158 470v-41q0 -9 -9 -9t-9 9v41q0 9 9 9t9 -9zM158 410v-41q0 -9 -9 -9t-9 9v41q0 9 9 9t9 -9zM158 350v-41q0 -9 -9 -9t-9 9v41q0 9 9 9t9 -9zM158 290v-41q0 -9 -9 -9t-9 9v41q0 9 9 9t9 -9zM158 230v-41q0 -9 -9 -9 t-9 9v41q0 9 9 9t9 -9zM158 170v-41q0 -9 -9 -9t-9 9v41q0 9 9 9t9 -9zM158 110v-41q0 -9 -9 -9t-9 9v41q0 9 9 9t9 -9zM158 50v-41q0 -9 -9 -9t-9 9v41q0 9 9 9t9 -9zM218 530v-41q0 -9 -9 -9t-9 9v41q0 9 9 9t9 -9zM278 530v-41q0 -9 -9 -9t-9 9v41q0 9 9 9t9 -9zM278 290 v-41q0 -9 -9 -9t-9 9v41q0 9 9 9t9 -9zM218 290v-41q0 -9 -9 -9t-9 9v41q0 9 9 9t9 -9zM98 590v-41q0 -9 -9 -9t-9 9v41q0 9 9 9t9 -9zM158 590v-41q0 -9 -9 -9t-9 9v41q0 9 9 9t9 -9zM98 650v-41q0 -9 -9 -9t-9 9v41q0 9 9 9t9 -9zM158 650v-41q0 -9 -9 -9t-9 9v41q0 9 9 9 t9 -9zM98 710v-41q0 -9 -9 -9t-9 9v41q0 9 9 9t9 -9zM158 710v-41q0 -9 -9 -9t-9 9v41q0 9 9 9t9 -9z" />
<glyph unicode="&#xdf;" d="M338 530v-41q0 -9 -9 -9t-9 9v41q0 9 9 9t9 -9zM338 470v-41q0 -9 -9 -9t-9 9v41q0 9 9 9t9 -9zM338 410v-41q0 -9 -9 -9t-9 9v41q0 9 9 9t9 -9zM338 350v-41q0 -9 -9 -9t-9 9v41q0 9 9 9t9 -9zM338 290v-41q0 -9 -9 -9t-9 9v41q0 9 9 9t9 -9zM338 230v-41q0 -9 -9 -9 t-9 9v41q0 9 9 9t9 -9zM338 170v-41q0 -9 -9 -9t-9 9v41q0 9 9 9t9 -9zM338 110v-41q0 -9 -9 -9t-9 9v41q0 9 9 9t9 -9zM338 50v-41q0 -9 -9 -9t-9 9v41q0 9 9 9t9 -9zM398 470v-41q0 -9 -9 -9t-9 9v41q0 9 9 9t9 -9zM398 410v-41q0 -9 -9 -9t-9 9v41q0 9 9 9t9 -9zM398 290 v-41q0 -9 -9 -9t-9 9v41q0 9 9 9t9 -9zM398 230v-41q0 -9 -9 -9t-9 9v41q0 9 9 9t9 -9zM398 170v-41q0 -9 -9 -9t-9 9v41q0 9 9 9t9 -9zM398 110v-41q0 -9 -9 -9t-9 9v41q0 9 9 9t9 -9zM38 50v-41q0 -9 -9 -9t-9 9v41q0 9 9 9t9 -9zM158 530v-41q0 -9 -9 -9t-9 9v41q0 9 9 9 t9 -9zM98 470v-41q0 -9 -9 -9t-9 9v41q0 9 9 9t9 -9zM98 410v-41q0 -9 -9 -9t-9 9v41q0 9 9 9t9 -9zM98 350v-41q0 -9 -9 -9t-9 9v41q0 9 9 9t9 -9zM98 290v-41q0 -9 -9 -9t-9 9v41q0 9 9 9t9 -9zM98 230v-41q0 -9 -9 -9t-9 9v41q0 9 9 9t9 -9zM98 170v-41q0 -9 -9 -9t-9 9 v41q0 9 9 9t9 -9zM98 110v-41q0 -9 -9 -9t-9 9v41q0 9 9 9t9 -9zM98 50v-41q0 -9 -9 -9t-9 9v41q0 9 9 9t9 -9zM158 470v-41q0 -9 -9 -9t-9 9v41q0 9 9 9t9 -9zM158 410v-41q0 -9 -9 -9t-9 9v41q0 9 9 9t9 -9zM158 350v-41q0 -9 -9 -9t-9 9v41q0 9 9 9t9 -9zM158 290v-41 q0 -9 -9 -9t-9 9v41q0 9 9 9t9 -9zM158 230v-41q0 -9 -9 -9t-9 9v41q0 9 9 9t9 -9zM158 170v-41q0 -9 -9 -9t-9 9v41q0 9 9 9t9 -9zM158 110v-41q0 -9 -9 -9t-9 9v41q0 9 9 9t9 -9zM158 50v-41q0 -9 -9 -9t-9 9v41q0 9 9 9t9 -9zM218 530v-41q0 -9 -9 -9t-9 9v41q0 9 9 9 t9 -9zM278 530v-41q0 -9 -9 -9t-9 9v41q0 9 9 9t9 -9zM278 350v-41q0 -9 -9 -9t-9 9v41q0 9 9 9t9 -9zM278 50v-41q0 -9 -9 -9t-9 9v41q0 9 9 9t9 -9z" />
<glyph unicode="&#xe0;" d="M338 410v-41q0 -9 -9 -9t-9 9v41q0 9 9 9t9 -9zM338 350v-41q0 -9 -9 -9t-9 9v41q0 9 9 9t9 -9zM338 290v-41q0 -9 -9 -9t-9 9v41q0 9 9 9t9 -9zM338 230v-41q0 -9 -9 -9t-9 9v41q0 9 9 9t9 -9zM338 170v-41q0 -9 -9 -9t-9 9v41q0 9 9 9t9 -9zM338 110v-41q0 -9 -9 -9 t-9 9v41q0 9 9 9t9 -9zM338 50v-41q0 -9 -9 -9t-9 9v41q0 9 9 9t9 -9zM398 350v-41q0 -9 -9 -9t-9 9v41q0 9 9 9t9 -9zM398 290v-41q0 -9 -9 -9t-9 9v41q0 9 9 9t9 -9zM398 230v-41q0 -9 -9 -9t-9 9v41q0 9 9 9t9 -9zM398 170v-41q0 -9 -9 -9t-9 9v41q0 9 9 9t9 -9zM398 110 v-41q0 -9 -9 -9t-9 9v41q0 9 9 9t9 -9zM278 50v-41q0 -9 -9 -9t-9 9v41q0 9 9 9t9 -9zM158 410v-41q0 -9 -9 -9t-9 9v41q0 9 9 9t9 -9zM98 350v-41q0 -9 -9 -9t-9 9v41q0 9 9 9t9 -9zM98 230v-41q0 -9 -9 -9t-9 9v41q0 9 9 9t9 -9zM98 170v-41q0 -9 -9 -9t-9 9v41q0 9 9 9 t9 -9zM98 110v-41q0 -9 -9 -9t-9 9v41q0 9 9 9t9 -9zM218 50v-41q0 -9 -9 -9t-9 9v41q0 9 9 9t9 -9zM218 290v-41q0 -9 -9 -9t-9 9v41q0 9 9 9t9 -9zM158 230v-41q0 -9 -9 -9t-9 9v41q0 9 9 9t9 -9zM158 170v-41q0 -9 -9 -9t-9 9v41q0 9 9 9t9 -9zM158 110v-41q0 -9 -9 -9 t-9 9v41q0 9 9 9t9 -9zM158 50v-41q0 -9 -9 -9t-9 9v41q0 9 9 9t9 -9zM218 410v-41q0 -9 -9 -9t-9 9v41q0 9 9 9t9 -9zM278 410v-41q0 -9 -9 -9t-9 9v41q0 9 9 9t9 -9zM278 290v-41q0 -9 -9 -9t-9 9v41q0 9 9 9t9 -9zM398 50v-41q0 -9 -9 -9t-9 9v41q0 9 9 9t9 -9zM158 290 v-41q0 -9 -9 -9t-9 9v41q0 9 9 9t9 -9zM218 590v-41q0 -9 -9 -9t-9 9v41q0 9 9 9t9 -9zM278 530v-41q0 -9 -9 -9t-9 9v41q0 9 9 9t9 -9z" />
<glyph unicode="&#xe1;" d="M338 410v-41q0 -9 -9 -9t-9 9v41q0 9 9 9t9 -9zM338 350v-41q0 -9 -9 -9t-9 9v41q0 9 9 9t9 -9zM338 290v-41q0 -9 -9 -9t-9 9v41q0 9 9 9t9 -9zM338 230v-41q0 -9 -9 -9t-9 9v41q0 9 9 9t9 -9zM338 170v-41q0 -9 -9 -9t-9 9v41q0 9 9 9t9 -9zM338 110v-41q0 -9 -9 -9 t-9 9v41q0 9 9 9t9 -9zM338 50v-41q0 -9 -9 -9t-9 9v41q0 9 9 9t9 -9zM398 350v-41q0 -9 -9 -9t-9 9v41q0 9 9 9t9 -9zM398 290v-41q0 -9 -9 -9t-9 9v41q0 9 9 9t9 -9zM398 230v-41q0 -9 -9 -9t-9 9v41q0 9 9 9t9 -9zM398 170v-41q0 -9 -9 -9t-9 9v41q0 9 9 9t9 -9zM398 110 v-41q0 -9 -9 -9t-9 9v41q0 9 9 9t9 -9zM278 50v-41q0 -9 -9 -9t-9 9v41q0 9 9 9t9 -9zM158 410v-41q0 -9 -9 -9t-9 9v41q0 9 9 9t9 -9zM98 350v-41q0 -9 -9 -9t-9 9v41q0 9 9 9t9 -9zM98 230v-41q0 -9 -9 -9t-9 9v41q0 9 9 9t9 -9zM98 170v-41q0 -9 -9 -9t-9 9v41q0 9 9 9 t9 -9zM98 110v-41q0 -9 -9 -9t-9 9v41q0 9 9 9t9 -9zM218 50v-41q0 -9 -9 -9t-9 9v41q0 9 9 9t9 -9zM218 290v-41q0 -9 -9 -9t-9 9v41q0 9 9 9t9 -9zM158 230v-41q0 -9 -9 -9t-9 9v41q0 9 9 9t9 -9zM158 170v-41q0 -9 -9 -9t-9 9v41q0 9 9 9t9 -9zM158 110v-41q0 -9 -9 -9 t-9 9v41q0 9 9 9t9 -9zM158 50v-41q0 -9 -9 -9t-9 9v41q0 9 9 9t9 -9zM218 410v-41q0 -9 -9 -9t-9 9v41q0 9 9 9t9 -9zM278 410v-41q0 -9 -9 -9t-9 9v41q0 9 9 9t9 -9zM278 290v-41q0 -9 -9 -9t-9 9v41q0 9 9 9t9 -9zM398 50v-41q0 -9 -9 -9t-9 9v41q0 9 9 9t9 -9zM158 290 v-41q0 -9 -9 -9t-9 9v41q0 9 9 9t9 -9zM260 549v41q0 9 9 9t9 -9v-41q0 -9 -9 -9t-9 9zM200 489v41q0 9 9 9t9 -9v-41q0 -9 -9 -9t-9 9z" />
<glyph unicode="&#xe2;" d="M338 410v-41q0 -9 -9 -9t-9 9v41q0 9 9 9t9 -9zM338 350v-41q0 -9 -9 -9t-9 9v41q0 9 9 9t9 -9zM338 290v-41q0 -9 -9 -9t-9 9v41q0 9 9 9t9 -9zM338 230v-41q0 -9 -9 -9t-9 9v41q0 9 9 9t9 -9zM338 170v-41q0 -9 -9 -9t-9 9v41q0 9 9 9t9 -9zM338 110v-41q0 -9 -9 -9 t-9 9v41q0 9 9 9t9 -9zM338 50v-41q0 -9 -9 -9t-9 9v41q0 9 9 9t9 -9zM398 350v-41q0 -9 -9 -9t-9 9v41q0 9 9 9t9 -9zM398 290v-41q0 -9 -9 -9t-9 9v41q0 9 9 9t9 -9zM398 230v-41q0 -9 -9 -9t-9 9v41q0 9 9 9t9 -9zM398 170v-41q0 -9 -9 -9t-9 9v41q0 9 9 9t9 -9zM398 110 v-41q0 -9 -9 -9t-9 9v41q0 9 9 9t9 -9zM278 50v-41q0 -9 -9 -9t-9 9v41q0 9 9 9t9 -9zM158 410v-41q0 -9 -9 -9t-9 9v41q0 9 9 9t9 -9zM98 350v-41q0 -9 -9 -9t-9 9v41q0 9 9 9t9 -9zM98 230v-41q0 -9 -9 -9t-9 9v41q0 9 9 9t9 -9zM98 170v-41q0 -9 -9 -9t-9 9v41q0 9 9 9 t9 -9zM98 110v-41q0 -9 -9 -9t-9 9v41q0 9 9 9t9 -9zM218 50v-41q0 -9 -9 -9t-9 9v41q0 9 9 9t9 -9zM218 290v-41q0 -9 -9 -9t-9 9v41q0 9 9 9t9 -9zM158 230v-41q0 -9 -9 -9t-9 9v41q0 9 9 9t9 -9zM158 170v-41q0 -9 -9 -9t-9 9v41q0 9 9 9t9 -9zM158 110v-41q0 -9 -9 -9 t-9 9v41q0 9 9 9t9 -9zM158 50v-41q0 -9 -9 -9t-9 9v41q0 9 9 9t9 -9zM218 410v-41q0 -9 -9 -9t-9 9v41q0 9 9 9t9 -9zM278 410v-41q0 -9 -9 -9t-9 9v41q0 9 9 9t9 -9zM278 290v-41q0 -9 -9 -9t-9 9v41q0 9 9 9t9 -9zM398 50v-41q0 -9 -9 -9t-9 9v41q0 9 9 9t9 -9zM158 290 v-41q0 -9 -9 -9t-9 9v41q0 9 9 9t9 -9zM140 489v41q0 9 9 9t9 -9v-41q0 -9 -9 -9t-9 9zM200 549v41q0 9 9 9t9 -9v-41q0 -9 -9 -9t-9 9zM260 549v41q0 9 9 9t9 -9v-41q0 -9 -9 -9t-9 9zM320 489v41q0 9 9 9t9 -9v-41q0 -9 -9 -9t-9 9z" />
<glyph unicode="&#xe3;" d="M338 410v-41q0 -9 -9 -9t-9 9v41q0 9 9 9t9 -9zM338 350v-41q0 -9 -9 -9t-9 9v41q0 9 9 9t9 -9zM338 290v-41q0 -9 -9 -9t-9 9v41q0 9 9 9t9 -9zM338 230v-41q0 -9 -9 -9t-9 9v41q0 9 9 9t9 -9zM338 170v-41q0 -9 -9 -9t-9 9v41q0 9 9 9t9 -9zM338 110v-41q0 -9 -9 -9 t-9 9v41q0 9 9 9t9 -9zM338 50v-41q0 -9 -9 -9t-9 9v41q0 9 9 9t9 -9zM398 350v-41q0 -9 -9 -9t-9 9v41q0 9 9 9t9 -9zM398 290v-41q0 -9 -9 -9t-9 9v41q0 9 9 9t9 -9zM398 230v-41q0 -9 -9 -9t-9 9v41q0 9 9 9t9 -9zM398 170v-41q0 -9 -9 -9t-9 9v41q0 9 9 9t9 -9zM398 110 v-41q0 -9 -9 -9t-9 9v41q0 9 9 9t9 -9zM278 50v-41q0 -9 -9 -9t-9 9v41q0 9 9 9t9 -9zM158 410v-41q0 -9 -9 -9t-9 9v41q0 9 9 9t9 -9zM98 350v-41q0 -9 -9 -9t-9 9v41q0 9 9 9t9 -9zM98 230v-41q0 -9 -9 -9t-9 9v41q0 9 9 9t9 -9zM98 170v-41q0 -9 -9 -9t-9 9v41q0 9 9 9 t9 -9zM98 110v-41q0 -9 -9 -9t-9 9v41q0 9 9 9t9 -9zM218 50v-41q0 -9 -9 -9t-9 9v41q0 9 9 9t9 -9zM218 290v-41q0 -9 -9 -9t-9 9v41q0 9 9 9t9 -9zM158 230v-41q0 -9 -9 -9t-9 9v41q0 9 9 9t9 -9zM158 170v-41q0 -9 -9 -9t-9 9v41q0 9 9 9t9 -9zM158 110v-41q0 -9 -9 -9 t-9 9v41q0 9 9 9t9 -9zM158 50v-41q0 -9 -9 -9t-9 9v41q0 9 9 9t9 -9zM218 410v-41q0 -9 -9 -9t-9 9v41q0 9 9 9t9 -9zM278 410v-41q0 -9 -9 -9t-9 9v41q0 9 9 9t9 -9zM278 290v-41q0 -9 -9 -9t-9 9v41q0 9 9 9t9 -9zM398 50v-41q0 -9 -9 -9t-9 9v41q0 9 9 9t9 -9zM158 290 v-41q0 -9 -9 -9t-9 9v41q0 9 9 9t9 -9zM80 489v41q0 9 9 9t9 -9v-41q0 -9 -9 -9t-9 9zM140 549v41q0 9 9 9t9 -9v-41q0 -9 -9 -9t-9 9zM200 549v41q0 9 9 9t9 -9v-41q0 -9 -9 -9t-9 9zM260 489v41q0 9 9 9t9 -9v-41q0 -9 -9 -9t-9 9zM320 489v41q0 9 9 9t9 -9v-41 q0 -9 -9 -9t-9 9zM380 549v41q0 9 9 9t9 -9v-41q0 -9 -9 -9t-9 9z" />
<glyph unicode="&#xe4;" d="M338 410v-41q0 -9 -9 -9t-9 9v41q0 9 9 9t9 -9zM338 350v-41q0 -9 -9 -9t-9 9v41q0 9 9 9t9 -9zM338 290v-41q0 -9 -9 -9t-9 9v41q0 9 9 9t9 -9zM338 230v-41q0 -9 -9 -9t-9 9v41q0 9 9 9t9 -9zM338 170v-41q0 -9 -9 -9t-9 9v41q0 9 9 9t9 -9zM338 110v-41q0 -9 -9 -9 t-9 9v41q0 9 9 9t9 -9zM338 50v-41q0 -9 -9 -9t-9 9v41q0 9 9 9t9 -9zM398 350v-41q0 -9 -9 -9t-9 9v41q0 9 9 9t9 -9zM398 290v-41q0 -9 -9 -9t-9 9v41q0 9 9 9t9 -9zM398 230v-41q0 -9 -9 -9t-9 9v41q0 9 9 9t9 -9zM398 170v-41q0 -9 -9 -9t-9 9v41q0 9 9 9t9 -9zM398 110 v-41q0 -9 -9 -9t-9 9v41q0 9 9 9t9 -9zM278 50v-41q0 -9 -9 -9t-9 9v41q0 9 9 9t9 -9zM158 410v-41q0 -9 -9 -9t-9 9v41q0 9 9 9t9 -9zM98 350v-41q0 -9 -9 -9t-9 9v41q0 9 9 9t9 -9zM98 230v-41q0 -9 -9 -9t-9 9v41q0 9 9 9t9 -9zM98 170v-41q0 -9 -9 -9t-9 9v41q0 9 9 9 t9 -9zM98 110v-41q0 -9 -9 -9t-9 9v41q0 9 9 9t9 -9zM218 50v-41q0 -9 -9 -9t-9 9v41q0 9 9 9t9 -9zM218 290v-41q0 -9 -9 -9t-9 9v41q0 9 9 9t9 -9zM158 230v-41q0 -9 -9 -9t-9 9v41q0 9 9 9t9 -9zM158 170v-41q0 -9 -9 -9t-9 9v41q0 9 9 9t9 -9zM158 110v-41q0 -9 -9 -9 t-9 9v41q0 9 9 9t9 -9zM158 50v-41q0 -9 -9 -9t-9 9v41q0 9 9 9t9 -9zM218 410v-41q0 -9 -9 -9t-9 9v41q0 9 9 9t9 -9zM278 410v-41q0 -9 -9 -9t-9 9v41q0 9 9 9t9 -9zM278 290v-41q0 -9 -9 -9t-9 9v41q0 9 9 9t9 -9zM398 50v-41q0 -9 -9 -9t-9 9v41q0 9 9 9t9 -9zM158 290 v-41q0 -9 -9 -9t-9 9v41q0 9 9 9t9 -9zM320 489v41q0 9 9 9t9 -9v-41q0 -9 -9 -9t-9 9zM140 489v41q0 9 9 9t9 -9v-41q0 -9 -9 -9t-9 9z" />
<glyph unicode="&#xe5;" d="M338 410v-41q0 -9 -9 -9t-9 9v41q0 9 9 9t9 -9zM338 350v-41q0 -9 -9 -9t-9 9v41q0 9 9 9t9 -9zM338 290v-41q0 -9 -9 -9t-9 9v41q0 9 9 9t9 -9zM338 230v-41q0 -9 -9 -9t-9 9v41q0 9 9 9t9 -9zM338 170v-41q0 -9 -9 -9t-9 9v41q0 9 9 9t9 -9zM338 110v-41q0 -9 -9 -9 t-9 9v41q0 9 9 9t9 -9zM338 50v-41q0 -9 -9 -9t-9 9v41q0 9 9 9t9 -9zM398 350v-41q0 -9 -9 -9t-9 9v41q0 9 9 9t9 -9zM398 290v-41q0 -9 -9 -9t-9 9v41q0 9 9 9t9 -9zM398 230v-41q0 -9 -9 -9t-9 9v41q0 9 9 9t9 -9zM398 170v-41q0 -9 -9 -9t-9 9v41q0 9 9 9t9 -9zM398 110 v-41q0 -9 -9 -9t-9 9v41q0 9 9 9t9 -9zM278 50v-41q0 -9 -9 -9t-9 9v41q0 9 9 9t9 -9zM158 410v-41q0 -9 -9 -9t-9 9v41q0 9 9 9t9 -9zM98 350v-41q0 -9 -9 -9t-9 9v41q0 9 9 9t9 -9zM98 230v-41q0 -9 -9 -9t-9 9v41q0 9 9 9t9 -9zM98 170v-41q0 -9 -9 -9t-9 9v41q0 9 9 9 t9 -9zM98 110v-41q0 -9 -9 -9t-9 9v41q0 9 9 9t9 -9zM218 50v-41q0 -9 -9 -9t-9 9v41q0 9 9 9t9 -9zM218 290v-41q0 -9 -9 -9t-9 9v41q0 9 9 9t9 -9zM158 230v-41q0 -9 -9 -9t-9 9v41q0 9 9 9t9 -9zM158 170v-41q0 -9 -9 -9t-9 9v41q0 9 9 9t9 -9zM158 110v-41q0 -9 -9 -9 t-9 9v41q0 9 9 9t9 -9zM158 50v-41q0 -9 -9 -9t-9 9v41q0 9 9 9t9 -9zM218 410v-41q0 -9 -9 -9t-9 9v41q0 9 9 9t9 -9zM278 410v-41q0 -9 -9 -9t-9 9v41q0 9 9 9t9 -9zM278 290v-41q0 -9 -9 -9t-9 9v41q0 9 9 9t9 -9zM398 50v-41q0 -9 -9 -9t-9 9v41q0 9 9 9t9 -9zM158 290 v-41q0 -9 -9 -9t-9 9v41q0 9 9 9t9 -9zM200 489v41q0 9 9 9t9 -9v-41q0 -9 -9 -9t-9 9zM260 489v41q0 9 9 9t9 -9v-41q0 -9 -9 -9t-9 9zM200 669v41q0 9 9 9t9 -9v-41q0 -9 -9 -9t-9 9zM260 669v41q0 9 9 9t9 -9v-41q0 -9 -9 -9t-9 9zM320 609v41q0 9 9 9t9 -9v-41 q0 -9 -9 -9t-9 9zM320 549v41q0 9 9 9t9 -9v-41q0 -9 -9 -9t-9 9zM140 609v41q0 9 9 9t9 -9v-41q0 -9 -9 -9t-9 9zM140 549v41q0 9 9 9t9 -9v-41q0 -9 -9 -9t-9 9z" />
<glyph unicode="&#xe6;" d="M338 410v-41q0 -9 -9 -9t-9 9v41q0 9 9 9t9 -9zM338 350v-41q0 -9 -9 -9t-9 9v41q0 9 9 9t9 -9zM338 290v-41q0 -9 -9 -9t-9 9v41q0 9 9 9t9 -9zM338 230v-41q0 -9 -9 -9t-9 9v41q0 9 9 9t9 -9zM338 170v-41q0 -9 -9 -9t-9 9v41q0 9 9 9t9 -9zM338 110v-41q0 -9 -9 -9 t-9 9v41q0 9 9 9t9 -9zM338 50v-41q0 -9 -9 -9t-9 9v41q0 9 9 9t9 -9zM278 50v-41q0 -9 -9 -9t-9 9v41q0 9 9 9t9 -9zM158 410v-41q0 -9 -9 -9t-9 9v41q0 9 9 9t9 -9zM98 350v-41q0 -9 -9 -9t-9 9v41q0 9 9 9t9 -9zM98 230v-41q0 -9 -9 -9t-9 9v41q0 9 9 9t9 -9zM98 170v-41 q0 -9 -9 -9t-9 9v41q0 9 9 9t9 -9zM98 110v-41q0 -9 -9 -9t-9 9v41q0 9 9 9t9 -9zM218 50v-41q0 -9 -9 -9t-9 9v41q0 9 9 9t9 -9zM218 290v-41q0 -9 -9 -9t-9 9v41q0 9 9 9t9 -9zM158 230v-41q0 -9 -9 -9t-9 9v41q0 9 9 9t9 -9zM158 170v-41q0 -9 -9 -9t-9 9v41q0 9 9 9 t9 -9zM158 110v-41q0 -9 -9 -9t-9 9v41q0 9 9 9t9 -9zM158 50v-41q0 -9 -9 -9t-9 9v41q0 9 9 9t9 -9zM218 410v-41q0 -9 -9 -9t-9 9v41q0 9 9 9t9 -9zM278 410v-41q0 -9 -9 -9t-9 9v41q0 9 9 9t9 -9zM278 290v-41q0 -9 -9 -9t-9 9v41q0 9 9 9t9 -9zM158 290v-41q0 -9 -9 -9 t-9 9v41q0 9 9 9t9 -9zM380 9v41q0 9 9 9t9 -9v-41q0 -9 -9 -9t-9 9zM380 69v41q0 9 9 9t9 -9v-41q0 -9 -9 -9t-9 9zM380 129v41q0 9 9 9t9 -9v-41q0 -9 -9 -9t-9 9zM380 189v41q0 9 9 9t9 -9v-41q0 -9 -9 -9t-9 9zM380 249v41q0 9 9 9t9 -9v-41q0 -9 -9 -9t-9 9zM380 309 v41q0 9 9 9t9 -9v-41q0 -9 -9 -9t-9 9zM380 369v41q0 9 9 9t9 -9v-41q0 -9 -9 -9t-9 9zM440 369v41q0 9 9 9t9 -9v-41q0 -9 -9 -9t-9 9zM560 9v41q0 9 9 9t9 -9v-41q0 -9 -9 -9t-9 9zM620 69v41q0 9 9 9t9 -9v-41q0 -9 -9 -9t-9 9zM620 189v41q0 9 9 9t9 -9v-41q0 -9 -9 -9 t-9 9zM620 249v41q0 9 9 9t9 -9v-41q0 -9 -9 -9t-9 9zM620 309v41q0 9 9 9t9 -9v-41q0 -9 -9 -9t-9 9zM500 369v41q0 9 9 9t9 -9v-41q0 -9 -9 -9t-9 9zM500 189v41q0 9 9 9t9 -9v-41q0 -9 -9 -9t-9 9zM560 189v41q0 9 9 9t9 -9v-41q0 -9 -9 -9t-9 9zM560 249v41q0 9 9 9 t9 -9v-41q0 -9 -9 -9t-9 9zM560 309v41q0 9 9 9t9 -9v-41q0 -9 -9 -9t-9 9zM560 369v41q0 9 9 9t9 -9v-41q0 -9 -9 -9t-9 9zM500 9v41q0 9 9 9t9 -9v-41q0 -9 -9 -9t-9 9zM440 9v41q0 9 9 9t9 -9v-41q0 -9 -9 -9t-9 9zM440 189v41q0 9 9 9t9 -9v-41q0 -9 -9 -9t-9 9z" />
<glyph unicode="&#xe7;" horiz-adv-x="420" d="M140 9v41q0 9 9 9t9 -9v-41q0 -9 -9 -9t-9 9zM140 69v41q0 9 9 9t9 -9v-41q0 -9 -9 -9t-9 9zM140 129v41q0 9 9 9t9 -9v-41q0 -9 -9 -9t-9 9zM140 189v41q0 9 9 9t9 -9v-41q0 -9 -9 -9t-9 9zM140 249v41q0 9 9 9t9 -9v-41q0 -9 -9 -9t-9 9zM140 309v41q0 9 9 9t9 -9v-41 q0 -9 -9 -9t-9 9zM140 369v41q0 9 9 9t9 -9v-41q0 -9 -9 -9t-9 9zM80 69v41q0 9 9 9t9 -9v-41q0 -9 -9 -9t-9 9zM80 129v41q0 9 9 9t9 -9v-41q0 -9 -9 -9t-9 9zM80 189v41q0 9 9 9t9 -9v-41q0 -9 -9 -9t-9 9zM80 249v41q0 9 9 9t9 -9v-41q0 -9 -9 -9t-9 9zM80 309v41 q0 9 9 9t9 -9v-41q0 -9 -9 -9t-9 9zM200 369v41q0 9 9 9t9 -9v-41q0 -9 -9 -9t-9 9zM260 369v41q0 9 9 9t9 -9v-41q0 -9 -9 -9t-9 9zM320 69v41q0 9 9 9t9 -9v-41q0 -9 -9 -9t-9 9zM320 309v41q0 9 9 9t9 -9v-41q0 -9 -9 -9t-9 9zM260 9v41q0 9 9 9t9 -9v-41q0 -9 -9 -9 t-9 9zM200 9v41q0 9 9 9t9 -9v-41q0 -9 -9 -9t-9 9zM200 -51v41q0 9 9 9t9 -9v-41q0 -9 -9 -9t-9 9zM260 -51v41q0 9 9 9t9 -9v-41q0 -9 -9 -9t-9 9zM200 -171v41q0 9 9 9t9 -9v-41q0 -9 -9 -9t-9 9zM260 -111v41q0 9 9 9t9 -9v-41q0 -9 -9 -9t-9 9z" />
<glyph unicode="&#xe8;" d="M140 9v41q0 9 9 9t9 -9v-41q0 -9 -9 -9t-9 9zM140 69v41q0 9 9 9t9 -9v-41q0 -9 -9 -9t-9 9zM140 129v41q0 9 9 9t9 -9v-41q0 -9 -9 -9t-9 9zM140 189v41q0 9 9 9t9 -9v-41q0 -9 -9 -9t-9 9zM140 249v41q0 9 9 9t9 -9v-41q0 -9 -9 -9t-9 9zM140 309v41q0 9 9 9t9 -9v-41 q0 -9 -9 -9t-9 9zM140 369v41q0 9 9 9t9 -9v-41q0 -9 -9 -9t-9 9zM80 69v41q0 9 9 9t9 -9v-41q0 -9 -9 -9t-9 9zM80 129v41q0 9 9 9t9 -9v-41q0 -9 -9 -9t-9 9zM80 189v41q0 9 9 9t9 -9v-41q0 -9 -9 -9t-9 9zM80 249v41q0 9 9 9t9 -9v-41q0 -9 -9 -9t-9 9zM80 309v41 q0 9 9 9t9 -9v-41q0 -9 -9 -9t-9 9zM200 369v41q0 9 9 9t9 -9v-41q0 -9 -9 -9t-9 9zM320 9v41q0 9 9 9t9 -9v-41q0 -9 -9 -9t-9 9zM380 69v41q0 9 9 9t9 -9v-41q0 -9 -9 -9t-9 9zM380 189v41q0 9 9 9t9 -9v-41q0 -9 -9 -9t-9 9zM380 249v41q0 9 9 9t9 -9v-41q0 -9 -9 -9 t-9 9zM380 309v41q0 9 9 9t9 -9v-41q0 -9 -9 -9t-9 9zM260 369v41q0 9 9 9t9 -9v-41q0 -9 -9 -9t-9 9zM260 189v41q0 9 9 9t9 -9v-41q0 -9 -9 -9t-9 9zM320 189v41q0 9 9 9t9 -9v-41q0 -9 -9 -9t-9 9zM320 249v41q0 9 9 9t9 -9v-41q0 -9 -9 -9t-9 9zM320 309v41q0 9 9 9 t9 -9v-41q0 -9 -9 -9t-9 9zM320 369v41q0 9 9 9t9 -9v-41q0 -9 -9 -9t-9 9zM260 9v41q0 9 9 9t9 -9v-41q0 -9 -9 -9t-9 9zM200 9v41q0 9 9 9t9 -9v-41q0 -9 -9 -9t-9 9zM200 189v41q0 9 9 9t9 -9v-41q0 -9 -9 -9t-9 9zM218 590v-41q0 -9 -9 -9t-9 9v41q0 9 9 9t9 -9z M278 530v-41q0 -9 -9 -9t-9 9v41q0 9 9 9t9 -9z" />
<glyph unicode="&#xe9;" d="M140 9v41q0 9 9 9t9 -9v-41q0 -9 -9 -9t-9 9zM140 69v41q0 9 9 9t9 -9v-41q0 -9 -9 -9t-9 9zM140 129v41q0 9 9 9t9 -9v-41q0 -9 -9 -9t-9 9zM140 189v41q0 9 9 9t9 -9v-41q0 -9 -9 -9t-9 9zM140 249v41q0 9 9 9t9 -9v-41q0 -9 -9 -9t-9 9zM140 309v41q0 9 9 9t9 -9v-41 q0 -9 -9 -9t-9 9zM140 369v41q0 9 9 9t9 -9v-41q0 -9 -9 -9t-9 9zM80 69v41q0 9 9 9t9 -9v-41q0 -9 -9 -9t-9 9zM80 129v41q0 9 9 9t9 -9v-41q0 -9 -9 -9t-9 9zM80 189v41q0 9 9 9t9 -9v-41q0 -9 -9 -9t-9 9zM80 249v41q0 9 9 9t9 -9v-41q0 -9 -9 -9t-9 9zM80 309v41 q0 9 9 9t9 -9v-41q0 -9 -9 -9t-9 9zM200 369v41q0 9 9 9t9 -9v-41q0 -9 -9 -9t-9 9zM320 9v41q0 9 9 9t9 -9v-41q0 -9 -9 -9t-9 9zM380 69v41q0 9 9 9t9 -9v-41q0 -9 -9 -9t-9 9zM380 189v41q0 9 9 9t9 -9v-41q0 -9 -9 -9t-9 9zM380 249v41q0 9 9 9t9 -9v-41q0 -9 -9 -9 t-9 9zM380 309v41q0 9 9 9t9 -9v-41q0 -9 -9 -9t-9 9zM260 369v41q0 9 9 9t9 -9v-41q0 -9 -9 -9t-9 9zM260 189v41q0 9 9 9t9 -9v-41q0 -9 -9 -9t-9 9zM320 189v41q0 9 9 9t9 -9v-41q0 -9 -9 -9t-9 9zM320 249v41q0 9 9 9t9 -9v-41q0 -9 -9 -9t-9 9zM320 309v41q0 9 9 9 t9 -9v-41q0 -9 -9 -9t-9 9zM320 369v41q0 9 9 9t9 -9v-41q0 -9 -9 -9t-9 9zM260 9v41q0 9 9 9t9 -9v-41q0 -9 -9 -9t-9 9zM200 9v41q0 9 9 9t9 -9v-41q0 -9 -9 -9t-9 9zM200 189v41q0 9 9 9t9 -9v-41q0 -9 -9 -9t-9 9zM260 549v41q0 9 9 9t9 -9v-41q0 -9 -9 -9t-9 9z M200 489v41q0 9 9 9t9 -9v-41q0 -9 -9 -9t-9 9z" />
<glyph unicode="&#xea;" d="M140 9v41q0 9 9 9t9 -9v-41q0 -9 -9 -9t-9 9zM140 69v41q0 9 9 9t9 -9v-41q0 -9 -9 -9t-9 9zM140 129v41q0 9 9 9t9 -9v-41q0 -9 -9 -9t-9 9zM140 189v41q0 9 9 9t9 -9v-41q0 -9 -9 -9t-9 9zM140 249v41q0 9 9 9t9 -9v-41q0 -9 -9 -9t-9 9zM140 309v41q0 9 9 9t9 -9v-41 q0 -9 -9 -9t-9 9zM140 369v41q0 9 9 9t9 -9v-41q0 -9 -9 -9t-9 9zM80 69v41q0 9 9 9t9 -9v-41q0 -9 -9 -9t-9 9zM80 129v41q0 9 9 9t9 -9v-41q0 -9 -9 -9t-9 9zM80 189v41q0 9 9 9t9 -9v-41q0 -9 -9 -9t-9 9zM80 249v41q0 9 9 9t9 -9v-41q0 -9 -9 -9t-9 9zM80 309v41 q0 9 9 9t9 -9v-41q0 -9 -9 -9t-9 9zM200 369v41q0 9 9 9t9 -9v-41q0 -9 -9 -9t-9 9zM320 9v41q0 9 9 9t9 -9v-41q0 -9 -9 -9t-9 9zM380 69v41q0 9 9 9t9 -9v-41q0 -9 -9 -9t-9 9zM380 189v41q0 9 9 9t9 -9v-41q0 -9 -9 -9t-9 9zM380 249v41q0 9 9 9t9 -9v-41q0 -9 -9 -9 t-9 9zM380 309v41q0 9 9 9t9 -9v-41q0 -9 -9 -9t-9 9zM260 369v41q0 9 9 9t9 -9v-41q0 -9 -9 -9t-9 9zM260 189v41q0 9 9 9t9 -9v-41q0 -9 -9 -9t-9 9zM320 189v41q0 9 9 9t9 -9v-41q0 -9 -9 -9t-9 9zM320 249v41q0 9 9 9t9 -9v-41q0 -9 -9 -9t-9 9zM320 309v41q0 9 9 9 t9 -9v-41q0 -9 -9 -9t-9 9zM320 369v41q0 9 9 9t9 -9v-41q0 -9 -9 -9t-9 9zM260 9v41q0 9 9 9t9 -9v-41q0 -9 -9 -9t-9 9zM200 9v41q0 9 9 9t9 -9v-41q0 -9 -9 -9t-9 9zM200 189v41q0 9 9 9t9 -9v-41q0 -9 -9 -9t-9 9zM140 489v41q0 9 9 9t9 -9v-41q0 -9 -9 -9t-9 9z M200 549v41q0 9 9 9t9 -9v-41q0 -9 -9 -9t-9 9zM260 549v41q0 9 9 9t9 -9v-41q0 -9 -9 -9t-9 9zM320 489v41q0 9 9 9t9 -9v-41q0 -9 -9 -9t-9 9z" />
<glyph unicode="&#xeb;" d="M140 9v41q0 9 9 9t9 -9v-41q0 -9 -9 -9t-9 9zM140 69v41q0 9 9 9t9 -9v-41q0 -9 -9 -9t-9 9zM140 129v41q0 9 9 9t9 -9v-41q0 -9 -9 -9t-9 9zM140 189v41q0 9 9 9t9 -9v-41q0 -9 -9 -9t-9 9zM140 249v41q0 9 9 9t9 -9v-41q0 -9 -9 -9t-9 9zM140 309v41q0 9 9 9t9 -9v-41 q0 -9 -9 -9t-9 9zM140 369v41q0 9 9 9t9 -9v-41q0 -9 -9 -9t-9 9zM80 69v41q0 9 9 9t9 -9v-41q0 -9 -9 -9t-9 9zM80 129v41q0 9 9 9t9 -9v-41q0 -9 -9 -9t-9 9zM80 189v41q0 9 9 9t9 -9v-41q0 -9 -9 -9t-9 9zM80 249v41q0 9 9 9t9 -9v-41q0 -9 -9 -9t-9 9zM80 309v41 q0 9 9 9t9 -9v-41q0 -9 -9 -9t-9 9zM200 369v41q0 9 9 9t9 -9v-41q0 -9 -9 -9t-9 9zM320 9v41q0 9 9 9t9 -9v-41q0 -9 -9 -9t-9 9zM380 69v41q0 9 9 9t9 -9v-41q0 -9 -9 -9t-9 9zM380 189v41q0 9 9 9t9 -9v-41q0 -9 -9 -9t-9 9zM380 249v41q0 9 9 9t9 -9v-41q0 -9 -9 -9 t-9 9zM380 309v41q0 9 9 9t9 -9v-41q0 -9 -9 -9t-9 9zM260 369v41q0 9 9 9t9 -9v-41q0 -9 -9 -9t-9 9zM260 189v41q0 9 9 9t9 -9v-41q0 -9 -9 -9t-9 9zM320 189v41q0 9 9 9t9 -9v-41q0 -9 -9 -9t-9 9zM320 249v41q0 9 9 9t9 -9v-41q0 -9 -9 -9t-9 9zM320 309v41q0 9 9 9 t9 -9v-41q0 -9 -9 -9t-9 9zM320 369v41q0 9 9 9t9 -9v-41q0 -9 -9 -9t-9 9zM260 9v41q0 9 9 9t9 -9v-41q0 -9 -9 -9t-9 9zM200 9v41q0 9 9 9t9 -9v-41q0 -9 -9 -9t-9 9zM200 189v41q0 9 9 9t9 -9v-41q0 -9 -9 -9t-9 9zM320 489v41q0 9 9 9t9 -9v-41q0 -9 -9 -9t-9 9z M140 489v41q0 9 9 9t9 -9v-41q0 -9 -9 -9t-9 9z" />
<glyph unicode="&#xec;" horiz-adv-x="240" d="M98 410v-41q0 -9 -9 -9t-9 9v41q0 9 9 9t9 -9zM98 350v-41q0 -9 -9 -9t-9 9v41q0 9 9 9t9 -9zM98 290v-41q0 -9 -9 -9t-9 9v41q0 9 9 9t9 -9zM98 230v-41q0 -9 -9 -9t-9 9v41q0 9 9 9t9 -9zM98 170v-41q0 -9 -9 -9t-9 9v41q0 9 9 9t9 -9zM98 110v-41q0 -9 -9 -9t-9 9v41 q0 9 9 9t9 -9zM98 50v-41q0 -9 -9 -9t-9 9v41q0 9 9 9t9 -9zM158 410v-41q0 -9 -9 -9t-9 9v41q0 9 9 9t9 -9zM158 350v-41q0 -9 -9 -9t-9 9v41q0 9 9 9t9 -9zM158 290v-41q0 -9 -9 -9t-9 9v41q0 9 9 9t9 -9zM158 230v-41q0 -9 -9 -9t-9 9v41q0 9 9 9t9 -9zM158 170v-41 q0 -9 -9 -9t-9 9v41q0 9 9 9t9 -9zM158 110v-41q0 -9 -9 -9t-9 9v41q0 9 9 9t9 -9zM158 50v-41q0 -9 -9 -9t-9 9v41q0 9 9 9t9 -9zM98 590v-41q0 -9 -9 -9t-9 9v41q0 9 9 9t9 -9zM158 530v-41q0 -9 -9 -9t-9 9v41q0 9 9 9t9 -9z" />
<glyph unicode="&#xed;" horiz-adv-x="240" d="M98 410v-41q0 -9 -9 -9t-9 9v41q0 9 9 9t9 -9zM98 350v-41q0 -9 -9 -9t-9 9v41q0 9 9 9t9 -9zM98 290v-41q0 -9 -9 -9t-9 9v41q0 9 9 9t9 -9zM98 230v-41q0 -9 -9 -9t-9 9v41q0 9 9 9t9 -9zM98 170v-41q0 -9 -9 -9t-9 9v41q0 9 9 9t9 -9zM98 110v-41q0 -9 -9 -9t-9 9v41 q0 9 9 9t9 -9zM98 50v-41q0 -9 -9 -9t-9 9v41q0 9 9 9t9 -9zM158 410v-41q0 -9 -9 -9t-9 9v41q0 9 9 9t9 -9zM158 350v-41q0 -9 -9 -9t-9 9v41q0 9 9 9t9 -9zM158 290v-41q0 -9 -9 -9t-9 9v41q0 9 9 9t9 -9zM158 230v-41q0 -9 -9 -9t-9 9v41q0 9 9 9t9 -9zM158 170v-41 q0 -9 -9 -9t-9 9v41q0 9 9 9t9 -9zM158 110v-41q0 -9 -9 -9t-9 9v41q0 9 9 9t9 -9zM158 50v-41q0 -9 -9 -9t-9 9v41q0 9 9 9t9 -9zM140 549v41q0 9 9 9t9 -9v-41q0 -9 -9 -9t-9 9zM80 489v41q0 9 9 9t9 -9v-41q0 -9 -9 -9t-9 9z" />
<glyph unicode="&#xee;" horiz-adv-x="240" d="M98 410v-41q0 -9 -9 -9t-9 9v41q0 9 9 9t9 -9zM98 350v-41q0 -9 -9 -9t-9 9v41q0 9 9 9t9 -9zM98 290v-41q0 -9 -9 -9t-9 9v41q0 9 9 9t9 -9zM98 230v-41q0 -9 -9 -9t-9 9v41q0 9 9 9t9 -9zM98 170v-41q0 -9 -9 -9t-9 9v41q0 9 9 9t9 -9zM98 110v-41q0 -9 -9 -9t-9 9v41 q0 9 9 9t9 -9zM98 50v-41q0 -9 -9 -9t-9 9v41q0 9 9 9t9 -9zM158 410v-41q0 -9 -9 -9t-9 9v41q0 9 9 9t9 -9zM158 350v-41q0 -9 -9 -9t-9 9v41q0 9 9 9t9 -9zM158 290v-41q0 -9 -9 -9t-9 9v41q0 9 9 9t9 -9zM158 230v-41q0 -9 -9 -9t-9 9v41q0 9 9 9t9 -9zM158 170v-41 q0 -9 -9 -9t-9 9v41q0 9 9 9t9 -9zM158 110v-41q0 -9 -9 -9t-9 9v41q0 9 9 9t9 -9zM158 50v-41q0 -9 -9 -9t-9 9v41q0 9 9 9t9 -9zM20 489v41q0 9 9 9t9 -9v-41q0 -9 -9 -9t-9 9zM80 549v41q0 9 9 9t9 -9v-41q0 -9 -9 -9t-9 9zM140 549v41q0 9 9 9t9 -9v-41q0 -9 -9 -9t-9 9 zM200 489v41q0 9 9 9t9 -9v-41q0 -9 -9 -9t-9 9z" />
<glyph unicode="&#xef;" horiz-adv-x="240" d="M98 410v-41q0 -9 -9 -9t-9 9v41q0 9 9 9t9 -9zM98 350v-41q0 -9 -9 -9t-9 9v41q0 9 9 9t9 -9zM98 290v-41q0 -9 -9 -9t-9 9v41q0 9 9 9t9 -9zM98 230v-41q0 -9 -9 -9t-9 9v41q0 9 9 9t9 -9zM98 170v-41q0 -9 -9 -9t-9 9v41q0 9 9 9t9 -9zM98 110v-41q0 -9 -9 -9t-9 9v41 q0 9 9 9t9 -9zM98 50v-41q0 -9 -9 -9t-9 9v41q0 9 9 9t9 -9zM158 410v-41q0 -9 -9 -9t-9 9v41q0 9 9 9t9 -9zM158 350v-41q0 -9 -9 -9t-9 9v41q0 9 9 9t9 -9zM158 290v-41q0 -9 -9 -9t-9 9v41q0 9 9 9t9 -9zM158 230v-41q0 -9 -9 -9t-9 9v41q0 9 9 9t9 -9zM158 170v-41 q0 -9 -9 -9t-9 9v41q0 9 9 9t9 -9zM158 110v-41q0 -9 -9 -9t-9 9v41q0 9 9 9t9 -9zM158 50v-41q0 -9 -9 -9t-9 9v41q0 9 9 9t9 -9zM200 489v41q0 9 9 9t9 -9v-41q0 -9 -9 -9t-9 9zM20 489v41q0 9 9 9t9 -9v-41q0 -9 -9 -9t-9 9z" />
</font>
</defs>
</svg>
