<?xml version="1.0" standalone="no"?>
<!DOCTYPE svg PUBLIC "-//W3C//DTD SVG 1.1//EN" "http://www.w3.org/Graphics/SVG/1.1/DTD/svg11.dtd" >
<svg xmlns="http://www.w3.org/2000/svg">
<metadata>
This is a custom SVG webfont generated by Font Squirrel.
Copyright   : Copyright c 2010 by deValence All rights reserved
Foundry     : deValence
</metadata>
<defs>
<font id="ParticulesF" horiz-adv-x="480" >
<font-face units-per-em="1000" ascent="800" descent="-200" />
<missing-glyph horiz-adv-x="300" />
<glyph unicode=" "  horiz-adv-x="300" />
<glyph unicode="&#x09;" horiz-adv-x="300" />
<glyph unicode="&#xa0;" horiz-adv-x="300" />
<glyph unicode="!" horiz-adv-x="360" d="M160 9v41q0 9 9 9t9 -9v-41q0 -9 -9 -9t-9 9zM220 69v41q0 9 9 9t9 -9v-41q0 -9 -9 -9t-9 9zM220 189v41q0 9 9 9t9 -9v-41q0 -9 -9 -9t-9 9zM220 249v41q0 9 9 9t9 -9v-41q0 -9 -9 -9t-9 9zM220 309v41q0 9 9 9t9 -9v-41q0 -9 -9 -9t-9 9zM220 369v41q0 9 9 9t9 -9v-41 q0 -9 -9 -9t-9 9zM220 429v41q0 9 9 9t9 -9v-41q0 -9 -9 -9t-9 9zM220 489v41q0 9 9 9t9 -9v-41q0 -9 -9 -9t-9 9zM160 69v41q0 9 9 9t9 -9v-41q0 -9 -9 -9t-9 9zM160 189v41q0 9 9 9t9 -9v-41q0 -9 -9 -9t-9 9zM160 249v41q0 9 9 9t9 -9v-41q0 -9 -9 -9t-9 9zM160 309v41 q0 9 9 9t9 -9v-41q0 -9 -9 -9t-9 9zM160 369v41q0 9 9 9t9 -9v-41q0 -9 -9 -9t-9 9zM160 429v41q0 9 9 9t9 -9v-41q0 -9 -9 -9t-9 9zM160 489v41q0 9 9 9t9 -9v-41q0 -9 -9 -9t-9 9zM220 9v41q0 9 9 9t9 -9v-41q0 -9 -9 -9t-9 9z" />
<glyph unicode="&#x22;" horiz-adv-x="420" d="M280 369v41q0 9 9 9t9 -9v-41q0 -9 -9 -9t-9 9zM280 429v41q0 9 9 9t9 -9v-41q0 -9 -9 -9t-9 9zM280 489v41q0 9 9 9t9 -9v-41q0 -9 -9 -9t-9 9zM160 369v41q0 9 9 9t9 -9v-41q0 -9 -9 -9t-9 9zM160 429v41q0 9 9 9t9 -9v-41q0 -9 -9 -9t-9 9zM160 489v41q0 9 9 9t9 -9 v-41q0 -9 -9 -9t-9 9z" />
<glyph unicode="#" d="M118 110v-41q0 -9 -9 -9t-9 9v41q0 9 9 9t9 -9zM118 50v-41q0 -9 -9 -9t-9 9v41q0 9 9 9t9 -9zM178 230v-41q0 -9 -9 -9t-9 9v41q0 9 9 9t9 -9zM118 170v-41q0 -9 -9 -9t-9 9v41q0 9 9 9t9 -9zM178 350v-41q0 -9 -9 -9t-9 9v41q0 9 9 9t9 -9zM178 290v-41q0 -9 -9 -9 t-9 9v41q0 9 9 9t9 -9zM238 470v-41q0 -9 -9 -9t-9 9v41q0 9 9 9t9 -9zM238 410v-41q0 -9 -9 -9t-9 9v41q0 9 9 9t9 -9zM238 530v-41q0 -9 -9 -9t-9 9v41q0 9 9 9t9 -9zM298 110v-41q0 -9 -9 -9t-9 9v41q0 9 9 9t9 -9zM298 50v-41q0 -9 -9 -9t-9 9v41q0 9 9 9t9 -9zM358 230 v-41q0 -9 -9 -9t-9 9v41q0 9 9 9t9 -9zM298 170v-41q0 -9 -9 -9t-9 9v41q0 9 9 9t9 -9zM358 350v-41q0 -9 -9 -9t-9 9v41q0 9 9 9t9 -9zM358 290v-41q0 -9 -9 -9t-9 9v41q0 9 9 9t9 -9zM418 470v-41q0 -9 -9 -9t-9 9v41q0 9 9 9t9 -9zM418 410v-41q0 -9 -9 -9t-9 9v41 q0 9 9 9t9 -9zM418 530v-41q0 -9 -9 -9t-9 9v41q0 9 9 9t9 -9zM178 410v-41q0 -9 -9 -9t-9 9v41q0 9 9 9t9 -9zM118 410v-41q0 -9 -9 -9t-9 9v41q0 9 9 9t9 -9zM298 410v-41q0 -9 -9 -9t-9 9v41q0 9 9 9t9 -9zM358 410v-41q0 -9 -9 -9t-9 9v41q0 9 9 9t9 -9zM478 410v-41 q0 -9 -9 -9t-9 9v41q0 9 9 9t9 -9zM58 170v-41q0 -9 -9 -9t-9 9v41q0 9 9 9t9 -9zM178 170v-41q0 -9 -9 -9t-9 9v41q0 9 9 9t9 -9zM238 170v-41q0 -9 -9 -9t-9 9v41q0 9 9 9t9 -9zM358 170v-41q0 -9 -9 -9t-9 9v41q0 9 9 9t9 -9zM418 170v-41q0 -9 -9 -9t-9 9v41q0 9 9 9 t9 -9z" />
<glyph unicode="$" horiz-adv-x="420" d="M220 249v41q0 9 9 9t9 -9v-41q0 -9 -9 -9t-9 9zM100 69v41q0 9 9 9t9 -9v-41q0 -9 -9 -9t-9 9zM220 189v41q0 9 9 9t9 -9v-41q0 -9 -9 -9t-9 9zM280 9v41q0 9 9 9t9 -9v-41q0 -9 -9 -9t-9 9zM340 69v41q0 9 9 9t9 -9v-41q0 -9 -9 -9t-9 9zM340 129v41q0 9 9 9t9 -9v-41 q0 -9 -9 -9t-9 9zM340 189v41q0 9 9 9t9 -9v-41q0 -9 -9 -9t-9 9zM340 429v41q0 9 9 9t9 -9v-41q0 -9 -9 -9t-9 9zM280 69v41q0 9 9 9t9 -9v-41q0 -9 -9 -9t-9 9zM280 129v41q0 9 9 9t9 -9v-41q0 -9 -9 -9t-9 9zM280 189v41q0 9 9 9t9 -9v-41q0 -9 -9 -9t-9 9zM280 249v41 q0 9 9 9t9 -9v-41q0 -9 -9 -9t-9 9zM280 429v41q0 9 9 9t9 -9v-41q0 -9 -9 -9t-9 9zM280 489v41q0 9 9 9t9 -9v-41q0 -9 -9 -9t-9 9zM220 9v41q0 9 9 9t9 -9v-41q0 -9 -9 -9t-9 9zM160 9v41q0 9 9 9t9 -9v-41q0 -9 -9 -9t-9 9zM220 309v41q0 9 9 9t9 -9v-41q0 -9 -9 -9t-9 9 zM220 489v41q0 9 9 9t9 -9v-41q0 -9 -9 -9t-9 9zM160 249v41q0 9 9 9t9 -9v-41q0 -9 -9 -9t-9 9zM160 309v41q0 9 9 9t9 -9v-41q0 -9 -9 -9t-9 9zM160 369v41q0 9 9 9t9 -9v-41q0 -9 -9 -9t-9 9zM160 429v41q0 9 9 9t9 -9v-41q0 -9 -9 -9t-9 9zM160 489v41q0 9 9 9t9 -9v-41 q0 -9 -9 -9t-9 9zM100 309v41q0 9 9 9t9 -9v-41q0 -9 -9 -9t-9 9zM100 369v41q0 9 9 9t9 -9v-41q0 -9 -9 -9t-9 9zM100 429v41q0 9 9 9t9 -9v-41q0 -9 -9 -9t-9 9zM220 549v41q0 9 9 9t9 -9v-41q0 -9 -9 -9t-9 9zM220 609v41q0 9 9 9t9 -9v-41q0 -9 -9 -9t-9 9zM220 -51v41 q0 9 9 9t9 -9v-41q0 -9 -9 -9t-9 9zM220 -111v41q0 9 9 9t9 -9v-41q0 -9 -9 -9t-9 9z" />
<glyph unicode="%" horiz-adv-x="660" d="M238 110v-41q0 -9 -9 -9t-9 9v41q0 9 9 9t9 -9zM238 50v-41q0 -9 -9 -9t-9 9v41q0 9 9 9t9 -9zM298 230v-41q0 -9 -9 -9t-9 9v41q0 9 9 9t9 -9zM298 170v-41q0 -9 -9 -9t-9 9v41q0 9 9 9t9 -9zM358 350v-41q0 -9 -9 -9t-9 9v41q0 9 9 9t9 -9zM358 290v-41q0 -9 -9 -9 t-9 9v41q0 9 9 9t9 -9zM418 470v-41q0 -9 -9 -9t-9 9v41q0 9 9 9t9 -9zM418 410v-41q0 -9 -9 -9t-9 9v41q0 9 9 9t9 -9zM478 590v-41q0 -9 -9 -9t-9 9v41q0 9 9 9t9 -9zM478 530v-41q0 -9 -9 -9t-9 9v41q0 9 9 9t9 -9zM298 530v-41q0 -9 -9 -9t-9 9v41q0 9 9 9t9 -9z M298 470v-41q0 -9 -9 -9t-9 9v41q0 9 9 9t9 -9zM118 530v-41q0 -9 -9 -9t-9 9v41q0 9 9 9t9 -9zM118 470v-41q0 -9 -9 -9t-9 9v41q0 9 9 9t9 -9zM178 590v-41q0 -9 -9 -9t-9 9v41q0 9 9 9t9 -9zM238 590v-41q0 -9 -9 -9t-9 9v41q0 9 9 9t9 -9zM238 410v-41q0 -9 -9 -9t-9 9 v41q0 9 9 9t9 -9zM178 410v-41q0 -9 -9 -9t-9 9v41q0 9 9 9t9 -9zM598 170v-41q0 -9 -9 -9t-9 9v41q0 9 9 9t9 -9zM598 110v-41q0 -9 -9 -9t-9 9v41q0 9 9 9t9 -9zM418 170v-41q0 -9 -9 -9t-9 9v41q0 9 9 9t9 -9zM418 110v-41q0 -9 -9 -9t-9 9v41q0 9 9 9t9 -9zM478 230v-41 q0 -9 -9 -9t-9 9v41q0 9 9 9t9 -9zM538 230v-41q0 -9 -9 -9t-9 9v41q0 9 9 9t9 -9zM538 50v-41q0 -9 -9 -9t-9 9v41q0 9 9 9t9 -9zM478 50v-41q0 -9 -9 -9t-9 9v41q0 9 9 9t9 -9z" />
<glyph unicode="&#x26;" horiz-adv-x="600" d="M358 530v-41q0 -9 -9 -9t-9 9v41q0 9 9 9t9 -9zM358 470v-41q0 -9 -9 -9t-9 9v41q0 9 9 9t9 -9zM358 410v-41q0 -9 -9 -9t-9 9v41q0 9 9 9t9 -9zM538 350v-41q0 -9 -9 -9t-9 9v41q0 9 9 9t9 -9zM358 290v-41q0 -9 -9 -9t-9 9v41q0 9 9 9t9 -9zM358 230v-41q0 -9 -9 -9 t-9 9v41q0 9 9 9t9 -9zM358 170v-41q0 -9 -9 -9t-9 9v41q0 9 9 9t9 -9zM358 110v-41q0 -9 -9 -9t-9 9v41q0 9 9 9t9 -9zM358 50v-41q0 -9 -9 -9t-9 9v41q0 9 9 9t9 -9zM418 470v-41q0 -9 -9 -9t-9 9v41q0 9 9 9t9 -9zM418 410v-41q0 -9 -9 -9t-9 9v41q0 9 9 9t9 -9zM418 290 v-41q0 -9 -9 -9t-9 9v41q0 9 9 9t9 -9zM418 230v-41q0 -9 -9 -9t-9 9v41q0 9 9 9t9 -9zM418 170v-41q0 -9 -9 -9t-9 9v41q0 9 9 9t9 -9zM418 110v-41q0 -9 -9 -9t-9 9v41q0 9 9 9t9 -9zM238 50v-41q0 -9 -9 -9t-9 9v41q0 9 9 9t9 -9zM178 530v-41q0 -9 -9 -9t-9 9v41 q0 9 9 9t9 -9zM118 470v-41q0 -9 -9 -9t-9 9v41q0 9 9 9t9 -9zM118 410v-41q0 -9 -9 -9t-9 9v41q0 9 9 9t9 -9zM118 290v-41q0 -9 -9 -9t-9 9v41q0 9 9 9t9 -9zM118 230v-41q0 -9 -9 -9t-9 9v41q0 9 9 9t9 -9zM118 170v-41q0 -9 -9 -9t-9 9v41q0 9 9 9t9 -9zM118 110v-41 q0 -9 -9 -9t-9 9v41q0 9 9 9t9 -9zM178 470v-41q0 -9 -9 -9t-9 9v41q0 9 9 9t9 -9zM178 410v-41q0 -9 -9 -9t-9 9v41q0 9 9 9t9 -9zM178 350v-41q0 -9 -9 -9t-9 9v41q0 9 9 9t9 -9zM178 290v-41q0 -9 -9 -9t-9 9v41q0 9 9 9t9 -9zM178 230v-41q0 -9 -9 -9t-9 9v41q0 9 9 9 t9 -9zM178 170v-41q0 -9 -9 -9t-9 9v41q0 9 9 9t9 -9zM178 110v-41q0 -9 -9 -9t-9 9v41q0 9 9 9t9 -9zM178 50v-41q0 -9 -9 -9t-9 9v41q0 9 9 9t9 -9zM238 530v-41q0 -9 -9 -9t-9 9v41q0 9 9 9t9 -9zM298 530v-41q0 -9 -9 -9t-9 9v41q0 9 9 9t9 -9zM238 350v-41q0 -9 -9 -9 t-9 9v41q0 9 9 9t9 -9zM298 50v-41q0 -9 -9 -9t-9 9v41q0 9 9 9t9 -9zM538 410v-41q0 -9 -9 -9t-9 9v41q0 9 9 9t9 -9zM478 290v-41q0 -9 -9 -9t-9 9v41q0 9 9 9t9 -9z" />
<glyph unicode="'" horiz-adv-x="180" d="M100 369v41q0 9 9 9t9 -9v-41q0 -9 -9 -9t-9 9zM100 429v41q0 9 9 9t9 -9v-41q0 -9 -9 -9t-9 9zM100 489v41q0 9 9 9t9 -9v-41q0 -9 -9 -9t-9 9z" />
<glyph unicode="(" horiz-adv-x="300" d="M220 549v41q0 9 9 9t9 -9v-41q0 -9 -9 -9t-9 9zM160 369v41q0 9 9 9t9 -9v-41q0 -9 -9 -9t-9 9zM160 429v41q0 9 9 9t9 -9v-41q0 -9 -9 -9t-9 9zM160 489v41q0 9 9 9t9 -9v-41q0 -9 -9 -9t-9 9zM160 189v41q0 9 9 9t9 -9v-41q0 -9 -9 -9t-9 9zM160 249v41q0 9 9 9t9 -9 v-41q0 -9 -9 -9t-9 9zM160 309v41q0 9 9 9t9 -9v-41q0 -9 -9 -9t-9 9zM160 9v41q0 9 9 9t9 -9v-41q0 -9 -9 -9t-9 9zM160 69v41q0 9 9 9t9 -9v-41q0 -9 -9 -9t-9 9zM160 129v41q0 9 9 9t9 -9v-41q0 -9 -9 -9t-9 9zM220 -51v41q0 9 9 9t9 -9v-41q0 -9 -9 -9t-9 9zM100 369v41 q0 9 9 9t9 -9v-41q0 -9 -9 -9t-9 9zM100 429v41q0 9 9 9t9 -9v-41q0 -9 -9 -9t-9 9zM100 189v41q0 9 9 9t9 -9v-41q0 -9 -9 -9t-9 9zM100 249v41q0 9 9 9t9 -9v-41q0 -9 -9 -9t-9 9zM100 309v41q0 9 9 9t9 -9v-41q0 -9 -9 -9t-9 9zM100 69v41q0 9 9 9t9 -9v-41q0 -9 -9 -9 t-9 9zM100 129v41q0 9 9 9t9 -9v-41q0 -9 -9 -9t-9 9z" />
<glyph unicode=")" horiz-adv-x="300" d="M118 590v-41q0 -9 -9 -9t-9 9v41q0 9 9 9t9 -9zM178 410v-41q0 -9 -9 -9t-9 9v41q0 9 9 9t9 -9zM178 470v-41q0 -9 -9 -9t-9 9v41q0 9 9 9t9 -9zM178 530v-41q0 -9 -9 -9t-9 9v41q0 9 9 9t9 -9zM178 230v-41q0 -9 -9 -9t-9 9v41q0 9 9 9t9 -9zM178 290v-41q0 -9 -9 -9 t-9 9v41q0 9 9 9t9 -9zM178 350v-41q0 -9 -9 -9t-9 9v41q0 9 9 9t9 -9zM178 50v-41q0 -9 -9 -9t-9 9v41q0 9 9 9t9 -9zM178 110v-41q0 -9 -9 -9t-9 9v41q0 9 9 9t9 -9zM178 170v-41q0 -9 -9 -9t-9 9v41q0 9 9 9t9 -9zM118 -10v-41q0 -9 -9 -9t-9 9v41q0 9 9 9t9 -9zM238 410 v-41q0 -9 -9 -9t-9 9v41q0 9 9 9t9 -9zM238 470v-41q0 -9 -9 -9t-9 9v41q0 9 9 9t9 -9zM238 230v-41q0 -9 -9 -9t-9 9v41q0 9 9 9t9 -9zM238 290v-41q0 -9 -9 -9t-9 9v41q0 9 9 9t9 -9zM238 350v-41q0 -9 -9 -9t-9 9v41q0 9 9 9t9 -9zM238 110v-41q0 -9 -9 -9t-9 9v41 q0 9 9 9t9 -9zM238 170v-41q0 -9 -9 -9t-9 9v41q0 9 9 9t9 -9z" />
<glyph unicode="*" horiz-adv-x="420" d="M220 369v41q0 9 9 9t9 -9v-41q0 -9 -9 -9t-9 9zM220 429v41q0 9 9 9t9 -9v-41q0 -9 -9 -9t-9 9zM220 489v41q0 9 9 9t9 -9v-41q0 -9 -9 -9t-9 9zM100 429v41q0 9 9 9t9 -9v-41q0 -9 -9 -9t-9 9zM100 309v41q0 9 9 9t9 -9v-41q0 -9 -9 -9t-9 9zM160 369v41q0 9 9 9t9 -9 v-41q0 -9 -9 -9t-9 9zM280 369v41q0 9 9 9t9 -9v-41q0 -9 -9 -9t-9 9zM340 429v41q0 9 9 9t9 -9v-41q0 -9 -9 -9t-9 9zM340 309v41q0 9 9 9t9 -9v-41q0 -9 -9 -9t-9 9zM220 309v41q0 9 9 9t9 -9v-41q0 -9 -9 -9t-9 9zM220 249v41q0 9 9 9t9 -9v-41q0 -9 -9 -9t-9 9z" />
<glyph unicode="+" d="M178 290v-41q0 -9 -9 -9t-9 9v41q0 9 9 9t9 -9zM118 290v-41q0 -9 -9 -9t-9 9v41q0 9 9 9t9 -9zM298 290v-41q0 -9 -9 -9t-9 9v41q0 9 9 9t9 -9zM238 290v-41q0 -9 -9 -9t-9 9v41q0 9 9 9t9 -9zM358 290v-41q0 -9 -9 -9t-9 9v41q0 9 9 9t9 -9zM418 290v-41q0 -9 -9 -9 t-9 9v41q0 9 9 9t9 -9zM478 290v-41q0 -9 -9 -9t-9 9v41q0 9 9 9t9 -9zM298 350v-41q0 -9 -9 -9t-9 9v41q0 9 9 9t9 -9zM298 410v-41q0 -9 -9 -9t-9 9v41q0 9 9 9t9 -9zM298 470v-41q0 -9 -9 -9t-9 9v41q0 9 9 9t9 -9zM298 230v-41q0 -9 -9 -9t-9 9v41q0 9 9 9t9 -9z M298 170v-41q0 -9 -9 -9t-9 9v41q0 9 9 9t9 -9zM298 110v-41q0 -9 -9 -9t-9 9v41q0 9 9 9t9 -9z" />
<glyph unicode="," horiz-adv-x="240" d="M100 9v41q0 9 9 9t9 -9v-41q0 -9 -9 -9t-9 9zM160 69v41q0 9 9 9t9 -9v-41q0 -9 -9 -9t-9 9zM100 69v41q0 9 9 9t9 -9v-41q0 -9 -9 -9t-9 9zM160 9v41q0 9 9 9t9 -9v-41q0 -9 -9 -9t-9 9zM160 -51v41q0 9 9 9t9 -9v-41q0 -9 -9 -9t-9 9zM100 -111v41q0 9 9 9t9 -9v-41 q0 -9 -9 -9t-9 9z" />
<glyph unicode="-" horiz-adv-x="420" d="M178 290v-41q0 -9 -9 -9t-9 9v41q0 9 9 9t9 -9zM118 290v-41q0 -9 -9 -9t-9 9v41q0 9 9 9t9 -9zM298 290v-41q0 -9 -9 -9t-9 9v41q0 9 9 9t9 -9zM238 290v-41q0 -9 -9 -9t-9 9v41q0 9 9 9t9 -9zM358 290v-41q0 -9 -9 -9t-9 9v41q0 9 9 9t9 -9z" />
<glyph unicode="." horiz-adv-x="240" d="M100 9v41q0 9 9 9t9 -9v-41q0 -9 -9 -9t-9 9zM160 69v41q0 9 9 9t9 -9v-41q0 -9 -9 -9t-9 9zM100 69v41q0 9 9 9t9 -9v-41q0 -9 -9 -9t-9 9zM160 9v41q0 9 9 9t9 -9v-41q0 -9 -9 -9t-9 9z" />
<glyph unicode="/" d="M118 110v-41q0 -9 -9 -9t-9 9v41q0 9 9 9t9 -9zM118 50v-41q0 -9 -9 -9t-9 9v41q0 9 9 9t9 -9zM178 230v-41q0 -9 -9 -9t-9 9v41q0 9 9 9t9 -9zM178 170v-41q0 -9 -9 -9t-9 9v41q0 9 9 9t9 -9zM238 350v-41q0 -9 -9 -9t-9 9v41q0 9 9 9t9 -9zM238 290v-41q0 -9 -9 -9 t-9 9v41q0 9 9 9t9 -9zM298 470v-41q0 -9 -9 -9t-9 9v41q0 9 9 9t9 -9zM298 410v-41q0 -9 -9 -9t-9 9v41q0 9 9 9t9 -9zM358 590v-41q0 -9 -9 -9t-9 9v41q0 9 9 9t9 -9zM358 530v-41q0 -9 -9 -9t-9 9v41q0 9 9 9t9 -9zM418 710v-41q0 -9 -9 -9t-9 9v41q0 9 9 9t9 -9z M418 650v-41q0 -9 -9 -9t-9 9v41q0 9 9 9t9 -9z" />
<glyph unicode="0" d="M160 9v41q0 9 9 9t9 -9v-41q0 -9 -9 -9t-9 9zM160 69v41q0 9 9 9t9 -9v-41q0 -9 -9 -9t-9 9zM160 129v41q0 9 9 9t9 -9v-41q0 -9 -9 -9t-9 9zM160 189v41q0 9 9 9t9 -9v-41q0 -9 -9 -9t-9 9zM160 249v41q0 9 9 9t9 -9v-41q0 -9 -9 -9t-9 9zM160 309v41q0 9 9 9t9 -9v-41 q0 -9 -9 -9t-9 9zM160 369v41q0 9 9 9t9 -9v-41q0 -9 -9 -9t-9 9zM160 429v41q0 9 9 9t9 -9v-41q0 -9 -9 -9t-9 9zM160 489v41q0 9 9 9t9 -9v-41q0 -9 -9 -9t-9 9zM100 69v41q0 9 9 9t9 -9v-41q0 -9 -9 -9t-9 9zM100 129v41q0 9 9 9t9 -9v-41q0 -9 -9 -9t-9 9zM100 189v41 q0 9 9 9t9 -9v-41q0 -9 -9 -9t-9 9zM100 249v41q0 9 9 9t9 -9v-41q0 -9 -9 -9t-9 9zM100 309v41q0 9 9 9t9 -9v-41q0 -9 -9 -9t-9 9zM100 369v41q0 9 9 9t9 -9v-41q0 -9 -9 -9t-9 9zM100 429v41q0 9 9 9t9 -9v-41q0 -9 -9 -9t-9 9zM220 489v41q0 9 9 9t9 -9v-41q0 -9 -9 -9 t-9 9zM340 9v41q0 9 9 9t9 -9v-41q0 -9 -9 -9t-9 9zM400 69v41q0 9 9 9t9 -9v-41q0 -9 -9 -9t-9 9zM400 129v41q0 9 9 9t9 -9v-41q0 -9 -9 -9t-9 9zM400 189v41q0 9 9 9t9 -9v-41q0 -9 -9 -9t-9 9zM400 249v41q0 9 9 9t9 -9v-41q0 -9 -9 -9t-9 9zM400 309v41q0 9 9 9t9 -9 v-41q0 -9 -9 -9t-9 9zM400 369v41q0 9 9 9t9 -9v-41q0 -9 -9 -9t-9 9zM400 429v41q0 9 9 9t9 -9v-41q0 -9 -9 -9t-9 9zM280 489v41q0 9 9 9t9 -9v-41q0 -9 -9 -9t-9 9zM340 69v41q0 9 9 9t9 -9v-41q0 -9 -9 -9t-9 9zM340 129v41q0 9 9 9t9 -9v-41q0 -9 -9 -9t-9 9zM340 189 v41q0 9 9 9t9 -9v-41q0 -9 -9 -9t-9 9zM340 249v41q0 9 9 9t9 -9v-41q0 -9 -9 -9t-9 9zM340 309v41q0 9 9 9t9 -9v-41q0 -9 -9 -9t-9 9zM340 369v41q0 9 9 9t9 -9v-41q0 -9 -9 -9t-9 9zM340 429v41q0 9 9 9t9 -9v-41q0 -9 -9 -9t-9 9zM340 489v41q0 9 9 9t9 -9v-41 q0 -9 -9 -9t-9 9zM280 9v41q0 9 9 9t9 -9v-41q0 -9 -9 -9t-9 9zM220 9v41q0 9 9 9t9 -9v-41q0 -9 -9 -9t-9 9z" />
<glyph unicode="1" d="M280 9v41q0 9 9 9t9 -9v-41q0 -9 -9 -9t-9 9zM160 9v41q0 9 9 9t9 -9v-41q0 -9 -9 -9t-9 9zM220 9v41q0 9 9 9t9 -9v-41q0 -9 -9 -9t-9 9zM100 9v41q0 9 9 9t9 -9v-41q0 -9 -9 -9t-9 9zM280 189v41q0 9 9 9t9 -9v-41q0 -9 -9 -9t-9 9zM280 129v41q0 9 9 9t9 -9v-41 q0 -9 -9 -9t-9 9zM280 69v41q0 9 9 9t9 -9v-41q0 -9 -9 -9t-9 9zM400 9v41q0 9 9 9t9 -9v-41q0 -9 -9 -9t-9 9zM220 189v41q0 9 9 9t9 -9v-41q0 -9 -9 -9t-9 9zM220 129v41q0 9 9 9t9 -9v-41q0 -9 -9 -9t-9 9zM220 69v41q0 9 9 9t9 -9v-41q0 -9 -9 -9t-9 9zM340 9v41 q0 9 9 9t9 -9v-41q0 -9 -9 -9t-9 9zM280 249v41q0 9 9 9t9 -9v-41q0 -9 -9 -9t-9 9zM220 249v41q0 9 9 9t9 -9v-41q0 -9 -9 -9t-9 9zM280 309v41q0 9 9 9t9 -9v-41q0 -9 -9 -9t-9 9zM220 309v41q0 9 9 9t9 -9v-41q0 -9 -9 -9t-9 9zM280 369v41q0 9 9 9t9 -9v-41q0 -9 -9 -9 t-9 9zM220 369v41q0 9 9 9t9 -9v-41q0 -9 -9 -9t-9 9zM280 429v41q0 9 9 9t9 -9v-41q0 -9 -9 -9t-9 9zM220 429v41q0 9 9 9t9 -9v-41q0 -9 -9 -9t-9 9zM280 489v41q0 9 9 9t9 -9v-41q0 -9 -9 -9t-9 9zM220 489v41q0 9 9 9t9 -9v-41q0 -9 -9 -9t-9 9zM160 429v41q0 9 9 9 t9 -9v-41q0 -9 -9 -9t-9 9zM100 369v41q0 9 9 9t9 -9v-41q0 -9 -9 -9t-9 9z" />
<glyph unicode="2" d="M358 50v-41q0 -9 -9 -9t-9 9v41q0 9 9 9t9 -9zM178 110v-41q0 -9 -9 -9t-9 9v41q0 9 9 9t9 -9zM178 170v-41q0 -9 -9 -9t-9 9v41q0 9 9 9t9 -9zM298 230v-41q0 -9 -9 -9t-9 9v41q0 9 9 9t9 -9zM358 290v-41q0 -9 -9 -9t-9 9v41q0 9 9 9t9 -9zM358 350v-41q0 -9 -9 -9 t-9 9v41q0 9 9 9t9 -9zM358 410v-41q0 -9 -9 -9t-9 9v41q0 9 9 9t9 -9zM358 470v-41q0 -9 -9 -9t-9 9v41q0 9 9 9t9 -9zM358 530v-41q0 -9 -9 -9t-9 9v41q0 9 9 9t9 -9zM418 50v-41q0 -9 -9 -9t-9 9v41q0 9 9 9t9 -9zM238 170v-41q0 -9 -9 -9t-9 9v41q0 9 9 9t9 -9zM238 230 v-41q0 -9 -9 -9t-9 9v41q0 9 9 9t9 -9zM298 290v-41q0 -9 -9 -9t-9 9v41q0 9 9 9t9 -9zM418 350v-41q0 -9 -9 -9t-9 9v41q0 9 9 9t9 -9zM418 410v-41q0 -9 -9 -9t-9 9v41q0 9 9 9t9 -9zM418 470v-41q0 -9 -9 -9t-9 9v41q0 9 9 9t9 -9zM298 530v-41q0 -9 -9 -9t-9 9v41 q0 9 9 9t9 -9zM178 50v-41q0 -9 -9 -9t-9 9v41q0 9 9 9t9 -9zM118 110v-41q0 -9 -9 -9t-9 9v41q0 9 9 9t9 -9zM118 470v-41q0 -9 -9 -9t-9 9v41q0 9 9 9t9 -9zM238 530v-41q0 -9 -9 -9t-9 9v41q0 9 9 9t9 -9zM178 530v-41q0 -9 -9 -9t-9 9v41q0 9 9 9t9 -9zM238 50v-41 q0 -9 -9 -9t-9 9v41q0 9 9 9t9 -9zM298 50v-41q0 -9 -9 -9t-9 9v41q0 9 9 9t9 -9zM118 50v-41q0 -9 -9 -9t-9 9v41q0 9 9 9t9 -9z" />
<glyph unicode="3" d="M358 530v-41q0 -9 -9 -9t-9 9v41q0 9 9 9t9 -9zM358 470v-41q0 -9 -9 -9t-9 9v41q0 9 9 9t9 -9zM358 350v-41q0 -9 -9 -9t-9 9v41q0 9 9 9t9 -9zM358 290v-41q0 -9 -9 -9t-9 9v41q0 9 9 9t9 -9zM358 230v-41q0 -9 -9 -9t-9 9v41q0 9 9 9t9 -9zM418 530v-41q0 -9 -9 -9 t-9 9v41q0 9 9 9t9 -9zM418 290v-41q0 -9 -9 -9t-9 9v41q0 9 9 9t9 -9zM298 350v-41q0 -9 -9 -9t-9 9v41q0 9 9 9t9 -9zM118 530v-41q0 -9 -9 -9t-9 9v41q0 9 9 9t9 -9zM238 350v-41q0 -9 -9 -9t-9 9v41q0 9 9 9t9 -9zM178 530v-41q0 -9 -9 -9t-9 9v41q0 9 9 9t9 -9z M178 350v-41q0 -9 -9 -9t-9 9v41q0 9 9 9t9 -9zM418 230v-41q0 -9 -9 -9t-9 9v41q0 9 9 9t9 -9zM418 170v-41q0 -9 -9 -9t-9 9v41q0 9 9 9t9 -9zM418 110v-41q0 -9 -9 -9t-9 9v41q0 9 9 9t9 -9zM358 110v-41q0 -9 -9 -9t-9 9v41q0 9 9 9t9 -9zM358 170v-41q0 -9 -9 -9t-9 9 v41q0 9 9 9t9 -9zM358 50v-41q0 -9 -9 -9t-9 9v41q0 9 9 9t9 -9zM298 50v-41q0 -9 -9 -9t-9 9v41q0 9 9 9t9 -9zM238 50v-41q0 -9 -9 -9t-9 9v41q0 9 9 9t9 -9zM178 50v-41q0 -9 -9 -9t-9 9v41q0 9 9 9t9 -9zM118 110v-41q0 -9 -9 -9t-9 9v41q0 9 9 9t9 -9zM298 410v-41 q0 -9 -9 -9t-9 9v41q0 9 9 9t9 -9zM238 410v-41q0 -9 -9 -9t-9 9v41q0 9 9 9t9 -9zM298 470v-41q0 -9 -9 -9t-9 9v41q0 9 9 9t9 -9zM298 530v-41q0 -9 -9 -9t-9 9v41q0 9 9 9t9 -9zM238 530v-41q0 -9 -9 -9t-9 9v41q0 9 9 9t9 -9z" />
<glyph unicode="4" d="M358 530v-41q0 -9 -9 -9t-9 9v41q0 9 9 9t9 -9zM358 470v-41q0 -9 -9 -9t-9 9v41q0 9 9 9t9 -9zM358 410v-41q0 -9 -9 -9t-9 9v41q0 9 9 9t9 -9zM358 350v-41q0 -9 -9 -9t-9 9v41q0 9 9 9t9 -9zM358 290v-41q0 -9 -9 -9t-9 9v41q0 9 9 9t9 -9zM358 230v-41q0 -9 -9 -9 t-9 9v41q0 9 9 9t9 -9zM358 170v-41q0 -9 -9 -9t-9 9v41q0 9 9 9t9 -9zM358 110v-41q0 -9 -9 -9t-9 9v41q0 9 9 9t9 -9zM358 50v-41q0 -9 -9 -9t-9 9v41q0 9 9 9t9 -9zM418 470v-41q0 -9 -9 -9t-9 9v41q0 9 9 9t9 -9zM418 410v-41q0 -9 -9 -9t-9 9v41q0 9 9 9t9 -9zM418 350 v-41q0 -9 -9 -9t-9 9v41q0 9 9 9t9 -9zM418 290v-41q0 -9 -9 -9t-9 9v41q0 9 9 9t9 -9zM418 230v-41q0 -9 -9 -9t-9 9v41q0 9 9 9t9 -9zM418 170v-41q0 -9 -9 -9t-9 9v41q0 9 9 9t9 -9zM418 110v-41q0 -9 -9 -9t-9 9v41q0 9 9 9t9 -9zM418 50v-41q0 -9 -9 -9t-9 9v41 q0 9 9 9t9 -9zM118 290v-41q0 -9 -9 -9t-9 9v41q0 9 9 9t9 -9zM118 230v-41q0 -9 -9 -9t-9 9v41q0 9 9 9t9 -9zM298 470v-41q0 -9 -9 -9t-9 9v41q0 9 9 9t9 -9zM238 410v-41q0 -9 -9 -9t-9 9v41q0 9 9 9t9 -9zM178 350v-41q0 -9 -9 -9t-9 9v41q0 9 9 9t9 -9zM178 230v-41 q0 -9 -9 -9t-9 9v41q0 9 9 9t9 -9zM418 530v-41q0 -9 -9 -9t-9 9v41q0 9 9 9t9 -9zM298 230v-41q0 -9 -9 -9t-9 9v41q0 9 9 9t9 -9zM238 230v-41q0 -9 -9 -9t-9 9v41q0 9 9 9t9 -9zM478 230v-41q0 -9 -9 -9t-9 9v41q0 9 9 9t9 -9z" />
<glyph unicode="5" d="M358 530v-41q0 -9 -9 -9t-9 9v41q0 9 9 9t9 -9zM178 470v-41q0 -9 -9 -9t-9 9v41q0 9 9 9t9 -9zM358 350v-41q0 -9 -9 -9t-9 9v41q0 9 9 9t9 -9zM358 290v-41q0 -9 -9 -9t-9 9v41q0 9 9 9t9 -9zM358 230v-41q0 -9 -9 -9t-9 9v41q0 9 9 9t9 -9zM418 530v-41q0 -9 -9 -9 t-9 9v41q0 9 9 9t9 -9zM418 290v-41q0 -9 -9 -9t-9 9v41q0 9 9 9t9 -9zM298 350v-41q0 -9 -9 -9t-9 9v41q0 9 9 9t9 -9zM118 530v-41q0 -9 -9 -9t-9 9v41q0 9 9 9t9 -9zM238 350v-41q0 -9 -9 -9t-9 9v41q0 9 9 9t9 -9zM178 530v-41q0 -9 -9 -9t-9 9v41q0 9 9 9t9 -9z M178 350v-41q0 -9 -9 -9t-9 9v41q0 9 9 9t9 -9zM418 230v-41q0 -9 -9 -9t-9 9v41q0 9 9 9t9 -9zM418 170v-41q0 -9 -9 -9t-9 9v41q0 9 9 9t9 -9zM418 110v-41q0 -9 -9 -9t-9 9v41q0 9 9 9t9 -9zM358 110v-41q0 -9 -9 -9t-9 9v41q0 9 9 9t9 -9zM358 170v-41q0 -9 -9 -9t-9 9 v41q0 9 9 9t9 -9zM358 50v-41q0 -9 -9 -9t-9 9v41q0 9 9 9t9 -9zM298 50v-41q0 -9 -9 -9t-9 9v41q0 9 9 9t9 -9zM238 50v-41q0 -9 -9 -9t-9 9v41q0 9 9 9t9 -9zM178 50v-41q0 -9 -9 -9t-9 9v41q0 9 9 9t9 -9zM118 110v-41q0 -9 -9 -9t-9 9v41q0 9 9 9t9 -9zM178 410v-41 q0 -9 -9 -9t-9 9v41q0 9 9 9t9 -9zM118 410v-41q0 -9 -9 -9t-9 9v41q0 9 9 9t9 -9zM118 470v-41q0 -9 -9 -9t-9 9v41q0 9 9 9t9 -9zM298 530v-41q0 -9 -9 -9t-9 9v41q0 9 9 9t9 -9zM238 530v-41q0 -9 -9 -9t-9 9v41q0 9 9 9t9 -9zM118 350v-41q0 -9 -9 -9t-9 9v41q0 9 9 9 t9 -9z" />
<glyph unicode="6" d="M160 9v41q0 9 9 9t9 -9v-41q0 -9 -9 -9t-9 9zM160 69v41q0 9 9 9t9 -9v-41q0 -9 -9 -9t-9 9zM160 129v41q0 9 9 9t9 -9v-41q0 -9 -9 -9t-9 9zM160 189v41q0 9 9 9t9 -9v-41q0 -9 -9 -9t-9 9zM160 249v41q0 9 9 9t9 -9v-41q0 -9 -9 -9t-9 9zM160 309v41q0 9 9 9t9 -9v-41 q0 -9 -9 -9t-9 9zM100 69v41q0 9 9 9t9 -9v-41q0 -9 -9 -9t-9 9zM100 129v41q0 9 9 9t9 -9v-41q0 -9 -9 -9t-9 9zM100 189v41q0 9 9 9t9 -9v-41q0 -9 -9 -9t-9 9zM100 249v41q0 9 9 9t9 -9v-41q0 -9 -9 -9t-9 9zM220 309v41q0 9 9 9t9 -9v-41q0 -9 -9 -9t-9 9zM340 9v41 q0 9 9 9t9 -9v-41q0 -9 -9 -9t-9 9zM400 69v41q0 9 9 9t9 -9v-41q0 -9 -9 -9t-9 9zM400 129v41q0 9 9 9t9 -9v-41q0 -9 -9 -9t-9 9zM400 189v41q0 9 9 9t9 -9v-41q0 -9 -9 -9t-9 9zM400 249v41q0 9 9 9t9 -9v-41q0 -9 -9 -9t-9 9zM280 309v41q0 9 9 9t9 -9v-41q0 -9 -9 -9 t-9 9zM340 69v41q0 9 9 9t9 -9v-41q0 -9 -9 -9t-9 9zM340 129v41q0 9 9 9t9 -9v-41q0 -9 -9 -9t-9 9zM340 189v41q0 9 9 9t9 -9v-41q0 -9 -9 -9t-9 9zM340 249v41q0 9 9 9t9 -9v-41q0 -9 -9 -9t-9 9zM340 309v41q0 9 9 9t9 -9v-41q0 -9 -9 -9t-9 9zM280 9v41q0 9 9 9t9 -9 v-41q0 -9 -9 -9t-9 9zM220 9v41q0 9 9 9t9 -9v-41q0 -9 -9 -9t-9 9zM100 309v41q0 9 9 9t9 -9v-41q0 -9 -9 -9t-9 9zM100 369v41q0 9 9 9t9 -9v-41q0 -9 -9 -9t-9 9zM220 429v41q0 9 9 9t9 -9v-41q0 -9 -9 -9t-9 9zM160 429v41q0 9 9 9t9 -9v-41q0 -9 -9 -9t-9 9zM160 369 v41q0 9 9 9t9 -9v-41q0 -9 -9 -9t-9 9zM220 489v41q0 9 9 9t9 -9v-41q0 -9 -9 -9t-9 9zM280 489v41q0 9 9 9t9 -9v-41q0 -9 -9 -9t-9 9zM340 489v41q0 9 9 9t9 -9v-41q0 -9 -9 -9t-9 9z" />
<glyph unicode="7" d="M280 489v41q0 9 9 9t9 -9v-41q0 -9 -9 -9t-9 9zM160 489v41q0 9 9 9t9 -9v-41q0 -9 -9 -9t-9 9zM220 489v41q0 9 9 9t9 -9v-41q0 -9 -9 -9t-9 9zM100 489v41q0 9 9 9t9 -9v-41q0 -9 -9 -9t-9 9zM400 309v41q0 9 9 9t9 -9v-41q0 -9 -9 -9t-9 9zM400 369v41q0 9 9 9t9 -9 v-41q0 -9 -9 -9t-9 9zM400 429v41q0 9 9 9t9 -9v-41q0 -9 -9 -9t-9 9zM400 489v41q0 9 9 9t9 -9v-41q0 -9 -9 -9t-9 9zM340 309v41q0 9 9 9t9 -9v-41q0 -9 -9 -9t-9 9zM340 369v41q0 9 9 9t9 -9v-41q0 -9 -9 -9t-9 9zM340 429v41q0 9 9 9t9 -9v-41q0 -9 -9 -9t-9 9zM340 489 v41q0 9 9 9t9 -9v-41q0 -9 -9 -9t-9 9zM340 249v41q0 9 9 9t9 -9v-41q0 -9 -9 -9t-9 9zM280 249v41q0 9 9 9t9 -9v-41q0 -9 -9 -9t-9 9zM280 189v41q0 9 9 9t9 -9v-41q0 -9 -9 -9t-9 9zM220 189v41q0 9 9 9t9 -9v-41q0 -9 -9 -9t-9 9zM280 129v41q0 9 9 9t9 -9v-41 q0 -9 -9 -9t-9 9zM220 129v41q0 9 9 9t9 -9v-41q0 -9 -9 -9t-9 9zM280 69v41q0 9 9 9t9 -9v-41q0 -9 -9 -9t-9 9zM220 69v41q0 9 9 9t9 -9v-41q0 -9 -9 -9t-9 9zM280 9v41q0 9 9 9t9 -9v-41q0 -9 -9 -9t-9 9zM220 9v41q0 9 9 9t9 -9v-41q0 -9 -9 -9t-9 9z" />
<glyph unicode="8" d="M358 530v-41q0 -9 -9 -9t-9 9v41q0 9 9 9t9 -9zM358 470v-41q0 -9 -9 -9t-9 9v41q0 9 9 9t9 -9zM358 410v-41q0 -9 -9 -9t-9 9v41q0 9 9 9t9 -9zM358 350v-41q0 -9 -9 -9t-9 9v41q0 9 9 9t9 -9zM358 290v-41q0 -9 -9 -9t-9 9v41q0 9 9 9t9 -9zM358 230v-41q0 -9 -9 -9 t-9 9v41q0 9 9 9t9 -9zM358 170v-41q0 -9 -9 -9t-9 9v41q0 9 9 9t9 -9zM358 110v-41q0 -9 -9 -9t-9 9v41q0 9 9 9t9 -9zM358 50v-41q0 -9 -9 -9t-9 9v41q0 9 9 9t9 -9zM418 470v-41q0 -9 -9 -9t-9 9v41q0 9 9 9t9 -9zM418 410v-41q0 -9 -9 -9t-9 9v41q0 9 9 9t9 -9zM418 350 v-41q0 -9 -9 -9t-9 9v41q0 9 9 9t9 -9zM418 230v-41q0 -9 -9 -9t-9 9v41q0 9 9 9t9 -9zM418 170v-41q0 -9 -9 -9t-9 9v41q0 9 9 9t9 -9zM418 110v-41q0 -9 -9 -9t-9 9v41q0 9 9 9t9 -9zM238 50v-41q0 -9 -9 -9t-9 9v41q0 9 9 9t9 -9zM178 530v-41q0 -9 -9 -9t-9 9v41 q0 9 9 9t9 -9zM118 470v-41q0 -9 -9 -9t-9 9v41q0 9 9 9t9 -9zM118 410v-41q0 -9 -9 -9t-9 9v41q0 9 9 9t9 -9zM118 350v-41q0 -9 -9 -9t-9 9v41q0 9 9 9t9 -9zM118 230v-41q0 -9 -9 -9t-9 9v41q0 9 9 9t9 -9zM118 170v-41q0 -9 -9 -9t-9 9v41q0 9 9 9t9 -9zM118 110v-41 q0 -9 -9 -9t-9 9v41q0 9 9 9t9 -9zM178 470v-41q0 -9 -9 -9t-9 9v41q0 9 9 9t9 -9zM178 410v-41q0 -9 -9 -9t-9 9v41q0 9 9 9t9 -9zM178 350v-41q0 -9 -9 -9t-9 9v41q0 9 9 9t9 -9zM178 290v-41q0 -9 -9 -9t-9 9v41q0 9 9 9t9 -9zM178 230v-41q0 -9 -9 -9t-9 9v41q0 9 9 9 t9 -9zM178 170v-41q0 -9 -9 -9t-9 9v41q0 9 9 9t9 -9zM178 110v-41q0 -9 -9 -9t-9 9v41q0 9 9 9t9 -9zM178 50v-41q0 -9 -9 -9t-9 9v41q0 9 9 9t9 -9zM238 530v-41q0 -9 -9 -9t-9 9v41q0 9 9 9t9 -9zM298 530v-41q0 -9 -9 -9t-9 9v41q0 9 9 9t9 -9zM298 290v-41q0 -9 -9 -9 t-9 9v41q0 9 9 9t9 -9zM238 290v-41q0 -9 -9 -9t-9 9v41q0 9 9 9t9 -9zM298 50v-41q0 -9 -9 -9t-9 9v41q0 9 9 9t9 -9z" />
<glyph unicode="9" d="M358 530v-41q0 -9 -9 -9t-9 9v41q0 9 9 9t9 -9zM358 470v-41q0 -9 -9 -9t-9 9v41q0 9 9 9t9 -9zM358 410v-41q0 -9 -9 -9t-9 9v41q0 9 9 9t9 -9zM358 350v-41q0 -9 -9 -9t-9 9v41q0 9 9 9t9 -9zM358 290v-41q0 -9 -9 -9t-9 9v41q0 9 9 9t9 -9zM358 230v-41q0 -9 -9 -9 t-9 9v41q0 9 9 9t9 -9zM418 470v-41q0 -9 -9 -9t-9 9v41q0 9 9 9t9 -9zM418 410v-41q0 -9 -9 -9t-9 9v41q0 9 9 9t9 -9zM418 350v-41q0 -9 -9 -9t-9 9v41q0 9 9 9t9 -9zM418 290v-41q0 -9 -9 -9t-9 9v41q0 9 9 9t9 -9zM298 230v-41q0 -9 -9 -9t-9 9v41q0 9 9 9t9 -9z M178 530v-41q0 -9 -9 -9t-9 9v41q0 9 9 9t9 -9zM118 470v-41q0 -9 -9 -9t-9 9v41q0 9 9 9t9 -9zM118 410v-41q0 -9 -9 -9t-9 9v41q0 9 9 9t9 -9zM118 350v-41q0 -9 -9 -9t-9 9v41q0 9 9 9t9 -9zM118 290v-41q0 -9 -9 -9t-9 9v41q0 9 9 9t9 -9zM238 230v-41q0 -9 -9 -9t-9 9 v41q0 9 9 9t9 -9zM178 470v-41q0 -9 -9 -9t-9 9v41q0 9 9 9t9 -9zM178 410v-41q0 -9 -9 -9t-9 9v41q0 9 9 9t9 -9zM178 350v-41q0 -9 -9 -9t-9 9v41q0 9 9 9t9 -9zM178 290v-41q0 -9 -9 -9t-9 9v41q0 9 9 9t9 -9zM178 230v-41q0 -9 -9 -9t-9 9v41q0 9 9 9t9 -9zM238 530v-41 q0 -9 -9 -9t-9 9v41q0 9 9 9t9 -9zM298 530v-41q0 -9 -9 -9t-9 9v41q0 9 9 9t9 -9zM418 230v-41q0 -9 -9 -9t-9 9v41q0 9 9 9t9 -9zM418 170v-41q0 -9 -9 -9t-9 9v41q0 9 9 9t9 -9zM298 110v-41q0 -9 -9 -9t-9 9v41q0 9 9 9t9 -9zM358 110v-41q0 -9 -9 -9t-9 9v41q0 9 9 9 t9 -9zM358 170v-41q0 -9 -9 -9t-9 9v41q0 9 9 9t9 -9zM298 50v-41q0 -9 -9 -9t-9 9v41q0 9 9 9t9 -9zM238 50v-41q0 -9 -9 -9t-9 9v41q0 9 9 9t9 -9zM178 50v-41q0 -9 -9 -9t-9 9v41q0 9 9 9t9 -9z" />
<glyph unicode=":" horiz-adv-x="240" d="M100 9v41q0 9 9 9t9 -9v-41q0 -9 -9 -9t-9 9zM160 69v41q0 9 9 9t9 -9v-41q0 -9 -9 -9t-9 9zM100 69v41q0 9 9 9t9 -9v-41q0 -9 -9 -9t-9 9zM160 9v41q0 9 9 9t9 -9v-41q0 -9 -9 -9t-9 9zM100 309v41q0 9 9 9t9 -9v-41q0 -9 -9 -9t-9 9zM160 369v41q0 9 9 9t9 -9v-41 q0 -9 -9 -9t-9 9zM100 369v41q0 9 9 9t9 -9v-41q0 -9 -9 -9t-9 9zM160 309v41q0 9 9 9t9 -9v-41q0 -9 -9 -9t-9 9z" />
<glyph unicode=";" horiz-adv-x="240" d="M100 9v41q0 9 9 9t9 -9v-41q0 -9 -9 -9t-9 9zM160 69v41q0 9 9 9t9 -9v-41q0 -9 -9 -9t-9 9zM100 69v41q0 9 9 9t9 -9v-41q0 -9 -9 -9t-9 9zM160 9v41q0 9 9 9t9 -9v-41q0 -9 -9 -9t-9 9zM100 309v41q0 9 9 9t9 -9v-41q0 -9 -9 -9t-9 9zM160 369v41q0 9 9 9t9 -9v-41 q0 -9 -9 -9t-9 9zM100 369v41q0 9 9 9t9 -9v-41q0 -9 -9 -9t-9 9zM160 309v41q0 9 9 9t9 -9v-41q0 -9 -9 -9t-9 9zM160 -51v41q0 9 9 9t9 -9v-41q0 -9 -9 -9t-9 9zM100 -111v41q0 9 9 9t9 -9v-41q0 -9 -9 -9t-9 9z" />
<glyph unicode="&#x3c;" d="M160 249v41q0 9 9 9t9 -9v-41q0 -9 -9 -9t-9 9zM100 249v41q0 9 9 9t9 -9v-41q0 -9 -9 -9t-9 9zM280 189v41q0 9 9 9t9 -9v-41q0 -9 -9 -9t-9 9zM220 189v41q0 9 9 9t9 -9v-41q0 -9 -9 -9t-9 9zM400 129v41q0 9 9 9t9 -9v-41q0 -9 -9 -9t-9 9zM340 129v41q0 9 9 9t9 -9 v-41q0 -9 -9 -9t-9 9zM280 309v41q0 9 9 9t9 -9v-41q0 -9 -9 -9t-9 9zM220 309v41q0 9 9 9t9 -9v-41q0 -9 -9 -9t-9 9zM400 369v41q0 9 9 9t9 -9v-41q0 -9 -9 -9t-9 9zM340 369v41q0 9 9 9t9 -9v-41q0 -9 -9 -9t-9 9z" />
<glyph unicode="=" d="M178 170v-41q0 -9 -9 -9t-9 9v41q0 9 9 9t9 -9zM118 170v-41q0 -9 -9 -9t-9 9v41q0 9 9 9t9 -9zM298 170v-41q0 -9 -9 -9t-9 9v41q0 9 9 9t9 -9zM238 170v-41q0 -9 -9 -9t-9 9v41q0 9 9 9t9 -9zM358 170v-41q0 -9 -9 -9t-9 9v41q0 9 9 9t9 -9zM418 170v-41q0 -9 -9 -9 t-9 9v41q0 9 9 9t9 -9zM478 170v-41q0 -9 -9 -9t-9 9v41q0 9 9 9t9 -9zM178 410v-41q0 -9 -9 -9t-9 9v41q0 9 9 9t9 -9zM118 410v-41q0 -9 -9 -9t-9 9v41q0 9 9 9t9 -9zM298 410v-41q0 -9 -9 -9t-9 9v41q0 9 9 9t9 -9zM238 410v-41q0 -9 -9 -9t-9 9v41q0 9 9 9t9 -9z M358 410v-41q0 -9 -9 -9t-9 9v41q0 9 9 9t9 -9zM418 410v-41q0 -9 -9 -9t-9 9v41q0 9 9 9t9 -9zM478 410v-41q0 -9 -9 -9t-9 9v41q0 9 9 9t9 -9z" />
<glyph unicode="&#x3e;" d="M358 290v-41q0 -9 -9 -9t-9 9v41q0 9 9 9t9 -9zM418 290v-41q0 -9 -9 -9t-9 9v41q0 9 9 9t9 -9zM238 230v-41q0 -9 -9 -9t-9 9v41q0 9 9 9t9 -9zM298 230v-41q0 -9 -9 -9t-9 9v41q0 9 9 9t9 -9zM118 170v-41q0 -9 -9 -9t-9 9v41q0 9 9 9t9 -9zM178 170v-41q0 -9 -9 -9 t-9 9v41q0 9 9 9t9 -9zM238 350v-41q0 -9 -9 -9t-9 9v41q0 9 9 9t9 -9zM298 350v-41q0 -9 -9 -9t-9 9v41q0 9 9 9t9 -9zM118 410v-41q0 -9 -9 -9t-9 9v41q0 9 9 9t9 -9zM178 410v-41q0 -9 -9 -9t-9 9v41q0 9 9 9t9 -9z" />
<glyph unicode="?" d="M298 230v-41q0 -9 -9 -9t-9 9v41q0 9 9 9t9 -9zM238 290v-41q0 -9 -9 -9t-9 9v41q0 9 9 9t9 -9zM358 350v-41q0 -9 -9 -9t-9 9v41q0 9 9 9t9 -9zM358 410v-41q0 -9 -9 -9t-9 9v41q0 9 9 9t9 -9zM358 470v-41q0 -9 -9 -9t-9 9v41q0 9 9 9t9 -9zM358 530v-41q0 -9 -9 -9 t-9 9v41q0 9 9 9t9 -9zM238 230v-41q0 -9 -9 -9t-9 9v41q0 9 9 9t9 -9zM298 290v-41q0 -9 -9 -9t-9 9v41q0 9 9 9t9 -9zM298 350v-41q0 -9 -9 -9t-9 9v41q0 9 9 9t9 -9zM418 410v-41q0 -9 -9 -9t-9 9v41q0 9 9 9t9 -9zM418 470v-41q0 -9 -9 -9t-9 9v41q0 9 9 9t9 -9z M298 530v-41q0 -9 -9 -9t-9 9v41q0 9 9 9t9 -9zM118 470v-41q0 -9 -9 -9t-9 9v41q0 9 9 9t9 -9zM238 530v-41q0 -9 -9 -9t-9 9v41q0 9 9 9t9 -9zM178 530v-41q0 -9 -9 -9t-9 9v41q0 9 9 9t9 -9zM238 50v-41q0 -9 -9 -9t-9 9v41q0 9 9 9t9 -9zM298 50v-41q0 -9 -9 -9t-9 9v41 q0 9 9 9t9 -9zM238 110v-41q0 -9 -9 -9t-9 9v41q0 9 9 9t9 -9zM298 110v-41q0 -9 -9 -9t-9 9v41q0 9 9 9t9 -9z" />
<glyph unicode="@" horiz-adv-x="600" d="M160 69v41q0 9 9 9t9 -9v-41q0 -9 -9 -9t-9 9zM220 189v41q0 9 9 9t9 -9v-41q0 -9 -9 -9t-9 9zM220 249v41q0 9 9 9t9 -9v-41q0 -9 -9 -9t-9 9zM160 369v41q0 9 9 9t9 -9v-41q0 -9 -9 -9t-9 9zM100 129v41q0 9 9 9t9 -9v-41q0 -9 -9 -9t-9 9zM100 189v41q0 9 9 9t9 -9 v-41q0 -9 -9 -9t-9 9zM100 249v41q0 9 9 9t9 -9v-41q0 -9 -9 -9t-9 9zM100 309v41q0 9 9 9t9 -9v-41q0 -9 -9 -9t-9 9zM220 429v41q0 9 9 9t9 -9v-41q0 -9 -9 -9t-9 9zM520 189v41q0 9 9 9t9 -9v-41q0 -9 -9 -9t-9 9zM520 249v41q0 9 9 9t9 -9v-41q0 -9 -9 -9t-9 9zM520 309 v41q0 9 9 9t9 -9v-41q0 -9 -9 -9t-9 9zM280 429v41q0 9 9 9t9 -9v-41q0 -9 -9 -9t-9 9zM460 9v41q0 9 9 9t9 -9v-41q0 -9 -9 -9t-9 9zM460 369v41q0 9 9 9t9 -9v-41q0 -9 -9 -9t-9 9zM280 9v41q0 9 9 9t9 -9v-41q0 -9 -9 -9t-9 9zM220 9v41q0 9 9 9t9 -9v-41q0 -9 -9 -9 t-9 9zM340 429v41q0 9 9 9t9 -9v-41q0 -9 -9 -9t-9 9zM340 9v41q0 9 9 9t9 -9v-41q0 -9 -9 -9t-9 9zM400 429v41q0 9 9 9t9 -9v-41q0 -9 -9 -9t-9 9zM400 9v41q0 9 9 9t9 -9v-41q0 -9 -9 -9t-9 9zM460 129v41q0 9 9 9t9 -9v-41q0 -9 -9 -9t-9 9zM400 189v41q0 9 9 9t9 -9 v-41q0 -9 -9 -9t-9 9zM340 129v41q0 9 9 9t9 -9v-41q0 -9 -9 -9t-9 9zM400 249v41q0 9 9 9t9 -9v-41q0 -9 -9 -9t-9 9zM340 309v41q0 9 9 9t9 -9v-41q0 -9 -9 -9t-9 9zM280 129v41q0 9 9 9t9 -9v-41q0 -9 -9 -9t-9 9zM280 309v41q0 9 9 9t9 -9v-41q0 -9 -9 -9t-9 9z" />
<glyph unicode="A" d="M358 530v-41q0 -9 -9 -9t-9 9v41q0 9 9 9t9 -9zM358 470v-41q0 -9 -9 -9t-9 9v41q0 9 9 9t9 -9zM358 410v-41q0 -9 -9 -9t-9 9v41q0 9 9 9t9 -9zM358 350v-41q0 -9 -9 -9t-9 9v41q0 9 9 9t9 -9zM358 290v-41q0 -9 -9 -9t-9 9v41q0 9 9 9t9 -9zM358 230v-41q0 -9 -9 -9 t-9 9v41q0 9 9 9t9 -9zM358 170v-41q0 -9 -9 -9t-9 9v41q0 9 9 9t9 -9zM358 110v-41q0 -9 -9 -9t-9 9v41q0 9 9 9t9 -9zM358 50v-41q0 -9 -9 -9t-9 9v41q0 9 9 9t9 -9zM418 470v-41q0 -9 -9 -9t-9 9v41q0 9 9 9t9 -9zM418 410v-41q0 -9 -9 -9t-9 9v41q0 9 9 9t9 -9zM418 350 v-41q0 -9 -9 -9t-9 9v41q0 9 9 9t9 -9zM418 290v-41q0 -9 -9 -9t-9 9v41q0 9 9 9t9 -9zM418 230v-41q0 -9 -9 -9t-9 9v41q0 9 9 9t9 -9zM418 170v-41q0 -9 -9 -9t-9 9v41q0 9 9 9t9 -9zM418 110v-41q0 -9 -9 -9t-9 9v41q0 9 9 9t9 -9zM418 50v-41q0 -9 -9 -9t-9 9v41 q0 9 9 9t9 -9zM178 530v-41q0 -9 -9 -9t-9 9v41q0 9 9 9t9 -9zM118 470v-41q0 -9 -9 -9t-9 9v41q0 9 9 9t9 -9zM118 410v-41q0 -9 -9 -9t-9 9v41q0 9 9 9t9 -9zM118 350v-41q0 -9 -9 -9t-9 9v41q0 9 9 9t9 -9zM118 290v-41q0 -9 -9 -9t-9 9v41q0 9 9 9t9 -9zM118 230v-41 q0 -9 -9 -9t-9 9v41q0 9 9 9t9 -9zM118 170v-41q0 -9 -9 -9t-9 9v41q0 9 9 9t9 -9zM118 110v-41q0 -9 -9 -9t-9 9v41q0 9 9 9t9 -9zM118 50v-41q0 -9 -9 -9t-9 9v41q0 9 9 9t9 -9zM178 470v-41q0 -9 -9 -9t-9 9v41q0 9 9 9t9 -9zM178 410v-41q0 -9 -9 -9t-9 9v41q0 9 9 9 t9 -9zM178 350v-41q0 -9 -9 -9t-9 9v41q0 9 9 9t9 -9zM178 290v-41q0 -9 -9 -9t-9 9v41q0 9 9 9t9 -9zM178 230v-41q0 -9 -9 -9t-9 9v41q0 9 9 9t9 -9zM178 170v-41q0 -9 -9 -9t-9 9v41q0 9 9 9t9 -9zM178 110v-41q0 -9 -9 -9t-9 9v41q0 9 9 9t9 -9zM178 50v-41q0 -9 -9 -9 t-9 9v41q0 9 9 9t9 -9zM238 530v-41q0 -9 -9 -9t-9 9v41q0 9 9 9t9 -9zM298 530v-41q0 -9 -9 -9t-9 9v41q0 9 9 9t9 -9zM298 290v-41q0 -9 -9 -9t-9 9v41q0 9 9 9t9 -9zM238 290v-41q0 -9 -9 -9t-9 9v41q0 9 9 9t9 -9z" />
<glyph unicode="B" d="M358 530v-41q0 -9 -9 -9t-9 9v41q0 9 9 9t9 -9zM358 470v-41q0 -9 -9 -9t-9 9v41q0 9 9 9t9 -9zM358 410v-41q0 -9 -9 -9t-9 9v41q0 9 9 9t9 -9zM358 350v-41q0 -9 -9 -9t-9 9v41q0 9 9 9t9 -9zM358 290v-41q0 -9 -9 -9t-9 9v41q0 9 9 9t9 -9zM358 230v-41q0 -9 -9 -9 t-9 9v41q0 9 9 9t9 -9zM358 170v-41q0 -9 -9 -9t-9 9v41q0 9 9 9t9 -9zM358 110v-41q0 -9 -9 -9t-9 9v41q0 9 9 9t9 -9zM358 50v-41q0 -9 -9 -9t-9 9v41q0 9 9 9t9 -9zM418 470v-41q0 -9 -9 -9t-9 9v41q0 9 9 9t9 -9zM418 410v-41q0 -9 -9 -9t-9 9v41q0 9 9 9t9 -9zM418 350 v-41q0 -9 -9 -9t-9 9v41q0 9 9 9t9 -9zM118 530v-41q0 -9 -9 -9t-9 9v41q0 9 9 9t9 -9zM418 230v-41q0 -9 -9 -9t-9 9v41q0 9 9 9t9 -9zM418 170v-41q0 -9 -9 -9t-9 9v41q0 9 9 9t9 -9zM418 110v-41q0 -9 -9 -9t-9 9v41q0 9 9 9t9 -9zM238 50v-41q0 -9 -9 -9t-9 9v41 q0 9 9 9t9 -9zM178 530v-41q0 -9 -9 -9t-9 9v41q0 9 9 9t9 -9zM118 470v-41q0 -9 -9 -9t-9 9v41q0 9 9 9t9 -9zM118 410v-41q0 -9 -9 -9t-9 9v41q0 9 9 9t9 -9zM118 350v-41q0 -9 -9 -9t-9 9v41q0 9 9 9t9 -9zM118 290v-41q0 -9 -9 -9t-9 9v41q0 9 9 9t9 -9zM118 230v-41 q0 -9 -9 -9t-9 9v41q0 9 9 9t9 -9zM118 170v-41q0 -9 -9 -9t-9 9v41q0 9 9 9t9 -9zM118 110v-41q0 -9 -9 -9t-9 9v41q0 9 9 9t9 -9zM118 50v-41q0 -9 -9 -9t-9 9v41q0 9 9 9t9 -9zM178 470v-41q0 -9 -9 -9t-9 9v41q0 9 9 9t9 -9zM178 410v-41q0 -9 -9 -9t-9 9v41q0 9 9 9 t9 -9zM178 350v-41q0 -9 -9 -9t-9 9v41q0 9 9 9t9 -9zM178 290v-41q0 -9 -9 -9t-9 9v41q0 9 9 9t9 -9zM178 230v-41q0 -9 -9 -9t-9 9v41q0 9 9 9t9 -9zM178 170v-41q0 -9 -9 -9t-9 9v41q0 9 9 9t9 -9zM178 110v-41q0 -9 -9 -9t-9 9v41q0 9 9 9t9 -9zM178 50v-41q0 -9 -9 -9 t-9 9v41q0 9 9 9t9 -9zM238 530v-41q0 -9 -9 -9t-9 9v41q0 9 9 9t9 -9zM298 530v-41q0 -9 -9 -9t-9 9v41q0 9 9 9t9 -9zM298 290v-41q0 -9 -9 -9t-9 9v41q0 9 9 9t9 -9zM238 290v-41q0 -9 -9 -9t-9 9v41q0 9 9 9t9 -9zM298 50v-41q0 -9 -9 -9t-9 9v41q0 9 9 9t9 -9z" />
<glyph unicode="C" d="M160 9v41q0 9 9 9t9 -9v-41q0 -9 -9 -9t-9 9zM160 69v41q0 9 9 9t9 -9v-41q0 -9 -9 -9t-9 9zM160 129v41q0 9 9 9t9 -9v-41q0 -9 -9 -9t-9 9zM160 189v41q0 9 9 9t9 -9v-41q0 -9 -9 -9t-9 9zM160 249v41q0 9 9 9t9 -9v-41q0 -9 -9 -9t-9 9zM160 309v41q0 9 9 9t9 -9v-41 q0 -9 -9 -9t-9 9zM160 369v41q0 9 9 9t9 -9v-41q0 -9 -9 -9t-9 9zM160 429v41q0 9 9 9t9 -9v-41q0 -9 -9 -9t-9 9zM160 489v41q0 9 9 9t9 -9v-41q0 -9 -9 -9t-9 9zM100 69v41q0 9 9 9t9 -9v-41q0 -9 -9 -9t-9 9zM100 129v41q0 9 9 9t9 -9v-41q0 -9 -9 -9t-9 9zM100 189v41 q0 9 9 9t9 -9v-41q0 -9 -9 -9t-9 9zM100 249v41q0 9 9 9t9 -9v-41q0 -9 -9 -9t-9 9zM100 309v41q0 9 9 9t9 -9v-41q0 -9 -9 -9t-9 9zM100 369v41q0 9 9 9t9 -9v-41q0 -9 -9 -9t-9 9zM100 429v41q0 9 9 9t9 -9v-41q0 -9 -9 -9t-9 9zM220 489v41q0 9 9 9t9 -9v-41q0 -9 -9 -9 t-9 9zM340 9v41q0 9 9 9t9 -9v-41q0 -9 -9 -9t-9 9zM400 69v41q0 9 9 9t9 -9v-41q0 -9 -9 -9t-9 9zM400 429v41q0 9 9 9t9 -9v-41q0 -9 -9 -9t-9 9zM280 489v41q0 9 9 9t9 -9v-41q0 -9 -9 -9t-9 9zM340 489v41q0 9 9 9t9 -9v-41q0 -9 -9 -9t-9 9zM280 9v41q0 9 9 9t9 -9v-41 q0 -9 -9 -9t-9 9zM220 9v41q0 9 9 9t9 -9v-41q0 -9 -9 -9t-9 9z" />
<glyph unicode="D" d="M160 9v41q0 9 9 9t9 -9v-41q0 -9 -9 -9t-9 9zM160 69v41q0 9 9 9t9 -9v-41q0 -9 -9 -9t-9 9zM160 129v41q0 9 9 9t9 -9v-41q0 -9 -9 -9t-9 9zM160 189v41q0 9 9 9t9 -9v-41q0 -9 -9 -9t-9 9zM160 249v41q0 9 9 9t9 -9v-41q0 -9 -9 -9t-9 9zM160 309v41q0 9 9 9t9 -9v-41 q0 -9 -9 -9t-9 9zM160 369v41q0 9 9 9t9 -9v-41q0 -9 -9 -9t-9 9zM160 429v41q0 9 9 9t9 -9v-41q0 -9 -9 -9t-9 9zM160 489v41q0 9 9 9t9 -9v-41q0 -9 -9 -9t-9 9zM100 69v41q0 9 9 9t9 -9v-41q0 -9 -9 -9t-9 9zM100 129v41q0 9 9 9t9 -9v-41q0 -9 -9 -9t-9 9zM100 189v41 q0 9 9 9t9 -9v-41q0 -9 -9 -9t-9 9zM100 249v41q0 9 9 9t9 -9v-41q0 -9 -9 -9t-9 9zM100 309v41q0 9 9 9t9 -9v-41q0 -9 -9 -9t-9 9zM100 369v41q0 9 9 9t9 -9v-41q0 -9 -9 -9t-9 9zM100 429v41q0 9 9 9t9 -9v-41q0 -9 -9 -9t-9 9zM220 489v41q0 9 9 9t9 -9v-41q0 -9 -9 -9 t-9 9zM340 9v41q0 9 9 9t9 -9v-41q0 -9 -9 -9t-9 9zM400 69v41q0 9 9 9t9 -9v-41q0 -9 -9 -9t-9 9zM400 129v41q0 9 9 9t9 -9v-41q0 -9 -9 -9t-9 9zM400 189v41q0 9 9 9t9 -9v-41q0 -9 -9 -9t-9 9zM400 249v41q0 9 9 9t9 -9v-41q0 -9 -9 -9t-9 9zM400 309v41q0 9 9 9t9 -9 v-41q0 -9 -9 -9t-9 9zM400 369v41q0 9 9 9t9 -9v-41q0 -9 -9 -9t-9 9zM400 429v41q0 9 9 9t9 -9v-41q0 -9 -9 -9t-9 9zM280 489v41q0 9 9 9t9 -9v-41q0 -9 -9 -9t-9 9zM340 69v41q0 9 9 9t9 -9v-41q0 -9 -9 -9t-9 9zM340 129v41q0 9 9 9t9 -9v-41q0 -9 -9 -9t-9 9zM340 189 v41q0 9 9 9t9 -9v-41q0 -9 -9 -9t-9 9zM340 249v41q0 9 9 9t9 -9v-41q0 -9 -9 -9t-9 9zM340 309v41q0 9 9 9t9 -9v-41q0 -9 -9 -9t-9 9zM340 369v41q0 9 9 9t9 -9v-41q0 -9 -9 -9t-9 9zM340 429v41q0 9 9 9t9 -9v-41q0 -9 -9 -9t-9 9zM340 489v41q0 9 9 9t9 -9v-41 q0 -9 -9 -9t-9 9zM280 9v41q0 9 9 9t9 -9v-41q0 -9 -9 -9t-9 9zM220 9v41q0 9 9 9t9 -9v-41q0 -9 -9 -9t-9 9zM100 489v41q0 9 9 9t9 -9v-41q0 -9 -9 -9t-9 9zM100 9v41q0 9 9 9t9 -9v-41q0 -9 -9 -9t-9 9z" />
<glyph unicode="E" horiz-adv-x="420" d="M358 50v-41q0 -9 -9 -9t-9 9v41q0 9 9 9t9 -9zM178 530v-41q0 -9 -9 -9t-9 9v41q0 9 9 9t9 -9zM118 470v-41q0 -9 -9 -9t-9 9v41q0 9 9 9t9 -9zM118 410v-41q0 -9 -9 -9t-9 9v41q0 9 9 9t9 -9zM118 350v-41q0 -9 -9 -9t-9 9v41q0 9 9 9t9 -9zM118 290v-41q0 -9 -9 -9 t-9 9v41q0 9 9 9t9 -9zM118 230v-41q0 -9 -9 -9t-9 9v41q0 9 9 9t9 -9zM118 170v-41q0 -9 -9 -9t-9 9v41q0 9 9 9t9 -9zM118 110v-41q0 -9 -9 -9t-9 9v41q0 9 9 9t9 -9zM118 50v-41q0 -9 -9 -9t-9 9v41q0 9 9 9t9 -9zM178 470v-41q0 -9 -9 -9t-9 9v41q0 9 9 9t9 -9zM178 410 v-41q0 -9 -9 -9t-9 9v41q0 9 9 9t9 -9zM178 350v-41q0 -9 -9 -9t-9 9v41q0 9 9 9t9 -9zM178 290v-41q0 -9 -9 -9t-9 9v41q0 9 9 9t9 -9zM178 230v-41q0 -9 -9 -9t-9 9v41q0 9 9 9t9 -9zM178 170v-41q0 -9 -9 -9t-9 9v41q0 9 9 9t9 -9zM178 110v-41q0 -9 -9 -9t-9 9v41 q0 9 9 9t9 -9zM178 50v-41q0 -9 -9 -9t-9 9v41q0 9 9 9t9 -9zM118 530v-41q0 -9 -9 -9t-9 9v41q0 9 9 9t9 -9zM298 50v-41q0 -9 -9 -9t-9 9v41q0 9 9 9t9 -9zM238 50v-41q0 -9 -9 -9t-9 9v41q0 9 9 9t9 -9zM298 290v-41q0 -9 -9 -9t-9 9v41q0 9 9 9t9 -9zM238 290v-41 q0 -9 -9 -9t-9 9v41q0 9 9 9t9 -9zM298 530v-41q0 -9 -9 -9t-9 9v41q0 9 9 9t9 -9zM238 530v-41q0 -9 -9 -9t-9 9v41q0 9 9 9t9 -9zM358 530v-41q0 -9 -9 -9t-9 9v41q0 9 9 9t9 -9z" />
<glyph unicode="F" horiz-adv-x="420" d="M178 530v-41q0 -9 -9 -9t-9 9v41q0 9 9 9t9 -9zM118 470v-41q0 -9 -9 -9t-9 9v41q0 9 9 9t9 -9zM118 410v-41q0 -9 -9 -9t-9 9v41q0 9 9 9t9 -9zM118 350v-41q0 -9 -9 -9t-9 9v41q0 9 9 9t9 -9zM118 290v-41q0 -9 -9 -9t-9 9v41q0 9 9 9t9 -9zM118 230v-41q0 -9 -9 -9 t-9 9v41q0 9 9 9t9 -9zM118 170v-41q0 -9 -9 -9t-9 9v41q0 9 9 9t9 -9zM118 110v-41q0 -9 -9 -9t-9 9v41q0 9 9 9t9 -9zM118 50v-41q0 -9 -9 -9t-9 9v41q0 9 9 9t9 -9zM178 470v-41q0 -9 -9 -9t-9 9v41q0 9 9 9t9 -9zM178 410v-41q0 -9 -9 -9t-9 9v41q0 9 9 9t9 -9zM178 350 v-41q0 -9 -9 -9t-9 9v41q0 9 9 9t9 -9zM178 290v-41q0 -9 -9 -9t-9 9v41q0 9 9 9t9 -9zM178 230v-41q0 -9 -9 -9t-9 9v41q0 9 9 9t9 -9zM178 170v-41q0 -9 -9 -9t-9 9v41q0 9 9 9t9 -9zM178 110v-41q0 -9 -9 -9t-9 9v41q0 9 9 9t9 -9zM178 50v-41q0 -9 -9 -9t-9 9v41 q0 9 9 9t9 -9zM118 530v-41q0 -9 -9 -9t-9 9v41q0 9 9 9t9 -9zM298 290v-41q0 -9 -9 -9t-9 9v41q0 9 9 9t9 -9zM238 290v-41q0 -9 -9 -9t-9 9v41q0 9 9 9t9 -9zM298 530v-41q0 -9 -9 -9t-9 9v41q0 9 9 9t9 -9zM238 530v-41q0 -9 -9 -9t-9 9v41q0 9 9 9t9 -9zM358 530v-41 q0 -9 -9 -9t-9 9v41q0 9 9 9t9 -9z" />
<glyph unicode="G" d="M160 9v41q0 9 9 9t9 -9v-41q0 -9 -9 -9t-9 9zM160 69v41q0 9 9 9t9 -9v-41q0 -9 -9 -9t-9 9zM160 129v41q0 9 9 9t9 -9v-41q0 -9 -9 -9t-9 9zM160 189v41q0 9 9 9t9 -9v-41q0 -9 -9 -9t-9 9zM160 249v41q0 9 9 9t9 -9v-41q0 -9 -9 -9t-9 9zM160 309v41q0 9 9 9t9 -9v-41 q0 -9 -9 -9t-9 9zM160 369v41q0 9 9 9t9 -9v-41q0 -9 -9 -9t-9 9zM160 429v41q0 9 9 9t9 -9v-41q0 -9 -9 -9t-9 9zM160 489v41q0 9 9 9t9 -9v-41q0 -9 -9 -9t-9 9zM100 69v41q0 9 9 9t9 -9v-41q0 -9 -9 -9t-9 9zM100 129v41q0 9 9 9t9 -9v-41q0 -9 -9 -9t-9 9zM100 189v41 q0 9 9 9t9 -9v-41q0 -9 -9 -9t-9 9zM100 249v41q0 9 9 9t9 -9v-41q0 -9 -9 -9t-9 9zM100 309v41q0 9 9 9t9 -9v-41q0 -9 -9 -9t-9 9zM100 369v41q0 9 9 9t9 -9v-41q0 -9 -9 -9t-9 9zM100 429v41q0 9 9 9t9 -9v-41q0 -9 -9 -9t-9 9zM220 489v41q0 9 9 9t9 -9v-41q0 -9 -9 -9 t-9 9zM340 9v41q0 9 9 9t9 -9v-41q0 -9 -9 -9t-9 9zM400 69v41q0 9 9 9t9 -9v-41q0 -9 -9 -9t-9 9zM400 129v41q0 9 9 9t9 -9v-41q0 -9 -9 -9t-9 9zM400 189v41q0 9 9 9t9 -9v-41q0 -9 -9 -9t-9 9zM400 249v41q0 9 9 9t9 -9v-41q0 -9 -9 -9t-9 9zM400 429v41q0 9 9 9t9 -9 v-41q0 -9 -9 -9t-9 9zM280 489v41q0 9 9 9t9 -9v-41q0 -9 -9 -9t-9 9zM340 69v41q0 9 9 9t9 -9v-41q0 -9 -9 -9t-9 9zM340 129v41q0 9 9 9t9 -9v-41q0 -9 -9 -9t-9 9zM340 189v41q0 9 9 9t9 -9v-41q0 -9 -9 -9t-9 9zM340 249v41q0 9 9 9t9 -9v-41q0 -9 -9 -9t-9 9zM280 249 v41q0 9 9 9t9 -9v-41q0 -9 -9 -9t-9 9zM340 489v41q0 9 9 9t9 -9v-41q0 -9 -9 -9t-9 9zM280 9v41q0 9 9 9t9 -9v-41q0 -9 -9 -9t-9 9zM220 9v41q0 9 9 9t9 -9v-41q0 -9 -9 -9t-9 9z" />
<glyph unicode="H" d="M358 530v-41q0 -9 -9 -9t-9 9v41q0 9 9 9t9 -9zM358 470v-41q0 -9 -9 -9t-9 9v41q0 9 9 9t9 -9zM358 410v-41q0 -9 -9 -9t-9 9v41q0 9 9 9t9 -9zM358 350v-41q0 -9 -9 -9t-9 9v41q0 9 9 9t9 -9zM358 290v-41q0 -9 -9 -9t-9 9v41q0 9 9 9t9 -9zM358 230v-41q0 -9 -9 -9 t-9 9v41q0 9 9 9t9 -9zM358 170v-41q0 -9 -9 -9t-9 9v41q0 9 9 9t9 -9zM358 110v-41q0 -9 -9 -9t-9 9v41q0 9 9 9t9 -9zM358 50v-41q0 -9 -9 -9t-9 9v41q0 9 9 9t9 -9zM418 470v-41q0 -9 -9 -9t-9 9v41q0 9 9 9t9 -9zM418 410v-41q0 -9 -9 -9t-9 9v41q0 9 9 9t9 -9zM418 350 v-41q0 -9 -9 -9t-9 9v41q0 9 9 9t9 -9zM418 290v-41q0 -9 -9 -9t-9 9v41q0 9 9 9t9 -9zM418 230v-41q0 -9 -9 -9t-9 9v41q0 9 9 9t9 -9zM418 170v-41q0 -9 -9 -9t-9 9v41q0 9 9 9t9 -9zM418 110v-41q0 -9 -9 -9t-9 9v41q0 9 9 9t9 -9zM418 50v-41q0 -9 -9 -9t-9 9v41 q0 9 9 9t9 -9zM178 530v-41q0 -9 -9 -9t-9 9v41q0 9 9 9t9 -9zM118 470v-41q0 -9 -9 -9t-9 9v41q0 9 9 9t9 -9zM118 410v-41q0 -9 -9 -9t-9 9v41q0 9 9 9t9 -9zM118 350v-41q0 -9 -9 -9t-9 9v41q0 9 9 9t9 -9zM118 290v-41q0 -9 -9 -9t-9 9v41q0 9 9 9t9 -9zM118 230v-41 q0 -9 -9 -9t-9 9v41q0 9 9 9t9 -9zM118 170v-41q0 -9 -9 -9t-9 9v41q0 9 9 9t9 -9zM118 110v-41q0 -9 -9 -9t-9 9v41q0 9 9 9t9 -9zM118 50v-41q0 -9 -9 -9t-9 9v41q0 9 9 9t9 -9zM178 470v-41q0 -9 -9 -9t-9 9v41q0 9 9 9t9 -9zM178 410v-41q0 -9 -9 -9t-9 9v41q0 9 9 9 t9 -9zM178 350v-41q0 -9 -9 -9t-9 9v41q0 9 9 9t9 -9zM178 290v-41q0 -9 -9 -9t-9 9v41q0 9 9 9t9 -9zM178 230v-41q0 -9 -9 -9t-9 9v41q0 9 9 9t9 -9zM178 170v-41q0 -9 -9 -9t-9 9v41q0 9 9 9t9 -9zM178 110v-41q0 -9 -9 -9t-9 9v41q0 9 9 9t9 -9zM178 50v-41q0 -9 -9 -9 t-9 9v41q0 9 9 9t9 -9zM118 530v-41q0 -9 -9 -9t-9 9v41q0 9 9 9t9 -9zM418 530v-41q0 -9 -9 -9t-9 9v41q0 9 9 9t9 -9zM298 290v-41q0 -9 -9 -9t-9 9v41q0 9 9 9t9 -9zM238 290v-41q0 -9 -9 -9t-9 9v41q0 9 9 9t9 -9z" />
<glyph unicode="I" horiz-adv-x="240" d="M178 530v-41q0 -9 -9 -9t-9 9v41q0 9 9 9t9 -9zM118 470v-41q0 -9 -9 -9t-9 9v41q0 9 9 9t9 -9zM118 410v-41q0 -9 -9 -9t-9 9v41q0 9 9 9t9 -9zM118 350v-41q0 -9 -9 -9t-9 9v41q0 9 9 9t9 -9zM118 290v-41q0 -9 -9 -9t-9 9v41q0 9 9 9t9 -9zM118 230v-41q0 -9 -9 -9 t-9 9v41q0 9 9 9t9 -9zM118 170v-41q0 -9 -9 -9t-9 9v41q0 9 9 9t9 -9zM118 110v-41q0 -9 -9 -9t-9 9v41q0 9 9 9t9 -9zM118 50v-41q0 -9 -9 -9t-9 9v41q0 9 9 9t9 -9zM178 470v-41q0 -9 -9 -9t-9 9v41q0 9 9 9t9 -9zM178 410v-41q0 -9 -9 -9t-9 9v41q0 9 9 9t9 -9zM178 350 v-41q0 -9 -9 -9t-9 9v41q0 9 9 9t9 -9zM178 290v-41q0 -9 -9 -9t-9 9v41q0 9 9 9t9 -9zM178 230v-41q0 -9 -9 -9t-9 9v41q0 9 9 9t9 -9zM178 170v-41q0 -9 -9 -9t-9 9v41q0 9 9 9t9 -9zM178 110v-41q0 -9 -9 -9t-9 9v41q0 9 9 9t9 -9zM178 50v-41q0 -9 -9 -9t-9 9v41 q0 9 9 9t9 -9zM118 530v-41q0 -9 -9 -9t-9 9v41q0 9 9 9t9 -9z" />
<glyph unicode="J" horiz-adv-x="420" d="M100 9v41q0 9 9 9t9 -9v-41q0 -9 -9 -9t-9 9zM100 69v41q0 9 9 9t9 -9v-41q0 -9 -9 -9t-9 9zM100 129v41q0 9 9 9t9 -9v-41q0 -9 -9 -9t-9 9zM100 189v41q0 9 9 9t9 -9v-41q0 -9 -9 -9t-9 9zM40 69v41q0 9 9 9t9 -9v-41q0 -9 -9 -9t-9 9zM40 129v41q0 9 9 9t9 -9v-41 q0 -9 -9 -9t-9 9zM40 189v41q0 9 9 9t9 -9v-41q0 -9 -9 -9t-9 9zM280 9v41q0 9 9 9t9 -9v-41q0 -9 -9 -9t-9 9zM340 69v41q0 9 9 9t9 -9v-41q0 -9 -9 -9t-9 9zM340 129v41q0 9 9 9t9 -9v-41q0 -9 -9 -9t-9 9zM340 189v41q0 9 9 9t9 -9v-41q0 -9 -9 -9t-9 9zM340 249v41 q0 9 9 9t9 -9v-41q0 -9 -9 -9t-9 9zM340 309v41q0 9 9 9t9 -9v-41q0 -9 -9 -9t-9 9zM340 369v41q0 9 9 9t9 -9v-41q0 -9 -9 -9t-9 9zM340 429v41q0 9 9 9t9 -9v-41q0 -9 -9 -9t-9 9zM340 489v41q0 9 9 9t9 -9v-41q0 -9 -9 -9t-9 9zM280 69v41q0 9 9 9t9 -9v-41q0 -9 -9 -9 t-9 9zM280 129v41q0 9 9 9t9 -9v-41q0 -9 -9 -9t-9 9zM280 189v41q0 9 9 9t9 -9v-41q0 -9 -9 -9t-9 9zM280 249v41q0 9 9 9t9 -9v-41q0 -9 -9 -9t-9 9zM280 309v41q0 9 9 9t9 -9v-41q0 -9 -9 -9t-9 9zM280 369v41q0 9 9 9t9 -9v-41q0 -9 -9 -9t-9 9zM280 429v41q0 9 9 9 t9 -9v-41q0 -9 -9 -9t-9 9zM280 489v41q0 9 9 9t9 -9v-41q0 -9 -9 -9t-9 9zM220 9v41q0 9 9 9t9 -9v-41q0 -9 -9 -9t-9 9zM160 9v41q0 9 9 9t9 -9v-41q0 -9 -9 -9t-9 9z" />
<glyph unicode="K" horiz-adv-x="540" d="M238 230v-41q0 -9 -9 -9t-9 9v41q0 9 9 9t9 -9zM118 230v-41q0 -9 -9 -9t-9 9v41q0 9 9 9t9 -9zM118 170v-41q0 -9 -9 -9t-9 9v41q0 9 9 9t9 -9zM118 110v-41q0 -9 -9 -9t-9 9v41q0 9 9 9t9 -9zM178 290v-41q0 -9 -9 -9t-9 9v41q0 9 9 9t9 -9zM178 230v-41q0 -9 -9 -9 t-9 9v41q0 9 9 9t9 -9zM178 170v-41q0 -9 -9 -9t-9 9v41q0 9 9 9t9 -9zM178 110v-41q0 -9 -9 -9t-9 9v41q0 9 9 9t9 -9zM118 290v-41q0 -9 -9 -9t-9 9v41q0 9 9 9t9 -9zM178 50v-41q0 -9 -9 -9t-9 9v41q0 9 9 9t9 -9zM118 50v-41q0 -9 -9 -9t-9 9v41q0 9 9 9t9 -9zM298 410 v-41q0 -9 -9 -9t-9 9v41q0 9 9 9t9 -9zM238 350v-41q0 -9 -9 -9t-9 9v41q0 9 9 9t9 -9zM178 530v-41q0 -9 -9 -9t-9 9v41q0 9 9 9t9 -9zM118 530v-41q0 -9 -9 -9t-9 9v41q0 9 9 9t9 -9zM358 170v-41q0 -9 -9 -9t-9 9v41q0 9 9 9t9 -9zM298 230v-41q0 -9 -9 -9t-9 9v41 q0 9 9 9t9 -9zM298 350v-41q0 -9 -9 -9t-9 9v41q0 9 9 9t9 -9zM238 290v-41q0 -9 -9 -9t-9 9v41q0 9 9 9t9 -9zM358 470v-41q0 -9 -9 -9t-9 9v41q0 9 9 9t9 -9zM358 410v-41q0 -9 -9 -9t-9 9v41q0 9 9 9t9 -9zM418 530v-41q0 -9 -9 -9t-9 9v41q0 9 9 9t9 -9zM418 470v-41 q0 -9 -9 -9t-9 9v41q0 9 9 9t9 -9zM478 530v-41q0 -9 -9 -9t-9 9v41q0 9 9 9t9 -9zM178 470v-41q0 -9 -9 -9t-9 9v41q0 9 9 9t9 -9zM118 470v-41q0 -9 -9 -9t-9 9v41q0 9 9 9t9 -9zM178 410v-41q0 -9 -9 -9t-9 9v41q0 9 9 9t9 -9zM118 410v-41q0 -9 -9 -9t-9 9v41q0 9 9 9 t9 -9zM178 350v-41q0 -9 -9 -9t-9 9v41q0 9 9 9t9 -9zM118 350v-41q0 -9 -9 -9t-9 9v41q0 9 9 9t9 -9zM358 110v-41q0 -9 -9 -9t-9 9v41q0 9 9 9t9 -9zM298 170v-41q0 -9 -9 -9t-9 9v41q0 9 9 9t9 -9zM418 110v-41q0 -9 -9 -9t-9 9v41q0 9 9 9t9 -9zM418 50v-41q0 -9 -9 -9 t-9 9v41q0 9 9 9t9 -9zM478 50v-41q0 -9 -9 -9t-9 9v41q0 9 9 9t9 -9z" />
<glyph unicode="L" horiz-adv-x="420" d="M358 50v-41q0 -9 -9 -9t-9 9v41q0 9 9 9t9 -9zM178 530v-41q0 -9 -9 -9t-9 9v41q0 9 9 9t9 -9zM118 470v-41q0 -9 -9 -9t-9 9v41q0 9 9 9t9 -9zM118 410v-41q0 -9 -9 -9t-9 9v41q0 9 9 9t9 -9zM118 350v-41q0 -9 -9 -9t-9 9v41q0 9 9 9t9 -9zM118 290v-41q0 -9 -9 -9 t-9 9v41q0 9 9 9t9 -9zM118 230v-41q0 -9 -9 -9t-9 9v41q0 9 9 9t9 -9zM118 170v-41q0 -9 -9 -9t-9 9v41q0 9 9 9t9 -9zM118 110v-41q0 -9 -9 -9t-9 9v41q0 9 9 9t9 -9zM118 50v-41q0 -9 -9 -9t-9 9v41q0 9 9 9t9 -9zM178 470v-41q0 -9 -9 -9t-9 9v41q0 9 9 9t9 -9zM178 410 v-41q0 -9 -9 -9t-9 9v41q0 9 9 9t9 -9zM178 350v-41q0 -9 -9 -9t-9 9v41q0 9 9 9t9 -9zM178 290v-41q0 -9 -9 -9t-9 9v41q0 9 9 9t9 -9zM178 230v-41q0 -9 -9 -9t-9 9v41q0 9 9 9t9 -9zM178 170v-41q0 -9 -9 -9t-9 9v41q0 9 9 9t9 -9zM178 110v-41q0 -9 -9 -9t-9 9v41 q0 9 9 9t9 -9zM178 50v-41q0 -9 -9 -9t-9 9v41q0 9 9 9t9 -9zM118 530v-41q0 -9 -9 -9t-9 9v41q0 9 9 9t9 -9zM298 50v-41q0 -9 -9 -9t-9 9v41q0 9 9 9t9 -9zM238 50v-41q0 -9 -9 -9t-9 9v41q0 9 9 9t9 -9z" />
<glyph unicode="M" horiz-adv-x="720" d="M400 249v41q0 9 9 9t9 -9v-41q0 -9 -9 -9t-9 9zM340 189v41q0 9 9 9t9 -9v-41q0 -9 -9 -9t-9 9zM340 129v41q0 9 9 9t9 -9v-41q0 -9 -9 -9t-9 9zM220 309v41q0 9 9 9t9 -9v-41q0 -9 -9 -9t-9 9zM280 249v41q0 9 9 9t9 -9v-41q0 -9 -9 -9t-9 9zM100 489v41q0 9 9 9t9 -9 v-41q0 -9 -9 -9t-9 9zM100 9v41q0 9 9 9t9 -9v-41q0 -9 -9 -9t-9 9zM220 249v41q0 9 9 9t9 -9v-41q0 -9 -9 -9t-9 9zM280 189v41q0 9 9 9t9 -9v-41q0 -9 -9 -9t-9 9zM160 369v41q0 9 9 9t9 -9v-41q0 -9 -9 -9t-9 9zM160 309v41q0 9 9 9t9 -9v-41q0 -9 -9 -9t-9 9zM100 429 v41q0 9 9 9t9 -9v-41q0 -9 -9 -9t-9 9zM100 369v41q0 9 9 9t9 -9v-41q0 -9 -9 -9t-9 9zM160 429v41q0 9 9 9t9 -9v-41q0 -9 -9 -9t-9 9zM220 369v41q0 9 9 9t9 -9v-41q0 -9 -9 -9t-9 9zM280 309v41q0 9 9 9t9 -9v-41q0 -9 -9 -9t-9 9zM340 249v41q0 9 9 9t9 -9v-41 q0 -9 -9 -9t-9 9zM400 189v41q0 9 9 9t9 -9v-41q0 -9 -9 -9t-9 9zM100 69v41q0 9 9 9t9 -9v-41q0 -9 -9 -9t-9 9zM100 129v41q0 9 9 9t9 -9v-41q0 -9 -9 -9t-9 9zM100 189v41q0 9 9 9t9 -9v-41q0 -9 -9 -9t-9 9zM100 249v41q0 9 9 9t9 -9v-41q0 -9 -9 -9t-9 9zM100 309v41 q0 9 9 9t9 -9v-41q0 -9 -9 -9t-9 9zM460 309v41q0 9 9 9t9 -9v-41q0 -9 -9 -9t-9 9zM460 249v41q0 9 9 9t9 -9v-41q0 -9 -9 -9t-9 9zM520 369v41q0 9 9 9t9 -9v-41q0 -9 -9 -9t-9 9zM520 309v41q0 9 9 9t9 -9v-41q0 -9 -9 -9t-9 9zM580 9v41q0 9 9 9t9 -9v-41q0 -9 -9 -9 t-9 9zM580 429v41q0 9 9 9t9 -9v-41q0 -9 -9 -9t-9 9zM580 369v41q0 9 9 9t9 -9v-41q0 -9 -9 -9t-9 9zM580 69v41q0 9 9 9t9 -9v-41q0 -9 -9 -9t-9 9zM580 129v41q0 9 9 9t9 -9v-41q0 -9 -9 -9t-9 9zM580 189v41q0 9 9 9t9 -9v-41q0 -9 -9 -9t-9 9zM580 249v41q0 9 9 9t9 -9 v-41q0 -9 -9 -9t-9 9zM580 309v41q0 9 9 9t9 -9v-41q0 -9 -9 -9t-9 9zM640 489v41q0 9 9 9t9 -9v-41q0 -9 -9 -9t-9 9zM640 9v41q0 9 9 9t9 -9v-41q0 -9 -9 -9t-9 9zM640 429v41q0 9 9 9t9 -9v-41q0 -9 -9 -9t-9 9zM640 369v41q0 9 9 9t9 -9v-41q0 -9 -9 -9t-9 9zM640 69v41 q0 9 9 9t9 -9v-41q0 -9 -9 -9t-9 9zM640 129v41q0 9 9 9t9 -9v-41q0 -9 -9 -9t-9 9zM640 189v41q0 9 9 9t9 -9v-41q0 -9 -9 -9t-9 9zM640 249v41q0 9 9 9t9 -9v-41q0 -9 -9 -9t-9 9zM640 309v41q0 9 9 9t9 -9v-41q0 -9 -9 -9t-9 9z" />
<glyph unicode="N" horiz-adv-x="540" d="M400 129v41q0 9 9 9t9 -9v-41q0 -9 -9 -9t-9 9zM400 69v41q0 9 9 9t9 -9v-41q0 -9 -9 -9t-9 9zM400 9v41q0 9 9 9t9 -9v-41q0 -9 -9 -9t-9 9zM340 189v41q0 9 9 9t9 -9v-41q0 -9 -9 -9t-9 9zM340 129v41q0 9 9 9t9 -9v-41q0 -9 -9 -9t-9 9zM340 69v41q0 9 9 9t9 -9v-41 q0 -9 -9 -9t-9 9zM340 9v41q0 9 9 9t9 -9v-41q0 -9 -9 -9t-9 9zM220 309v41q0 9 9 9t9 -9v-41q0 -9 -9 -9t-9 9zM280 249v41q0 9 9 9t9 -9v-41q0 -9 -9 -9t-9 9zM160 489v41q0 9 9 9t9 -9v-41q0 -9 -9 -9t-9 9zM100 489v41q0 9 9 9t9 -9v-41q0 -9 -9 -9t-9 9zM100 9v41 q0 9 9 9t9 -9v-41q0 -9 -9 -9t-9 9zM220 249v41q0 9 9 9t9 -9v-41q0 -9 -9 -9t-9 9zM280 189v41q0 9 9 9t9 -9v-41q0 -9 -9 -9t-9 9zM160 369v41q0 9 9 9t9 -9v-41q0 -9 -9 -9t-9 9zM160 309v41q0 9 9 9t9 -9v-41q0 -9 -9 -9t-9 9zM100 429v41q0 9 9 9t9 -9v-41q0 -9 -9 -9 t-9 9zM100 369v41q0 9 9 9t9 -9v-41q0 -9 -9 -9t-9 9zM160 429v41q0 9 9 9t9 -9v-41q0 -9 -9 -9t-9 9zM220 369v41q0 9 9 9t9 -9v-41q0 -9 -9 -9t-9 9zM280 309v41q0 9 9 9t9 -9v-41q0 -9 -9 -9t-9 9zM340 249v41q0 9 9 9t9 -9v-41q0 -9 -9 -9t-9 9zM400 189v41q0 9 9 9 t9 -9v-41q0 -9 -9 -9t-9 9zM100 69v41q0 9 9 9t9 -9v-41q0 -9 -9 -9t-9 9zM100 129v41q0 9 9 9t9 -9v-41q0 -9 -9 -9t-9 9zM100 189v41q0 9 9 9t9 -9v-41q0 -9 -9 -9t-9 9zM100 249v41q0 9 9 9t9 -9v-41q0 -9 -9 -9t-9 9zM100 309v41q0 9 9 9t9 -9v-41q0 -9 -9 -9t-9 9z M460 489v41q0 9 9 9t9 -9v-41q0 -9 -9 -9t-9 9zM460 9v41q0 9 9 9t9 -9v-41q0 -9 -9 -9t-9 9zM460 429v41q0 9 9 9t9 -9v-41q0 -9 -9 -9t-9 9zM460 369v41q0 9 9 9t9 -9v-41q0 -9 -9 -9t-9 9zM460 69v41q0 9 9 9t9 -9v-41q0 -9 -9 -9t-9 9zM460 129v41q0 9 9 9t9 -9v-41 q0 -9 -9 -9t-9 9zM460 189v41q0 9 9 9t9 -9v-41q0 -9 -9 -9t-9 9zM460 249v41q0 9 9 9t9 -9v-41q0 -9 -9 -9t-9 9zM460 309v41q0 9 9 9t9 -9v-41q0 -9 -9 -9t-9 9z" />
<glyph unicode="O" d="M160 9v41q0 9 9 9t9 -9v-41q0 -9 -9 -9t-9 9zM160 69v41q0 9 9 9t9 -9v-41q0 -9 -9 -9t-9 9zM160 129v41q0 9 9 9t9 -9v-41q0 -9 -9 -9t-9 9zM160 189v41q0 9 9 9t9 -9v-41q0 -9 -9 -9t-9 9zM160 249v41q0 9 9 9t9 -9v-41q0 -9 -9 -9t-9 9zM160 309v41q0 9 9 9t9 -9v-41 q0 -9 -9 -9t-9 9zM160 369v41q0 9 9 9t9 -9v-41q0 -9 -9 -9t-9 9zM160 429v41q0 9 9 9t9 -9v-41q0 -9 -9 -9t-9 9zM160 489v41q0 9 9 9t9 -9v-41q0 -9 -9 -9t-9 9zM100 69v41q0 9 9 9t9 -9v-41q0 -9 -9 -9t-9 9zM100 129v41q0 9 9 9t9 -9v-41q0 -9 -9 -9t-9 9zM100 189v41 q0 9 9 9t9 -9v-41q0 -9 -9 -9t-9 9zM100 249v41q0 9 9 9t9 -9v-41q0 -9 -9 -9t-9 9zM100 309v41q0 9 9 9t9 -9v-41q0 -9 -9 -9t-9 9zM100 369v41q0 9 9 9t9 -9v-41q0 -9 -9 -9t-9 9zM100 429v41q0 9 9 9t9 -9v-41q0 -9 -9 -9t-9 9zM220 489v41q0 9 9 9t9 -9v-41q0 -9 -9 -9 t-9 9zM340 9v41q0 9 9 9t9 -9v-41q0 -9 -9 -9t-9 9zM400 69v41q0 9 9 9t9 -9v-41q0 -9 -9 -9t-9 9zM400 129v41q0 9 9 9t9 -9v-41q0 -9 -9 -9t-9 9zM400 189v41q0 9 9 9t9 -9v-41q0 -9 -9 -9t-9 9zM400 249v41q0 9 9 9t9 -9v-41q0 -9 -9 -9t-9 9zM400 309v41q0 9 9 9t9 -9 v-41q0 -9 -9 -9t-9 9zM400 369v41q0 9 9 9t9 -9v-41q0 -9 -9 -9t-9 9zM400 429v41q0 9 9 9t9 -9v-41q0 -9 -9 -9t-9 9zM280 489v41q0 9 9 9t9 -9v-41q0 -9 -9 -9t-9 9zM340 69v41q0 9 9 9t9 -9v-41q0 -9 -9 -9t-9 9zM340 129v41q0 9 9 9t9 -9v-41q0 -9 -9 -9t-9 9zM340 189 v41q0 9 9 9t9 -9v-41q0 -9 -9 -9t-9 9zM340 249v41q0 9 9 9t9 -9v-41q0 -9 -9 -9t-9 9zM340 309v41q0 9 9 9t9 -9v-41q0 -9 -9 -9t-9 9zM340 369v41q0 9 9 9t9 -9v-41q0 -9 -9 -9t-9 9zM340 429v41q0 9 9 9t9 -9v-41q0 -9 -9 -9t-9 9zM340 489v41q0 9 9 9t9 -9v-41 q0 -9 -9 -9t-9 9zM280 9v41q0 9 9 9t9 -9v-41q0 -9 -9 -9t-9 9zM220 9v41q0 9 9 9t9 -9v-41q0 -9 -9 -9t-9 9z" />
<glyph unicode="P" d="M358 530v-41q0 -9 -9 -9t-9 9v41q0 9 9 9t9 -9zM358 470v-41q0 -9 -9 -9t-9 9v41q0 9 9 9t9 -9zM358 410v-41q0 -9 -9 -9t-9 9v41q0 9 9 9t9 -9zM358 350v-41q0 -9 -9 -9t-9 9v41q0 9 9 9t9 -9zM358 290v-41q0 -9 -9 -9t-9 9v41q0 9 9 9t9 -9zM418 470v-41q0 -9 -9 -9 t-9 9v41q0 9 9 9t9 -9zM418 410v-41q0 -9 -9 -9t-9 9v41q0 9 9 9t9 -9zM418 350v-41q0 -9 -9 -9t-9 9v41q0 9 9 9t9 -9zM118 530v-41q0 -9 -9 -9t-9 9v41q0 9 9 9t9 -9zM178 530v-41q0 -9 -9 -9t-9 9v41q0 9 9 9t9 -9zM118 470v-41q0 -9 -9 -9t-9 9v41q0 9 9 9t9 -9z M118 410v-41q0 -9 -9 -9t-9 9v41q0 9 9 9t9 -9zM118 350v-41q0 -9 -9 -9t-9 9v41q0 9 9 9t9 -9zM118 290v-41q0 -9 -9 -9t-9 9v41q0 9 9 9t9 -9zM118 230v-41q0 -9 -9 -9t-9 9v41q0 9 9 9t9 -9zM118 170v-41q0 -9 -9 -9t-9 9v41q0 9 9 9t9 -9zM118 110v-41q0 -9 -9 -9t-9 9 v41q0 9 9 9t9 -9zM118 50v-41q0 -9 -9 -9t-9 9v41q0 9 9 9t9 -9zM178 470v-41q0 -9 -9 -9t-9 9v41q0 9 9 9t9 -9zM178 410v-41q0 -9 -9 -9t-9 9v41q0 9 9 9t9 -9zM178 350v-41q0 -9 -9 -9t-9 9v41q0 9 9 9t9 -9zM178 290v-41q0 -9 -9 -9t-9 9v41q0 9 9 9t9 -9zM178 230v-41 q0 -9 -9 -9t-9 9v41q0 9 9 9t9 -9zM178 170v-41q0 -9 -9 -9t-9 9v41q0 9 9 9t9 -9zM178 110v-41q0 -9 -9 -9t-9 9v41q0 9 9 9t9 -9zM178 50v-41q0 -9 -9 -9t-9 9v41q0 9 9 9t9 -9zM238 530v-41q0 -9 -9 -9t-9 9v41q0 9 9 9t9 -9zM298 530v-41q0 -9 -9 -9t-9 9v41q0 9 9 9 t9 -9zM298 290v-41q0 -9 -9 -9t-9 9v41q0 9 9 9t9 -9zM238 290v-41q0 -9 -9 -9t-9 9v41q0 9 9 9t9 -9z" />
<glyph unicode="Q" d="M160 9v41q0 9 9 9t9 -9v-41q0 -9 -9 -9t-9 9zM160 69v41q0 9 9 9t9 -9v-41q0 -9 -9 -9t-9 9zM160 129v41q0 9 9 9t9 -9v-41q0 -9 -9 -9t-9 9zM160 189v41q0 9 9 9t9 -9v-41q0 -9 -9 -9t-9 9zM160 249v41q0 9 9 9t9 -9v-41q0 -9 -9 -9t-9 9zM160 309v41q0 9 9 9t9 -9v-41 q0 -9 -9 -9t-9 9zM160 369v41q0 9 9 9t9 -9v-41q0 -9 -9 -9t-9 9zM160 429v41q0 9 9 9t9 -9v-41q0 -9 -9 -9t-9 9zM160 489v41q0 9 9 9t9 -9v-41q0 -9 -9 -9t-9 9zM100 69v41q0 9 9 9t9 -9v-41q0 -9 -9 -9t-9 9zM100 129v41q0 9 9 9t9 -9v-41q0 -9 -9 -9t-9 9zM100 189v41 q0 9 9 9t9 -9v-41q0 -9 -9 -9t-9 9zM100 249v41q0 9 9 9t9 -9v-41q0 -9 -9 -9t-9 9zM100 309v41q0 9 9 9t9 -9v-41q0 -9 -9 -9t-9 9zM100 369v41q0 9 9 9t9 -9v-41q0 -9 -9 -9t-9 9zM100 429v41q0 9 9 9t9 -9v-41q0 -9 -9 -9t-9 9zM220 489v41q0 9 9 9t9 -9v-41q0 -9 -9 -9 t-9 9zM340 9v41q0 9 9 9t9 -9v-41q0 -9 -9 -9t-9 9zM400 69v41q0 9 9 9t9 -9v-41q0 -9 -9 -9t-9 9zM400 129v41q0 9 9 9t9 -9v-41q0 -9 -9 -9t-9 9zM400 189v41q0 9 9 9t9 -9v-41q0 -9 -9 -9t-9 9zM400 249v41q0 9 9 9t9 -9v-41q0 -9 -9 -9t-9 9zM400 309v41q0 9 9 9t9 -9 v-41q0 -9 -9 -9t-9 9zM400 369v41q0 9 9 9t9 -9v-41q0 -9 -9 -9t-9 9zM400 429v41q0 9 9 9t9 -9v-41q0 -9 -9 -9t-9 9zM280 489v41q0 9 9 9t9 -9v-41q0 -9 -9 -9t-9 9zM340 69v41q0 9 9 9t9 -9v-41q0 -9 -9 -9t-9 9zM340 129v41q0 9 9 9t9 -9v-41q0 -9 -9 -9t-9 9zM340 189 v41q0 9 9 9t9 -9v-41q0 -9 -9 -9t-9 9zM340 249v41q0 9 9 9t9 -9v-41q0 -9 -9 -9t-9 9zM340 309v41q0 9 9 9t9 -9v-41q0 -9 -9 -9t-9 9zM340 369v41q0 9 9 9t9 -9v-41q0 -9 -9 -9t-9 9zM340 429v41q0 9 9 9t9 -9v-41q0 -9 -9 -9t-9 9zM340 489v41q0 9 9 9t9 -9v-41 q0 -9 -9 -9t-9 9zM280 9v41q0 9 9 9t9 -9v-41q0 -9 -9 -9t-9 9zM220 9v41q0 9 9 9t9 -9v-41q0 -9 -9 -9t-9 9zM400 -51v41q0 9 9 9t9 -9v-41q0 -9 -9 -9t-9 9zM340 -51v41q0 9 9 9t9 -9v-41q0 -9 -9 -9t-9 9z" />
<glyph unicode="R" d="M358 530v-41q0 -9 -9 -9t-9 9v41q0 9 9 9t9 -9zM358 470v-41q0 -9 -9 -9t-9 9v41q0 9 9 9t9 -9zM358 410v-41q0 -9 -9 -9t-9 9v41q0 9 9 9t9 -9zM358 350v-41q0 -9 -9 -9t-9 9v41q0 9 9 9t9 -9zM358 290v-41q0 -9 -9 -9t-9 9v41q0 9 9 9t9 -9zM358 230v-41q0 -9 -9 -9 t-9 9v41q0 9 9 9t9 -9zM358 170v-41q0 -9 -9 -9t-9 9v41q0 9 9 9t9 -9zM358 110v-41q0 -9 -9 -9t-9 9v41q0 9 9 9t9 -9zM358 50v-41q0 -9 -9 -9t-9 9v41q0 9 9 9t9 -9zM418 470v-41q0 -9 -9 -9t-9 9v41q0 9 9 9t9 -9zM418 410v-41q0 -9 -9 -9t-9 9v41q0 9 9 9t9 -9zM418 350 v-41q0 -9 -9 -9t-9 9v41q0 9 9 9t9 -9zM118 530v-41q0 -9 -9 -9t-9 9v41q0 9 9 9t9 -9zM418 230v-41q0 -9 -9 -9t-9 9v41q0 9 9 9t9 -9zM418 170v-41q0 -9 -9 -9t-9 9v41q0 9 9 9t9 -9zM418 110v-41q0 -9 -9 -9t-9 9v41q0 9 9 9t9 -9zM418 50v-41q0 -9 -9 -9t-9 9v41 q0 9 9 9t9 -9zM178 530v-41q0 -9 -9 -9t-9 9v41q0 9 9 9t9 -9zM118 470v-41q0 -9 -9 -9t-9 9v41q0 9 9 9t9 -9zM118 410v-41q0 -9 -9 -9t-9 9v41q0 9 9 9t9 -9zM118 350v-41q0 -9 -9 -9t-9 9v41q0 9 9 9t9 -9zM118 290v-41q0 -9 -9 -9t-9 9v41q0 9 9 9t9 -9zM118 230v-41 q0 -9 -9 -9t-9 9v41q0 9 9 9t9 -9zM118 170v-41q0 -9 -9 -9t-9 9v41q0 9 9 9t9 -9zM118 110v-41q0 -9 -9 -9t-9 9v41q0 9 9 9t9 -9zM118 50v-41q0 -9 -9 -9t-9 9v41q0 9 9 9t9 -9zM178 470v-41q0 -9 -9 -9t-9 9v41q0 9 9 9t9 -9zM178 410v-41q0 -9 -9 -9t-9 9v41q0 9 9 9 t9 -9zM178 350v-41q0 -9 -9 -9t-9 9v41q0 9 9 9t9 -9zM178 290v-41q0 -9 -9 -9t-9 9v41q0 9 9 9t9 -9zM178 230v-41q0 -9 -9 -9t-9 9v41q0 9 9 9t9 -9zM178 170v-41q0 -9 -9 -9t-9 9v41q0 9 9 9t9 -9zM178 110v-41q0 -9 -9 -9t-9 9v41q0 9 9 9t9 -9zM178 50v-41q0 -9 -9 -9 t-9 9v41q0 9 9 9t9 -9zM238 530v-41q0 -9 -9 -9t-9 9v41q0 9 9 9t9 -9zM298 530v-41q0 -9 -9 -9t-9 9v41q0 9 9 9t9 -9zM298 290v-41q0 -9 -9 -9t-9 9v41q0 9 9 9t9 -9zM238 290v-41q0 -9 -9 -9t-9 9v41q0 9 9 9t9 -9z" />
<glyph unicode="S" horiz-adv-x="420" d="M220 249v41q0 9 9 9t9 -9v-41q0 -9 -9 -9t-9 9zM100 69v41q0 9 9 9t9 -9v-41q0 -9 -9 -9t-9 9zM220 189v41q0 9 9 9t9 -9v-41q0 -9 -9 -9t-9 9zM280 9v41q0 9 9 9t9 -9v-41q0 -9 -9 -9t-9 9zM340 69v41q0 9 9 9t9 -9v-41q0 -9 -9 -9t-9 9zM340 129v41q0 9 9 9t9 -9v-41 q0 -9 -9 -9t-9 9zM340 189v41q0 9 9 9t9 -9v-41q0 -9 -9 -9t-9 9zM340 429v41q0 9 9 9t9 -9v-41q0 -9 -9 -9t-9 9zM280 69v41q0 9 9 9t9 -9v-41q0 -9 -9 -9t-9 9zM280 129v41q0 9 9 9t9 -9v-41q0 -9 -9 -9t-9 9zM280 189v41q0 9 9 9t9 -9v-41q0 -9 -9 -9t-9 9zM280 249v41 q0 9 9 9t9 -9v-41q0 -9 -9 -9t-9 9zM280 429v41q0 9 9 9t9 -9v-41q0 -9 -9 -9t-9 9zM280 489v41q0 9 9 9t9 -9v-41q0 -9 -9 -9t-9 9zM220 9v41q0 9 9 9t9 -9v-41q0 -9 -9 -9t-9 9zM160 9v41q0 9 9 9t9 -9v-41q0 -9 -9 -9t-9 9zM220 309v41q0 9 9 9t9 -9v-41q0 -9 -9 -9t-9 9 zM220 489v41q0 9 9 9t9 -9v-41q0 -9 -9 -9t-9 9zM160 249v41q0 9 9 9t9 -9v-41q0 -9 -9 -9t-9 9zM160 309v41q0 9 9 9t9 -9v-41q0 -9 -9 -9t-9 9zM160 369v41q0 9 9 9t9 -9v-41q0 -9 -9 -9t-9 9zM160 429v41q0 9 9 9t9 -9v-41q0 -9 -9 -9t-9 9zM160 489v41q0 9 9 9t9 -9v-41 q0 -9 -9 -9t-9 9zM100 309v41q0 9 9 9t9 -9v-41q0 -9 -9 -9t-9 9zM100 369v41q0 9 9 9t9 -9v-41q0 -9 -9 -9t-9 9zM100 429v41q0 9 9 9t9 -9v-41q0 -9 -9 -9t-9 9z" />
<glyph unicode="T" horiz-adv-x="360" d="M220 489v41q0 9 9 9t9 -9v-41q0 -9 -9 -9t-9 9zM100 489v41q0 9 9 9t9 -9v-41q0 -9 -9 -9t-9 9zM160 489v41q0 9 9 9t9 -9v-41q0 -9 -9 -9t-9 9zM40 489v41q0 9 9 9t9 -9v-41q0 -9 -9 -9t-9 9zM220 309v41q0 9 9 9t9 -9v-41q0 -9 -9 -9t-9 9zM220 369v41q0 9 9 9t9 -9 v-41q0 -9 -9 -9t-9 9zM220 429v41q0 9 9 9t9 -9v-41q0 -9 -9 -9t-9 9zM340 489v41q0 9 9 9t9 -9v-41q0 -9 -9 -9t-9 9zM160 309v41q0 9 9 9t9 -9v-41q0 -9 -9 -9t-9 9zM160 369v41q0 9 9 9t9 -9v-41q0 -9 -9 -9t-9 9zM160 429v41q0 9 9 9t9 -9v-41q0 -9 -9 -9t-9 9zM280 489 v41q0 9 9 9t9 -9v-41q0 -9 -9 -9t-9 9zM220 249v41q0 9 9 9t9 -9v-41q0 -9 -9 -9t-9 9zM160 249v41q0 9 9 9t9 -9v-41q0 -9 -9 -9t-9 9zM220 189v41q0 9 9 9t9 -9v-41q0 -9 -9 -9t-9 9zM160 189v41q0 9 9 9t9 -9v-41q0 -9 -9 -9t-9 9zM220 129v41q0 9 9 9t9 -9v-41 q0 -9 -9 -9t-9 9zM160 129v41q0 9 9 9t9 -9v-41q0 -9 -9 -9t-9 9zM220 69v41q0 9 9 9t9 -9v-41q0 -9 -9 -9t-9 9zM160 69v41q0 9 9 9t9 -9v-41q0 -9 -9 -9t-9 9zM220 9v41q0 9 9 9t9 -9v-41q0 -9 -9 -9t-9 9zM160 9v41q0 9 9 9t9 -9v-41q0 -9 -9 -9t-9 9z" />
<glyph unicode="U" d="M160 9v41q0 9 9 9t9 -9v-41q0 -9 -9 -9t-9 9zM160 69v41q0 9 9 9t9 -9v-41q0 -9 -9 -9t-9 9zM160 129v41q0 9 9 9t9 -9v-41q0 -9 -9 -9t-9 9zM160 189v41q0 9 9 9t9 -9v-41q0 -9 -9 -9t-9 9zM160 249v41q0 9 9 9t9 -9v-41q0 -9 -9 -9t-9 9zM160 309v41q0 9 9 9t9 -9v-41 q0 -9 -9 -9t-9 9zM160 369v41q0 9 9 9t9 -9v-41q0 -9 -9 -9t-9 9zM160 429v41q0 9 9 9t9 -9v-41q0 -9 -9 -9t-9 9zM160 489v41q0 9 9 9t9 -9v-41q0 -9 -9 -9t-9 9zM100 69v41q0 9 9 9t9 -9v-41q0 -9 -9 -9t-9 9zM100 129v41q0 9 9 9t9 -9v-41q0 -9 -9 -9t-9 9zM100 189v41 q0 9 9 9t9 -9v-41q0 -9 -9 -9t-9 9zM100 249v41q0 9 9 9t9 -9v-41q0 -9 -9 -9t-9 9zM100 309v41q0 9 9 9t9 -9v-41q0 -9 -9 -9t-9 9zM100 369v41q0 9 9 9t9 -9v-41q0 -9 -9 -9t-9 9zM100 429v41q0 9 9 9t9 -9v-41q0 -9 -9 -9t-9 9zM100 489v41q0 9 9 9t9 -9v-41q0 -9 -9 -9 t-9 9zM340 9v41q0 9 9 9t9 -9v-41q0 -9 -9 -9t-9 9zM400 69v41q0 9 9 9t9 -9v-41q0 -9 -9 -9t-9 9zM400 129v41q0 9 9 9t9 -9v-41q0 -9 -9 -9t-9 9zM400 189v41q0 9 9 9t9 -9v-41q0 -9 -9 -9t-9 9zM400 249v41q0 9 9 9t9 -9v-41q0 -9 -9 -9t-9 9zM400 309v41q0 9 9 9t9 -9 v-41q0 -9 -9 -9t-9 9zM400 369v41q0 9 9 9t9 -9v-41q0 -9 -9 -9t-9 9zM400 429v41q0 9 9 9t9 -9v-41q0 -9 -9 -9t-9 9zM400 489v41q0 9 9 9t9 -9v-41q0 -9 -9 -9t-9 9zM340 69v41q0 9 9 9t9 -9v-41q0 -9 -9 -9t-9 9zM340 129v41q0 9 9 9t9 -9v-41q0 -9 -9 -9t-9 9zM340 189 v41q0 9 9 9t9 -9v-41q0 -9 -9 -9t-9 9zM340 249v41q0 9 9 9t9 -9v-41q0 -9 -9 -9t-9 9zM340 309v41q0 9 9 9t9 -9v-41q0 -9 -9 -9t-9 9zM340 369v41q0 9 9 9t9 -9v-41q0 -9 -9 -9t-9 9zM340 429v41q0 9 9 9t9 -9v-41q0 -9 -9 -9t-9 9zM340 489v41q0 9 9 9t9 -9v-41 q0 -9 -9 -9t-9 9zM280 9v41q0 9 9 9t9 -9v-41q0 -9 -9 -9t-9 9zM220 9v41q0 9 9 9t9 -9v-41q0 -9 -9 -9t-9 9z" />
<glyph unicode="V" d="M100 9v41q0 9 9 9t9 -9v-41q0 -9 -9 -9t-9 9zM160 69v41q0 9 9 9t9 -9v-41q0 -9 -9 -9t-9 9zM160 129v41q0 9 9 9t9 -9v-41q0 -9 -9 -9t-9 9zM160 189v41q0 9 9 9t9 -9v-41q0 -9 -9 -9t-9 9zM160 249v41q0 9 9 9t9 -9v-41q0 -9 -9 -9t-9 9zM160 309v41q0 9 9 9t9 -9v-41 q0 -9 -9 -9t-9 9zM160 369v41q0 9 9 9t9 -9v-41q0 -9 -9 -9t-9 9zM160 429v41q0 9 9 9t9 -9v-41q0 -9 -9 -9t-9 9zM160 489v41q0 9 9 9t9 -9v-41q0 -9 -9 -9t-9 9zM100 69v41q0 9 9 9t9 -9v-41q0 -9 -9 -9t-9 9zM100 129v41q0 9 9 9t9 -9v-41q0 -9 -9 -9t-9 9zM100 189v41 q0 9 9 9t9 -9v-41q0 -9 -9 -9t-9 9zM100 249v41q0 9 9 9t9 -9v-41q0 -9 -9 -9t-9 9zM100 309v41q0 9 9 9t9 -9v-41q0 -9 -9 -9t-9 9zM100 369v41q0 9 9 9t9 -9v-41q0 -9 -9 -9t-9 9zM100 429v41q0 9 9 9t9 -9v-41q0 -9 -9 -9t-9 9zM100 489v41q0 9 9 9t9 -9v-41q0 -9 -9 -9 t-9 9zM280 9v41q0 9 9 9t9 -9v-41q0 -9 -9 -9t-9 9zM400 129v41q0 9 9 9t9 -9v-41q0 -9 -9 -9t-9 9zM400 189v41q0 9 9 9t9 -9v-41q0 -9 -9 -9t-9 9zM400 249v41q0 9 9 9t9 -9v-41q0 -9 -9 -9t-9 9zM400 309v41q0 9 9 9t9 -9v-41q0 -9 -9 -9t-9 9zM400 369v41q0 9 9 9t9 -9 v-41q0 -9 -9 -9t-9 9zM400 429v41q0 9 9 9t9 -9v-41q0 -9 -9 -9t-9 9zM400 489v41q0 9 9 9t9 -9v-41q0 -9 -9 -9t-9 9zM340 69v41q0 9 9 9t9 -9v-41q0 -9 -9 -9t-9 9zM340 129v41q0 9 9 9t9 -9v-41q0 -9 -9 -9t-9 9zM340 189v41q0 9 9 9t9 -9v-41q0 -9 -9 -9t-9 9zM340 249 v41q0 9 9 9t9 -9v-41q0 -9 -9 -9t-9 9zM340 309v41q0 9 9 9t9 -9v-41q0 -9 -9 -9t-9 9zM340 369v41q0 9 9 9t9 -9v-41q0 -9 -9 -9t-9 9zM340 429v41q0 9 9 9t9 -9v-41q0 -9 -9 -9t-9 9zM340 489v41q0 9 9 9t9 -9v-41q0 -9 -9 -9t-9 9zM220 9v41q0 9 9 9t9 -9v-41q0 -9 -9 -9 t-9 9zM160 9v41q0 9 9 9t9 -9v-41q0 -9 -9 -9t-9 9z" />
<glyph unicode="W" horiz-adv-x="720" d="M100 9v41q0 9 9 9t9 -9v-41q0 -9 -9 -9t-9 9zM160 69v41q0 9 9 9t9 -9v-41q0 -9 -9 -9t-9 9zM160 129v41q0 9 9 9t9 -9v-41q0 -9 -9 -9t-9 9zM160 189v41q0 9 9 9t9 -9v-41q0 -9 -9 -9t-9 9zM160 249v41q0 9 9 9t9 -9v-41q0 -9 -9 -9t-9 9zM160 309v41q0 9 9 9t9 -9v-41 q0 -9 -9 -9t-9 9zM160 369v41q0 9 9 9t9 -9v-41q0 -9 -9 -9t-9 9zM160 429v41q0 9 9 9t9 -9v-41q0 -9 -9 -9t-9 9zM160 489v41q0 9 9 9t9 -9v-41q0 -9 -9 -9t-9 9zM100 69v41q0 9 9 9t9 -9v-41q0 -9 -9 -9t-9 9zM100 129v41q0 9 9 9t9 -9v-41q0 -9 -9 -9t-9 9zM100 189v41 q0 9 9 9t9 -9v-41q0 -9 -9 -9t-9 9zM100 249v41q0 9 9 9t9 -9v-41q0 -9 -9 -9t-9 9zM100 309v41q0 9 9 9t9 -9v-41q0 -9 -9 -9t-9 9zM100 369v41q0 9 9 9t9 -9v-41q0 -9 -9 -9t-9 9zM100 429v41q0 9 9 9t9 -9v-41q0 -9 -9 -9t-9 9zM100 489v41q0 9 9 9t9 -9v-41q0 -9 -9 -9 t-9 9zM280 9v41q0 9 9 9t9 -9v-41q0 -9 -9 -9t-9 9zM220 9v41q0 9 9 9t9 -9v-41q0 -9 -9 -9t-9 9zM160 9v41q0 9 9 9t9 -9v-41q0 -9 -9 -9t-9 9zM340 9v41q0 9 9 9t9 -9v-41q0 -9 -9 -9t-9 9zM400 69v41q0 9 9 9t9 -9v-41q0 -9 -9 -9t-9 9zM400 129v41q0 9 9 9t9 -9v-41 q0 -9 -9 -9t-9 9zM400 189v41q0 9 9 9t9 -9v-41q0 -9 -9 -9t-9 9zM400 249v41q0 9 9 9t9 -9v-41q0 -9 -9 -9t-9 9zM400 309v41q0 9 9 9t9 -9v-41q0 -9 -9 -9t-9 9zM400 369v41q0 9 9 9t9 -9v-41q0 -9 -9 -9t-9 9zM400 429v41q0 9 9 9t9 -9v-41q0 -9 -9 -9t-9 9zM400 489v41 q0 9 9 9t9 -9v-41q0 -9 -9 -9t-9 9zM340 69v41q0 9 9 9t9 -9v-41q0 -9 -9 -9t-9 9zM340 129v41q0 9 9 9t9 -9v-41q0 -9 -9 -9t-9 9zM340 189v41q0 9 9 9t9 -9v-41q0 -9 -9 -9t-9 9zM340 249v41q0 9 9 9t9 -9v-41q0 -9 -9 -9t-9 9zM340 309v41q0 9 9 9t9 -9v-41q0 -9 -9 -9 t-9 9zM340 369v41q0 9 9 9t9 -9v-41q0 -9 -9 -9t-9 9zM340 429v41q0 9 9 9t9 -9v-41q0 -9 -9 -9t-9 9zM340 489v41q0 9 9 9t9 -9v-41q0 -9 -9 -9t-9 9zM520 9v41q0 9 9 9t9 -9v-41q0 -9 -9 -9t-9 9zM640 129v41q0 9 9 9t9 -9v-41q0 -9 -9 -9t-9 9zM640 189v41q0 9 9 9t9 -9 v-41q0 -9 -9 -9t-9 9zM640 249v41q0 9 9 9t9 -9v-41q0 -9 -9 -9t-9 9zM640 309v41q0 9 9 9t9 -9v-41q0 -9 -9 -9t-9 9zM640 369v41q0 9 9 9t9 -9v-41q0 -9 -9 -9t-9 9zM640 429v41q0 9 9 9t9 -9v-41q0 -9 -9 -9t-9 9zM640 489v41q0 9 9 9t9 -9v-41q0 -9 -9 -9t-9 9zM580 69 v41q0 9 9 9t9 -9v-41q0 -9 -9 -9t-9 9zM580 129v41q0 9 9 9t9 -9v-41q0 -9 -9 -9t-9 9zM580 189v41q0 9 9 9t9 -9v-41q0 -9 -9 -9t-9 9zM580 249v41q0 9 9 9t9 -9v-41q0 -9 -9 -9t-9 9zM580 309v41q0 9 9 9t9 -9v-41q0 -9 -9 -9t-9 9zM580 369v41q0 9 9 9t9 -9v-41 q0 -9 -9 -9t-9 9zM580 429v41q0 9 9 9t9 -9v-41q0 -9 -9 -9t-9 9zM580 489v41q0 9 9 9t9 -9v-41q0 -9 -9 -9t-9 9zM460 9v41q0 9 9 9t9 -9v-41q0 -9 -9 -9t-9 9zM400 9v41q0 9 9 9t9 -9v-41q0 -9 -9 -9t-9 9z" />
<glyph unicode="X" d="M160 249v41q0 9 9 9t9 -9v-41q0 -9 -9 -9t-9 9zM160 309v41q0 9 9 9t9 -9v-41q0 -9 -9 -9t-9 9zM160 369v41q0 9 9 9t9 -9v-41q0 -9 -9 -9t-9 9zM160 429v41q0 9 9 9t9 -9v-41q0 -9 -9 -9t-9 9zM160 489v41q0 9 9 9t9 -9v-41q0 -9 -9 -9t-9 9zM100 309v41q0 9 9 9t9 -9 v-41q0 -9 -9 -9t-9 9zM100 369v41q0 9 9 9t9 -9v-41q0 -9 -9 -9t-9 9zM100 429v41q0 9 9 9t9 -9v-41q0 -9 -9 -9t-9 9zM100 489v41q0 9 9 9t9 -9v-41q0 -9 -9 -9t-9 9zM340 249v41q0 9 9 9t9 -9v-41q0 -9 -9 -9t-9 9zM400 309v41q0 9 9 9t9 -9v-41q0 -9 -9 -9t-9 9zM400 369 v41q0 9 9 9t9 -9v-41q0 -9 -9 -9t-9 9zM400 429v41q0 9 9 9t9 -9v-41q0 -9 -9 -9t-9 9zM400 489v41q0 9 9 9t9 -9v-41q0 -9 -9 -9t-9 9zM340 309v41q0 9 9 9t9 -9v-41q0 -9 -9 -9t-9 9zM340 369v41q0 9 9 9t9 -9v-41q0 -9 -9 -9t-9 9zM340 429v41q0 9 9 9t9 -9v-41 q0 -9 -9 -9t-9 9zM340 489v41q0 9 9 9t9 -9v-41q0 -9 -9 -9t-9 9zM280 249v41q0 9 9 9t9 -9v-41q0 -9 -9 -9t-9 9zM220 249v41q0 9 9 9t9 -9v-41q0 -9 -9 -9t-9 9zM160 9v41q0 9 9 9t9 -9v-41q0 -9 -9 -9t-9 9zM160 69v41q0 9 9 9t9 -9v-41q0 -9 -9 -9t-9 9zM160 129v41 q0 9 9 9t9 -9v-41q0 -9 -9 -9t-9 9zM160 189v41q0 9 9 9t9 -9v-41q0 -9 -9 -9t-9 9zM100 9v41q0 9 9 9t9 -9v-41q0 -9 -9 -9t-9 9zM100 69v41q0 9 9 9t9 -9v-41q0 -9 -9 -9t-9 9zM100 129v41q0 9 9 9t9 -9v-41q0 -9 -9 -9t-9 9zM100 189v41q0 9 9 9t9 -9v-41q0 -9 -9 -9 t-9 9zM400 9v41q0 9 9 9t9 -9v-41q0 -9 -9 -9t-9 9zM400 69v41q0 9 9 9t9 -9v-41q0 -9 -9 -9t-9 9zM400 129v41q0 9 9 9t9 -9v-41q0 -9 -9 -9t-9 9zM400 189v41q0 9 9 9t9 -9v-41q0 -9 -9 -9t-9 9zM340 9v41q0 9 9 9t9 -9v-41q0 -9 -9 -9t-9 9zM340 69v41q0 9 9 9t9 -9v-41 q0 -9 -9 -9t-9 9zM340 129v41q0 9 9 9t9 -9v-41q0 -9 -9 -9t-9 9zM340 189v41q0 9 9 9t9 -9v-41q0 -9 -9 -9t-9 9z" />
<glyph unicode="Y" d="M160 249v41q0 9 9 9t9 -9v-41q0 -9 -9 -9t-9 9zM160 309v41q0 9 9 9t9 -9v-41q0 -9 -9 -9t-9 9zM160 369v41q0 9 9 9t9 -9v-41q0 -9 -9 -9t-9 9zM160 429v41q0 9 9 9t9 -9v-41q0 -9 -9 -9t-9 9zM160 489v41q0 9 9 9t9 -9v-41q0 -9 -9 -9t-9 9zM100 309v41q0 9 9 9t9 -9 v-41q0 -9 -9 -9t-9 9zM100 369v41q0 9 9 9t9 -9v-41q0 -9 -9 -9t-9 9zM100 429v41q0 9 9 9t9 -9v-41q0 -9 -9 -9t-9 9zM100 489v41q0 9 9 9t9 -9v-41q0 -9 -9 -9t-9 9zM340 249v41q0 9 9 9t9 -9v-41q0 -9 -9 -9t-9 9zM400 309v41q0 9 9 9t9 -9v-41q0 -9 -9 -9t-9 9zM400 369 v41q0 9 9 9t9 -9v-41q0 -9 -9 -9t-9 9zM400 429v41q0 9 9 9t9 -9v-41q0 -9 -9 -9t-9 9zM400 489v41q0 9 9 9t9 -9v-41q0 -9 -9 -9t-9 9zM340 309v41q0 9 9 9t9 -9v-41q0 -9 -9 -9t-9 9zM340 369v41q0 9 9 9t9 -9v-41q0 -9 -9 -9t-9 9zM340 429v41q0 9 9 9t9 -9v-41 q0 -9 -9 -9t-9 9zM340 489v41q0 9 9 9t9 -9v-41q0 -9 -9 -9t-9 9zM280 249v41q0 9 9 9t9 -9v-41q0 -9 -9 -9t-9 9zM220 249v41q0 9 9 9t9 -9v-41q0 -9 -9 -9t-9 9zM280 189v41q0 9 9 9t9 -9v-41q0 -9 -9 -9t-9 9zM220 189v41q0 9 9 9t9 -9v-41q0 -9 -9 -9t-9 9zM280 129v41 q0 9 9 9t9 -9v-41q0 -9 -9 -9t-9 9zM220 129v41q0 9 9 9t9 -9v-41q0 -9 -9 -9t-9 9zM280 69v41q0 9 9 9t9 -9v-41q0 -9 -9 -9t-9 9zM220 69v41q0 9 9 9t9 -9v-41q0 -9 -9 -9t-9 9zM280 9v41q0 9 9 9t9 -9v-41q0 -9 -9 -9t-9 9zM220 9v41q0 9 9 9t9 -9v-41q0 -9 -9 -9t-9 9z " />
<glyph unicode="Z" d="M358 50v-41q0 -9 -9 -9t-9 9v41q0 9 9 9t9 -9zM178 530v-41q0 -9 -9 -9t-9 9v41q0 9 9 9t9 -9zM118 170v-41q0 -9 -9 -9t-9 9v41q0 9 9 9t9 -9zM118 110v-41q0 -9 -9 -9t-9 9v41q0 9 9 9t9 -9zM118 50v-41q0 -9 -9 -9t-9 9v41q0 9 9 9t9 -9zM178 230v-41q0 -9 -9 -9t-9 9 v41q0 9 9 9t9 -9zM178 170v-41q0 -9 -9 -9t-9 9v41q0 9 9 9t9 -9zM178 110v-41q0 -9 -9 -9t-9 9v41q0 9 9 9t9 -9zM178 50v-41q0 -9 -9 -9t-9 9v41q0 9 9 9t9 -9zM118 530v-41q0 -9 -9 -9t-9 9v41q0 9 9 9t9 -9zM298 50v-41q0 -9 -9 -9t-9 9v41q0 9 9 9t9 -9zM238 50v-41 q0 -9 -9 -9t-9 9v41q0 9 9 9t9 -9zM298 350v-41q0 -9 -9 -9t-9 9v41q0 9 9 9t9 -9zM238 290v-41q0 -9 -9 -9t-9 9v41q0 9 9 9t9 -9zM298 530v-41q0 -9 -9 -9t-9 9v41q0 9 9 9t9 -9zM238 530v-41q0 -9 -9 -9t-9 9v41q0 9 9 9t9 -9zM358 530v-41q0 -9 -9 -9t-9 9v41q0 9 9 9 t9 -9zM418 530v-41q0 -9 -9 -9t-9 9v41q0 9 9 9t9 -9zM418 50v-41q0 -9 -9 -9t-9 9v41q0 9 9 9t9 -9zM298 290v-41q0 -9 -9 -9t-9 9v41q0 9 9 9t9 -9zM238 230v-41q0 -9 -9 -9t-9 9v41q0 9 9 9t9 -9zM358 410v-41q0 -9 -9 -9t-9 9v41q0 9 9 9t9 -9zM358 350v-41q0 -9 -9 -9 t-9 9v41q0 9 9 9t9 -9zM418 470v-41q0 -9 -9 -9t-9 9v41q0 9 9 9t9 -9zM418 410v-41q0 -9 -9 -9t-9 9v41q0 9 9 9t9 -9zM358 470v-41q0 -9 -9 -9t-9 9v41q0 9 9 9t9 -9z" />
<glyph unicode="[" horiz-adv-x="300" d="M160 549v41q0 9 9 9t9 -9v-41q0 -9 -9 -9t-9 9zM220 549v41q0 9 9 9t9 -9v-41q0 -9 -9 -9t-9 9zM160 369v41q0 9 9 9t9 -9v-41q0 -9 -9 -9t-9 9zM160 429v41q0 9 9 9t9 -9v-41q0 -9 -9 -9t-9 9zM160 489v41q0 9 9 9t9 -9v-41q0 -9 -9 -9t-9 9zM160 189v41q0 9 9 9t9 -9 v-41q0 -9 -9 -9t-9 9zM160 249v41q0 9 9 9t9 -9v-41q0 -9 -9 -9t-9 9zM160 309v41q0 9 9 9t9 -9v-41q0 -9 -9 -9t-9 9zM160 9v41q0 9 9 9t9 -9v-41q0 -9 -9 -9t-9 9zM160 69v41q0 9 9 9t9 -9v-41q0 -9 -9 -9t-9 9zM160 129v41q0 9 9 9t9 -9v-41q0 -9 -9 -9t-9 9zM220 -51v41 q0 9 9 9t9 -9v-41q0 -9 -9 -9t-9 9zM160 -51v41q0 9 9 9t9 -9v-41q0 -9 -9 -9t-9 9zM100 549v41q0 9 9 9t9 -9v-41q0 -9 -9 -9t-9 9zM100 369v41q0 9 9 9t9 -9v-41q0 -9 -9 -9t-9 9zM100 429v41q0 9 9 9t9 -9v-41q0 -9 -9 -9t-9 9zM100 489v41q0 9 9 9t9 -9v-41q0 -9 -9 -9 t-9 9zM100 189v41q0 9 9 9t9 -9v-41q0 -9 -9 -9t-9 9zM100 249v41q0 9 9 9t9 -9v-41q0 -9 -9 -9t-9 9zM100 309v41q0 9 9 9t9 -9v-41q0 -9 -9 -9t-9 9zM100 9v41q0 9 9 9t9 -9v-41q0 -9 -9 -9t-9 9zM100 69v41q0 9 9 9t9 -9v-41q0 -9 -9 -9t-9 9zM100 129v41q0 9 9 9t9 -9 v-41q0 -9 -9 -9t-9 9zM100 -51v41q0 9 9 9t9 -9v-41q0 -9 -9 -9t-9 9z" />
<glyph unicode="\" d="M118 650v-41q0 -9 -9 -9t-9 9v41q0 9 9 9t9 -9zM118 710v-41q0 -9 -9 -9t-9 9v41q0 9 9 9t9 -9zM178 530v-41q0 -9 -9 -9t-9 9v41q0 9 9 9t9 -9zM178 590v-41q0 -9 -9 -9t-9 9v41q0 9 9 9t9 -9zM238 410v-41q0 -9 -9 -9t-9 9v41q0 9 9 9t9 -9zM238 470v-41q0 -9 -9 -9 t-9 9v41q0 9 9 9t9 -9zM298 290v-41q0 -9 -9 -9t-9 9v41q0 9 9 9t9 -9zM298 350v-41q0 -9 -9 -9t-9 9v41q0 9 9 9t9 -9zM358 170v-41q0 -9 -9 -9t-9 9v41q0 9 9 9t9 -9zM358 230v-41q0 -9 -9 -9t-9 9v41q0 9 9 9t9 -9zM418 50v-41q0 -9 -9 -9t-9 9v41q0 9 9 9t9 -9zM418 110 v-41q0 -9 -9 -9t-9 9v41q0 9 9 9t9 -9z" />
<glyph unicode="]" horiz-adv-x="300" d="M178 590v-41q0 -9 -9 -9t-9 9v41q0 9 9 9t9 -9zM118 590v-41q0 -9 -9 -9t-9 9v41q0 9 9 9t9 -9zM178 410v-41q0 -9 -9 -9t-9 9v41q0 9 9 9t9 -9zM178 470v-41q0 -9 -9 -9t-9 9v41q0 9 9 9t9 -9zM178 530v-41q0 -9 -9 -9t-9 9v41q0 9 9 9t9 -9zM178 230v-41q0 -9 -9 -9 t-9 9v41q0 9 9 9t9 -9zM178 290v-41q0 -9 -9 -9t-9 9v41q0 9 9 9t9 -9zM178 350v-41q0 -9 -9 -9t-9 9v41q0 9 9 9t9 -9zM178 50v-41q0 -9 -9 -9t-9 9v41q0 9 9 9t9 -9zM178 110v-41q0 -9 -9 -9t-9 9v41q0 9 9 9t9 -9zM178 170v-41q0 -9 -9 -9t-9 9v41q0 9 9 9t9 -9zM118 -10 v-41q0 -9 -9 -9t-9 9v41q0 9 9 9t9 -9zM178 -10v-41q0 -9 -9 -9t-9 9v41q0 9 9 9t9 -9zM238 590v-41q0 -9 -9 -9t-9 9v41q0 9 9 9t9 -9zM238 410v-41q0 -9 -9 -9t-9 9v41q0 9 9 9t9 -9zM238 470v-41q0 -9 -9 -9t-9 9v41q0 9 9 9t9 -9zM238 530v-41q0 -9 -9 -9t-9 9v41 q0 9 9 9t9 -9zM238 230v-41q0 -9 -9 -9t-9 9v41q0 9 9 9t9 -9zM238 290v-41q0 -9 -9 -9t-9 9v41q0 9 9 9t9 -9zM238 350v-41q0 -9 -9 -9t-9 9v41q0 9 9 9t9 -9zM238 50v-41q0 -9 -9 -9t-9 9v41q0 9 9 9t9 -9zM238 110v-41q0 -9 -9 -9t-9 9v41q0 9 9 9t9 -9zM238 170v-41 q0 -9 -9 -9t-9 9v41q0 9 9 9t9 -9zM238 -10v-41q0 -9 -9 -9t-9 9v41q0 9 9 9t9 -9z" />
<glyph unicode="^" horiz-adv-x="540" d="M178 350v-41q0 -9 -9 -9t-9 9v41q0 9 9 9t9 -9zM238 410v-41q0 -9 -9 -9t-9 9v41q0 9 9 9t9 -9zM358 410v-41q0 -9 -9 -9t-9 9v41q0 9 9 9t9 -9zM418 350v-41q0 -9 -9 -9t-9 9v41q0 9 9 9t9 -9zM298 470v-41q0 -9 -9 -9t-9 9v41q0 9 9 9t9 -9z" />
<glyph unicode="_" horiz-adv-x="520" d="M178 -70v-41q0 -9 -9 -9t-9 9v41q0 9 9 9t9 -9zM118 -70v-41q0 -9 -9 -9t-9 9v41q0 9 9 9t9 -9zM298 -70v-41q0 -9 -9 -9t-9 9v41q0 9 9 9t9 -9zM238 -70v-41q0 -9 -9 -9t-9 9v41q0 9 9 9t9 -9zM358 -70v-41q0 -9 -9 -9t-9 9v41q0 9 9 9t9 -9zM418 -70v-41q0 -9 -9 -9 t-9 9v41q0 9 9 9t9 -9zM478 -70v-41q0 -9 -9 -9t-9 9v41q0 9 9 9t9 -9zM58 -70v-41q0 -9 -9 -9t-9 9v41q0 9 9 9t9 -9zM538 -70v-41q0 -9 -9 -9t-9 9v41q0 9 9 9t9 -9z" />
<glyph unicode="`" horiz-adv-x="300" d="M118 590v-41q0 -9 -9 -9t-9 9v41q0 9 9 9t9 -9zM178 530v-41q0 -9 -9 -9t-9 9v41q0 9 9 9t9 -9z" />
<glyph unicode="a" d="M358 410v-41q0 -9 -9 -9t-9 9v41q0 9 9 9t9 -9zM358 350v-41q0 -9 -9 -9t-9 9v41q0 9 9 9t9 -9zM358 290v-41q0 -9 -9 -9t-9 9v41q0 9 9 9t9 -9zM358 230v-41q0 -9 -9 -9t-9 9v41q0 9 9 9t9 -9zM358 170v-41q0 -9 -9 -9t-9 9v41q0 9 9 9t9 -9zM358 110v-41q0 -9 -9 -9 t-9 9v41q0 9 9 9t9 -9zM358 50v-41q0 -9 -9 -9t-9 9v41q0 9 9 9t9 -9zM418 350v-41q0 -9 -9 -9t-9 9v41q0 9 9 9t9 -9zM418 290v-41q0 -9 -9 -9t-9 9v41q0 9 9 9t9 -9zM418 230v-41q0 -9 -9 -9t-9 9v41q0 9 9 9t9 -9zM418 170v-41q0 -9 -9 -9t-9 9v41q0 9 9 9t9 -9zM418 110 v-41q0 -9 -9 -9t-9 9v41q0 9 9 9t9 -9zM298 50v-41q0 -9 -9 -9t-9 9v41q0 9 9 9t9 -9zM178 410v-41q0 -9 -9 -9t-9 9v41q0 9 9 9t9 -9zM118 350v-41q0 -9 -9 -9t-9 9v41q0 9 9 9t9 -9zM118 230v-41q0 -9 -9 -9t-9 9v41q0 9 9 9t9 -9zM118 170v-41q0 -9 -9 -9t-9 9v41 q0 9 9 9t9 -9zM118 110v-41q0 -9 -9 -9t-9 9v41q0 9 9 9t9 -9zM238 50v-41q0 -9 -9 -9t-9 9v41q0 9 9 9t9 -9zM238 290v-41q0 -9 -9 -9t-9 9v41q0 9 9 9t9 -9zM178 230v-41q0 -9 -9 -9t-9 9v41q0 9 9 9t9 -9zM178 170v-41q0 -9 -9 -9t-9 9v41q0 9 9 9t9 -9zM178 110v-41 q0 -9 -9 -9t-9 9v41q0 9 9 9t9 -9zM178 50v-41q0 -9 -9 -9t-9 9v41q0 9 9 9t9 -9zM238 410v-41q0 -9 -9 -9t-9 9v41q0 9 9 9t9 -9zM298 410v-41q0 -9 -9 -9t-9 9v41q0 9 9 9t9 -9zM298 290v-41q0 -9 -9 -9t-9 9v41q0 9 9 9t9 -9zM418 50v-41q0 -9 -9 -9t-9 9v41q0 9 9 9 t9 -9zM178 290v-41q0 -9 -9 -9t-9 9v41q0 9 9 9t9 -9z" />
<glyph unicode="b" d="M160 9v41q0 9 9 9t9 -9v-41q0 -9 -9 -9t-9 9zM160 69v41q0 9 9 9t9 -9v-41q0 -9 -9 -9t-9 9zM160 129v41q0 9 9 9t9 -9v-41q0 -9 -9 -9t-9 9zM160 189v41q0 9 9 9t9 -9v-41q0 -9 -9 -9t-9 9zM160 249v41q0 9 9 9t9 -9v-41q0 -9 -9 -9t-9 9zM160 309v41q0 9 9 9t9 -9v-41 q0 -9 -9 -9t-9 9zM160 369v41q0 9 9 9t9 -9v-41q0 -9 -9 -9t-9 9zM100 69v41q0 9 9 9t9 -9v-41q0 -9 -9 -9t-9 9zM100 129v41q0 9 9 9t9 -9v-41q0 -9 -9 -9t-9 9zM100 189v41q0 9 9 9t9 -9v-41q0 -9 -9 -9t-9 9zM100 249v41q0 9 9 9t9 -9v-41q0 -9 -9 -9t-9 9zM100 309v41 q0 9 9 9t9 -9v-41q0 -9 -9 -9t-9 9zM220 369v41q0 9 9 9t9 -9v-41q0 -9 -9 -9t-9 9zM340 9v41q0 9 9 9t9 -9v-41q0 -9 -9 -9t-9 9zM400 69v41q0 9 9 9t9 -9v-41q0 -9 -9 -9t-9 9zM400 129v41q0 9 9 9t9 -9v-41q0 -9 -9 -9t-9 9zM400 189v41q0 9 9 9t9 -9v-41q0 -9 -9 -9 t-9 9zM400 249v41q0 9 9 9t9 -9v-41q0 -9 -9 -9t-9 9zM400 309v41q0 9 9 9t9 -9v-41q0 -9 -9 -9t-9 9zM280 369v41q0 9 9 9t9 -9v-41q0 -9 -9 -9t-9 9zM340 69v41q0 9 9 9t9 -9v-41q0 -9 -9 -9t-9 9zM340 129v41q0 9 9 9t9 -9v-41q0 -9 -9 -9t-9 9zM340 189v41q0 9 9 9t9 -9 v-41q0 -9 -9 -9t-9 9zM340 249v41q0 9 9 9t9 -9v-41q0 -9 -9 -9t-9 9zM340 309v41q0 9 9 9t9 -9v-41q0 -9 -9 -9t-9 9zM340 369v41q0 9 9 9t9 -9v-41q0 -9 -9 -9t-9 9zM280 9v41q0 9 9 9t9 -9v-41q0 -9 -9 -9t-9 9zM220 9v41q0 9 9 9t9 -9v-41q0 -9 -9 -9t-9 9zM100 369v41 q0 9 9 9t9 -9v-41q0 -9 -9 -9t-9 9zM100 429v41q0 9 9 9t9 -9v-41q0 -9 -9 -9t-9 9zM100 489v41q0 9 9 9t9 -9v-41q0 -9 -9 -9t-9 9zM160 489v41q0 9 9 9t9 -9v-41q0 -9 -9 -9t-9 9zM160 429v41q0 9 9 9t9 -9v-41q0 -9 -9 -9t-9 9zM100 9v41q0 9 9 9t9 -9v-41q0 -9 -9 -9 t-9 9z" />
<glyph unicode="c" horiz-adv-x="420" d="M160 9v41q0 9 9 9t9 -9v-41q0 -9 -9 -9t-9 9zM160 69v41q0 9 9 9t9 -9v-41q0 -9 -9 -9t-9 9zM160 129v41q0 9 9 9t9 -9v-41q0 -9 -9 -9t-9 9zM160 189v41q0 9 9 9t9 -9v-41q0 -9 -9 -9t-9 9zM160 249v41q0 9 9 9t9 -9v-41q0 -9 -9 -9t-9 9zM160 309v41q0 9 9 9t9 -9v-41 q0 -9 -9 -9t-9 9zM160 369v41q0 9 9 9t9 -9v-41q0 -9 -9 -9t-9 9zM100 69v41q0 9 9 9t9 -9v-41q0 -9 -9 -9t-9 9zM100 129v41q0 9 9 9t9 -9v-41q0 -9 -9 -9t-9 9zM100 189v41q0 9 9 9t9 -9v-41q0 -9 -9 -9t-9 9zM100 249v41q0 9 9 9t9 -9v-41q0 -9 -9 -9t-9 9zM100 309v41 q0 9 9 9t9 -9v-41q0 -9 -9 -9t-9 9zM220 369v41q0 9 9 9t9 -9v-41q0 -9 -9 -9t-9 9zM280 369v41q0 9 9 9t9 -9v-41q0 -9 -9 -9t-9 9zM340 69v41q0 9 9 9t9 -9v-41q0 -9 -9 -9t-9 9zM340 309v41q0 9 9 9t9 -9v-41q0 -9 -9 -9t-9 9zM280 9v41q0 9 9 9t9 -9v-41q0 -9 -9 -9 t-9 9zM220 9v41q0 9 9 9t9 -9v-41q0 -9 -9 -9t-9 9z" />
<glyph unicode="d" d="M358 50v-41q0 -9 -9 -9t-9 9v41q0 9 9 9t9 -9zM358 110v-41q0 -9 -9 -9t-9 9v41q0 9 9 9t9 -9zM358 170v-41q0 -9 -9 -9t-9 9v41q0 9 9 9t9 -9zM358 230v-41q0 -9 -9 -9t-9 9v41q0 9 9 9t9 -9zM358 290v-41q0 -9 -9 -9t-9 9v41q0 9 9 9t9 -9zM358 350v-41q0 -9 -9 -9 t-9 9v41q0 9 9 9t9 -9zM358 410v-41q0 -9 -9 -9t-9 9v41q0 9 9 9t9 -9zM418 110v-41q0 -9 -9 -9t-9 9v41q0 9 9 9t9 -9zM418 170v-41q0 -9 -9 -9t-9 9v41q0 9 9 9t9 -9zM418 230v-41q0 -9 -9 -9t-9 9v41q0 9 9 9t9 -9zM418 290v-41q0 -9 -9 -9t-9 9v41q0 9 9 9t9 -9z M418 350v-41q0 -9 -9 -9t-9 9v41q0 9 9 9t9 -9zM298 410v-41q0 -9 -9 -9t-9 9v41q0 9 9 9t9 -9zM178 50v-41q0 -9 -9 -9t-9 9v41q0 9 9 9t9 -9zM118 110v-41q0 -9 -9 -9t-9 9v41q0 9 9 9t9 -9zM118 170v-41q0 -9 -9 -9t-9 9v41q0 9 9 9t9 -9zM118 230v-41q0 -9 -9 -9t-9 9 v41q0 9 9 9t9 -9zM118 290v-41q0 -9 -9 -9t-9 9v41q0 9 9 9t9 -9zM118 350v-41q0 -9 -9 -9t-9 9v41q0 9 9 9t9 -9zM238 410v-41q0 -9 -9 -9t-9 9v41q0 9 9 9t9 -9zM178 110v-41q0 -9 -9 -9t-9 9v41q0 9 9 9t9 -9zM178 170v-41q0 -9 -9 -9t-9 9v41q0 9 9 9t9 -9zM178 230v-41 q0 -9 -9 -9t-9 9v41q0 9 9 9t9 -9zM178 290v-41q0 -9 -9 -9t-9 9v41q0 9 9 9t9 -9zM178 350v-41q0 -9 -9 -9t-9 9v41q0 9 9 9t9 -9zM178 410v-41q0 -9 -9 -9t-9 9v41q0 9 9 9t9 -9zM238 50v-41q0 -9 -9 -9t-9 9v41q0 9 9 9t9 -9zM298 50v-41q0 -9 -9 -9t-9 9v41q0 9 9 9 t9 -9zM418 410v-41q0 -9 -9 -9t-9 9v41q0 9 9 9t9 -9zM418 470v-41q0 -9 -9 -9t-9 9v41q0 9 9 9t9 -9zM418 530v-41q0 -9 -9 -9t-9 9v41q0 9 9 9t9 -9zM358 530v-41q0 -9 -9 -9t-9 9v41q0 9 9 9t9 -9zM358 470v-41q0 -9 -9 -9t-9 9v41q0 9 9 9t9 -9zM418 50v-41q0 -9 -9 -9 t-9 9v41q0 9 9 9t9 -9z" />
<glyph unicode="e" d="M160 9v41q0 9 9 9t9 -9v-41q0 -9 -9 -9t-9 9zM160 69v41q0 9 9 9t9 -9v-41q0 -9 -9 -9t-9 9zM160 129v41q0 9 9 9t9 -9v-41q0 -9 -9 -9t-9 9zM160 189v41q0 9 9 9t9 -9v-41q0 -9 -9 -9t-9 9zM160 249v41q0 9 9 9t9 -9v-41q0 -9 -9 -9t-9 9zM160 309v41q0 9 9 9t9 -9v-41 q0 -9 -9 -9t-9 9zM160 369v41q0 9 9 9t9 -9v-41q0 -9 -9 -9t-9 9zM100 69v41q0 9 9 9t9 -9v-41q0 -9 -9 -9t-9 9zM100 129v41q0 9 9 9t9 -9v-41q0 -9 -9 -9t-9 9zM100 189v41q0 9 9 9t9 -9v-41q0 -9 -9 -9t-9 9zM100 249v41q0 9 9 9t9 -9v-41q0 -9 -9 -9t-9 9zM100 309v41 q0 9 9 9t9 -9v-41q0 -9 -9 -9t-9 9zM220 369v41q0 9 9 9t9 -9v-41q0 -9 -9 -9t-9 9zM340 9v41q0 9 9 9t9 -9v-41q0 -9 -9 -9t-9 9zM400 69v41q0 9 9 9t9 -9v-41q0 -9 -9 -9t-9 9zM400 189v41q0 9 9 9t9 -9v-41q0 -9 -9 -9t-9 9zM400 249v41q0 9 9 9t9 -9v-41q0 -9 -9 -9 t-9 9zM400 309v41q0 9 9 9t9 -9v-41q0 -9 -9 -9t-9 9zM280 369v41q0 9 9 9t9 -9v-41q0 -9 -9 -9t-9 9zM280 189v41q0 9 9 9t9 -9v-41q0 -9 -9 -9t-9 9zM340 189v41q0 9 9 9t9 -9v-41q0 -9 -9 -9t-9 9zM340 249v41q0 9 9 9t9 -9v-41q0 -9 -9 -9t-9 9zM340 309v41q0 9 9 9 t9 -9v-41q0 -9 -9 -9t-9 9zM340 369v41q0 9 9 9t9 -9v-41q0 -9 -9 -9t-9 9zM280 9v41q0 9 9 9t9 -9v-41q0 -9 -9 -9t-9 9zM220 9v41q0 9 9 9t9 -9v-41q0 -9 -9 -9t-9 9zM220 189v41q0 9 9 9t9 -9v-41q0 -9 -9 -9t-9 9z" />
<glyph unicode="f" horiz-adv-x="300" d="M178 530v-41q0 -9 -9 -9t-9 9v41q0 9 9 9t9 -9zM118 470v-41q0 -9 -9 -9t-9 9v41q0 9 9 9t9 -9zM118 410v-41q0 -9 -9 -9t-9 9v41q0 9 9 9t9 -9zM118 350v-41q0 -9 -9 -9t-9 9v41q0 9 9 9t9 -9zM118 290v-41q0 -9 -9 -9t-9 9v41q0 9 9 9t9 -9zM118 230v-41q0 -9 -9 -9 t-9 9v41q0 9 9 9t9 -9zM118 170v-41q0 -9 -9 -9t-9 9v41q0 9 9 9t9 -9zM118 110v-41q0 -9 -9 -9t-9 9v41q0 9 9 9t9 -9zM118 50v-41q0 -9 -9 -9t-9 9v41q0 9 9 9t9 -9zM178 470v-41q0 -9 -9 -9t-9 9v41q0 9 9 9t9 -9zM178 410v-41q0 -9 -9 -9t-9 9v41q0 9 9 9t9 -9zM178 350 v-41q0 -9 -9 -9t-9 9v41q0 9 9 9t9 -9zM178 290v-41q0 -9 -9 -9t-9 9v41q0 9 9 9t9 -9zM178 230v-41q0 -9 -9 -9t-9 9v41q0 9 9 9t9 -9zM178 170v-41q0 -9 -9 -9t-9 9v41q0 9 9 9t9 -9zM178 110v-41q0 -9 -9 -9t-9 9v41q0 9 9 9t9 -9zM178 50v-41q0 -9 -9 -9t-9 9v41 q0 9 9 9t9 -9zM58 410v-41q0 -9 -9 -9t-9 9v41q0 9 9 9t9 -9zM238 410v-41q0 -9 -9 -9t-9 9v41q0 9 9 9t9 -9zM238 530v-41q0 -9 -9 -9t-9 9v41q0 9 9 9t9 -9zM298 530v-41q0 -9 -9 -9t-9 9v41q0 9 9 9t9 -9z" />
<glyph unicode="g" d="M358 410v-41q0 -9 -9 -9t-9 9v41q0 9 9 9t9 -9zM358 350v-41q0 -9 -9 -9t-9 9v41q0 9 9 9t9 -9zM358 290v-41q0 -9 -9 -9t-9 9v41q0 9 9 9t9 -9zM358 230v-41q0 -9 -9 -9t-9 9v41q0 9 9 9t9 -9zM358 170v-41q0 -9 -9 -9t-9 9v41q0 9 9 9t9 -9zM358 110v-41q0 -9 -9 -9 t-9 9v41q0 9 9 9t9 -9zM358 50v-41q0 -9 -9 -9t-9 9v41q0 9 9 9t9 -9zM418 350v-41q0 -9 -9 -9t-9 9v41q0 9 9 9t9 -9zM418 290v-41q0 -9 -9 -9t-9 9v41q0 9 9 9t9 -9zM418 230v-41q0 -9 -9 -9t-9 9v41q0 9 9 9t9 -9zM418 170v-41q0 -9 -9 -9t-9 9v41q0 9 9 9t9 -9zM418 110 v-41q0 -9 -9 -9t-9 9v41q0 9 9 9t9 -9zM298 50v-41q0 -9 -9 -9t-9 9v41q0 9 9 9t9 -9zM178 410v-41q0 -9 -9 -9t-9 9v41q0 9 9 9t9 -9zM118 350v-41q0 -9 -9 -9t-9 9v41q0 9 9 9t9 -9zM118 290v-41q0 -9 -9 -9t-9 9v41q0 9 9 9t9 -9zM118 230v-41q0 -9 -9 -9t-9 9v41 q0 9 9 9t9 -9zM118 170v-41q0 -9 -9 -9t-9 9v41q0 9 9 9t9 -9zM118 110v-41q0 -9 -9 -9t-9 9v41q0 9 9 9t9 -9zM238 50v-41q0 -9 -9 -9t-9 9v41q0 9 9 9t9 -9zM178 350v-41q0 -9 -9 -9t-9 9v41q0 9 9 9t9 -9zM178 290v-41q0 -9 -9 -9t-9 9v41q0 9 9 9t9 -9zM178 230v-41 q0 -9 -9 -9t-9 9v41q0 9 9 9t9 -9zM178 170v-41q0 -9 -9 -9t-9 9v41q0 9 9 9t9 -9zM178 110v-41q0 -9 -9 -9t-9 9v41q0 9 9 9t9 -9zM178 50v-41q0 -9 -9 -9t-9 9v41q0 9 9 9t9 -9zM238 410v-41q0 -9 -9 -9t-9 9v41q0 9 9 9t9 -9zM298 410v-41q0 -9 -9 -9t-9 9v41q0 9 9 9 t9 -9zM418 50v-41q0 -9 -9 -9t-9 9v41q0 9 9 9t9 -9zM418 -10v-41q0 -9 -9 -9t-9 9v41q0 9 9 9t9 -9zM418 -70v-41q0 -9 -9 -9t-9 9v41q0 9 9 9t9 -9zM358 -70v-41q0 -9 -9 -9t-9 9v41q0 9 9 9t9 -9zM358 -10v-41q0 -9 -9 -9t-9 9v41q0 9 9 9t9 -9zM418 410v-41q0 -9 -9 -9 t-9 9v41q0 9 9 9t9 -9zM358 -130v-41q0 -9 -9 -9t-9 9v41q0 9 9 9t9 -9zM298 -130v-41q0 -9 -9 -9t-9 9v41q0 9 9 9t9 -9zM238 -130v-41q0 -9 -9 -9t-9 9v41q0 9 9 9t9 -9zM178 -130v-41q0 -9 -9 -9t-9 9v41q0 9 9 9t9 -9zM118 -70v-41q0 -9 -9 -9t-9 9v41q0 9 9 9t9 -9z " />
<glyph unicode="h" d="M160 9v41q0 9 9 9t9 -9v-41q0 -9 -9 -9t-9 9zM160 69v41q0 9 9 9t9 -9v-41q0 -9 -9 -9t-9 9zM160 129v41q0 9 9 9t9 -9v-41q0 -9 -9 -9t-9 9zM160 189v41q0 9 9 9t9 -9v-41q0 -9 -9 -9t-9 9zM160 249v41q0 9 9 9t9 -9v-41q0 -9 -9 -9t-9 9zM160 309v41q0 9 9 9t9 -9v-41 q0 -9 -9 -9t-9 9zM160 369v41q0 9 9 9t9 -9v-41q0 -9 -9 -9t-9 9zM100 69v41q0 9 9 9t9 -9v-41q0 -9 -9 -9t-9 9zM100 129v41q0 9 9 9t9 -9v-41q0 -9 -9 -9t-9 9zM100 189v41q0 9 9 9t9 -9v-41q0 -9 -9 -9t-9 9zM100 249v41q0 9 9 9t9 -9v-41q0 -9 -9 -9t-9 9zM100 309v41 q0 9 9 9t9 -9v-41q0 -9 -9 -9t-9 9zM220 369v41q0 9 9 9t9 -9v-41q0 -9 -9 -9t-9 9zM340 9v41q0 9 9 9t9 -9v-41q0 -9 -9 -9t-9 9zM400 69v41q0 9 9 9t9 -9v-41q0 -9 -9 -9t-9 9zM400 129v41q0 9 9 9t9 -9v-41q0 -9 -9 -9t-9 9zM400 189v41q0 9 9 9t9 -9v-41q0 -9 -9 -9 t-9 9zM400 249v41q0 9 9 9t9 -9v-41q0 -9 -9 -9t-9 9zM400 309v41q0 9 9 9t9 -9v-41q0 -9 -9 -9t-9 9zM280 369v41q0 9 9 9t9 -9v-41q0 -9 -9 -9t-9 9zM340 69v41q0 9 9 9t9 -9v-41q0 -9 -9 -9t-9 9zM340 129v41q0 9 9 9t9 -9v-41q0 -9 -9 -9t-9 9zM340 189v41q0 9 9 9t9 -9 v-41q0 -9 -9 -9t-9 9zM340 249v41q0 9 9 9t9 -9v-41q0 -9 -9 -9t-9 9zM340 309v41q0 9 9 9t9 -9v-41q0 -9 -9 -9t-9 9zM340 369v41q0 9 9 9t9 -9v-41q0 -9 -9 -9t-9 9zM400 9v41q0 9 9 9t9 -9v-41q0 -9 -9 -9t-9 9zM100 9v41q0 9 9 9t9 -9v-41q0 -9 -9 -9t-9 9zM100 369v41 q0 9 9 9t9 -9v-41q0 -9 -9 -9t-9 9zM160 429v41q0 9 9 9t9 -9v-41q0 -9 -9 -9t-9 9zM100 429v41q0 9 9 9t9 -9v-41q0 -9 -9 -9t-9 9zM160 489v41q0 9 9 9t9 -9v-41q0 -9 -9 -9t-9 9zM100 489v41q0 9 9 9t9 -9v-41q0 -9 -9 -9t-9 9z" />
<glyph unicode="i" horiz-adv-x="240" d="M178 530v-41q0 -9 -9 -9t-9 9v41q0 9 9 9t9 -9zM118 410v-41q0 -9 -9 -9t-9 9v41q0 9 9 9t9 -9zM118 350v-41q0 -9 -9 -9t-9 9v41q0 9 9 9t9 -9zM118 290v-41q0 -9 -9 -9t-9 9v41q0 9 9 9t9 -9zM118 230v-41q0 -9 -9 -9t-9 9v41q0 9 9 9t9 -9zM118 170v-41q0 -9 -9 -9 t-9 9v41q0 9 9 9t9 -9zM118 110v-41q0 -9 -9 -9t-9 9v41q0 9 9 9t9 -9zM118 50v-41q0 -9 -9 -9t-9 9v41q0 9 9 9t9 -9zM178 410v-41q0 -9 -9 -9t-9 9v41q0 9 9 9t9 -9zM178 350v-41q0 -9 -9 -9t-9 9v41q0 9 9 9t9 -9zM178 290v-41q0 -9 -9 -9t-9 9v41q0 9 9 9t9 -9zM178 230 v-41q0 -9 -9 -9t-9 9v41q0 9 9 9t9 -9zM178 170v-41q0 -9 -9 -9t-9 9v41q0 9 9 9t9 -9zM178 110v-41q0 -9 -9 -9t-9 9v41q0 9 9 9t9 -9zM178 50v-41q0 -9 -9 -9t-9 9v41q0 9 9 9t9 -9zM118 530v-41q0 -9 -9 -9t-9 9v41q0 9 9 9t9 -9z" />
<glyph unicode="j" horiz-adv-x="240" d="M118 530v-41q0 -9 -9 -9t-9 9v41q0 9 9 9t9 -9zM118 350v-41q0 -9 -9 -9t-9 9v41q0 9 9 9t9 -9zM118 290v-41q0 -9 -9 -9t-9 9v41q0 9 9 9t9 -9zM118 230v-41q0 -9 -9 -9t-9 9v41q0 9 9 9t9 -9zM118 170v-41q0 -9 -9 -9t-9 9v41q0 9 9 9t9 -9zM118 110v-41q0 -9 -9 -9 t-9 9v41q0 9 9 9t9 -9zM118 50v-41q0 -9 -9 -9t-9 9v41q0 9 9 9t9 -9zM178 350v-41q0 -9 -9 -9t-9 9v41q0 9 9 9t9 -9zM178 290v-41q0 -9 -9 -9t-9 9v41q0 9 9 9t9 -9zM178 230v-41q0 -9 -9 -9t-9 9v41q0 9 9 9t9 -9zM178 170v-41q0 -9 -9 -9t-9 9v41q0 9 9 9t9 -9zM178 110 v-41q0 -9 -9 -9t-9 9v41q0 9 9 9t9 -9zM178 50v-41q0 -9 -9 -9t-9 9v41q0 9 9 9t9 -9zM178 -10v-41q0 -9 -9 -9t-9 9v41q0 9 9 9t9 -9zM178 -70v-41q0 -9 -9 -9t-9 9v41q0 9 9 9t9 -9zM118 -70v-41q0 -9 -9 -9t-9 9v41q0 9 9 9t9 -9zM118 -10v-41q0 -9 -9 -9t-9 9v41 q0 9 9 9t9 -9zM178 530v-41q0 -9 -9 -9t-9 9v41q0 9 9 9t9 -9zM118 -130v-41q0 -9 -9 -9t-9 9v41q0 9 9 9t9 -9zM58 -130v-41q0 -9 -9 -9t-9 9v41q0 9 9 9t9 -9zM-2 -130v-41q0 -9 -9 -9t-9 9v41q0 9 9 9t9 -9zM-62 -70v-41q0 -9 -9 -9t-9 9v41q0 9 9 9t9 -9zM118 410v-41 q0 -9 -9 -9t-9 9v41q0 9 9 9t9 -9zM178 410v-41q0 -9 -9 -9t-9 9v41q0 9 9 9t9 -9z" />
<glyph unicode="k" d="M238 170v-41q0 -9 -9 -9t-9 9v41q0 9 9 9t9 -9zM118 170v-41q0 -9 -9 -9t-9 9v41q0 9 9 9t9 -9zM118 110v-41q0 -9 -9 -9t-9 9v41q0 9 9 9t9 -9zM118 50v-41q0 -9 -9 -9t-9 9v41q0 9 9 9t9 -9zM178 230v-41q0 -9 -9 -9t-9 9v41q0 9 9 9t9 -9zM178 170v-41q0 -9 -9 -9 t-9 9v41q0 9 9 9t9 -9zM178 110v-41q0 -9 -9 -9t-9 9v41q0 9 9 9t9 -9zM178 50v-41q0 -9 -9 -9t-9 9v41q0 9 9 9t9 -9zM118 230v-41q0 -9 -9 -9t-9 9v41q0 9 9 9t9 -9zM298 350v-41q0 -9 -9 -9t-9 9v41q0 9 9 9t9 -9zM238 290v-41q0 -9 -9 -9t-9 9v41q0 9 9 9t9 -9zM178 470 v-41q0 -9 -9 -9t-9 9v41q0 9 9 9t9 -9zM118 470v-41q0 -9 -9 -9t-9 9v41q0 9 9 9t9 -9zM358 110v-41q0 -9 -9 -9t-9 9v41q0 9 9 9t9 -9zM298 170v-41q0 -9 -9 -9t-9 9v41q0 9 9 9t9 -9zM298 290v-41q0 -9 -9 -9t-9 9v41q0 9 9 9t9 -9zM238 230v-41q0 -9 -9 -9t-9 9v41 q0 9 9 9t9 -9zM358 410v-41q0 -9 -9 -9t-9 9v41q0 9 9 9t9 -9zM358 350v-41q0 -9 -9 -9t-9 9v41q0 9 9 9t9 -9zM118 530v-41q0 -9 -9 -9t-9 9v41q0 9 9 9t9 -9zM418 410v-41q0 -9 -9 -9t-9 9v41q0 9 9 9t9 -9zM178 530v-41q0 -9 -9 -9t-9 9v41q0 9 9 9t9 -9zM178 410v-41 q0 -9 -9 -9t-9 9v41q0 9 9 9t9 -9zM118 410v-41q0 -9 -9 -9t-9 9v41q0 9 9 9t9 -9zM178 350v-41q0 -9 -9 -9t-9 9v41q0 9 9 9t9 -9zM118 350v-41q0 -9 -9 -9t-9 9v41q0 9 9 9t9 -9zM178 290v-41q0 -9 -9 -9t-9 9v41q0 9 9 9t9 -9zM118 290v-41q0 -9 -9 -9t-9 9v41q0 9 9 9 t9 -9zM358 50v-41q0 -9 -9 -9t-9 9v41q0 9 9 9t9 -9zM298 110v-41q0 -9 -9 -9t-9 9v41q0 9 9 9t9 -9zM418 50v-41q0 -9 -9 -9t-9 9v41q0 9 9 9t9 -9z" />
<glyph unicode="l" horiz-adv-x="240" d="M178 530v-41q0 -9 -9 -9t-9 9v41q0 9 9 9t9 -9zM118 470v-41q0 -9 -9 -9t-9 9v41q0 9 9 9t9 -9zM118 410v-41q0 -9 -9 -9t-9 9v41q0 9 9 9t9 -9zM118 350v-41q0 -9 -9 -9t-9 9v41q0 9 9 9t9 -9zM118 290v-41q0 -9 -9 -9t-9 9v41q0 9 9 9t9 -9zM118 230v-41q0 -9 -9 -9 t-9 9v41q0 9 9 9t9 -9zM118 170v-41q0 -9 -9 -9t-9 9v41q0 9 9 9t9 -9zM118 110v-41q0 -9 -9 -9t-9 9v41q0 9 9 9t9 -9zM118 50v-41q0 -9 -9 -9t-9 9v41q0 9 9 9t9 -9zM178 470v-41q0 -9 -9 -9t-9 9v41q0 9 9 9t9 -9zM178 410v-41q0 -9 -9 -9t-9 9v41q0 9 9 9t9 -9zM178 350 v-41q0 -9 -9 -9t-9 9v41q0 9 9 9t9 -9zM178 290v-41q0 -9 -9 -9t-9 9v41q0 9 9 9t9 -9zM178 230v-41q0 -9 -9 -9t-9 9v41q0 9 9 9t9 -9zM178 170v-41q0 -9 -9 -9t-9 9v41q0 9 9 9t9 -9zM178 110v-41q0 -9 -9 -9t-9 9v41q0 9 9 9t9 -9zM178 50v-41q0 -9 -9 -9t-9 9v41 q0 9 9 9t9 -9zM118 530v-41q0 -9 -9 -9t-9 9v41q0 9 9 9t9 -9z" />
<glyph unicode="m" horiz-adv-x="720" d="M160 9v41q0 9 9 9t9 -9v-41q0 -9 -9 -9t-9 9zM160 69v41q0 9 9 9t9 -9v-41q0 -9 -9 -9t-9 9zM160 129v41q0 9 9 9t9 -9v-41q0 -9 -9 -9t-9 9zM160 189v41q0 9 9 9t9 -9v-41q0 -9 -9 -9t-9 9zM160 249v41q0 9 9 9t9 -9v-41q0 -9 -9 -9t-9 9zM160 309v41q0 9 9 9t9 -9v-41 q0 -9 -9 -9t-9 9zM160 369v41q0 9 9 9t9 -9v-41q0 -9 -9 -9t-9 9zM100 69v41q0 9 9 9t9 -9v-41q0 -9 -9 -9t-9 9zM100 129v41q0 9 9 9t9 -9v-41q0 -9 -9 -9t-9 9zM100 189v41q0 9 9 9t9 -9v-41q0 -9 -9 -9t-9 9zM100 249v41q0 9 9 9t9 -9v-41q0 -9 -9 -9t-9 9zM100 309v41 q0 9 9 9t9 -9v-41q0 -9 -9 -9t-9 9zM220 369v41q0 9 9 9t9 -9v-41q0 -9 -9 -9t-9 9zM280 369v41q0 9 9 9t9 -9v-41q0 -9 -9 -9t-9 9zM100 9v41q0 9 9 9t9 -9v-41q0 -9 -9 -9t-9 9zM100 369v41q0 9 9 9t9 -9v-41q0 -9 -9 -9t-9 9zM400 9v41q0 9 9 9t9 -9v-41q0 -9 -9 -9t-9 9 zM400 69v41q0 9 9 9t9 -9v-41q0 -9 -9 -9t-9 9zM400 129v41q0 9 9 9t9 -9v-41q0 -9 -9 -9t-9 9zM400 189v41q0 9 9 9t9 -9v-41q0 -9 -9 -9t-9 9zM400 249v41q0 9 9 9t9 -9v-41q0 -9 -9 -9t-9 9zM400 309v41q0 9 9 9t9 -9v-41q0 -9 -9 -9t-9 9zM400 369v41q0 9 9 9t9 -9v-41 q0 -9 -9 -9t-9 9zM340 69v41q0 9 9 9t9 -9v-41q0 -9 -9 -9t-9 9zM340 129v41q0 9 9 9t9 -9v-41q0 -9 -9 -9t-9 9zM340 189v41q0 9 9 9t9 -9v-41q0 -9 -9 -9t-9 9zM340 249v41q0 9 9 9t9 -9v-41q0 -9 -9 -9t-9 9zM340 309v41q0 9 9 9t9 -9v-41q0 -9 -9 -9t-9 9zM460 369v41 q0 9 9 9t9 -9v-41q0 -9 -9 -9t-9 9zM580 9v41q0 9 9 9t9 -9v-41q0 -9 -9 -9t-9 9zM640 69v41q0 9 9 9t9 -9v-41q0 -9 -9 -9t-9 9zM640 129v41q0 9 9 9t9 -9v-41q0 -9 -9 -9t-9 9zM640 189v41q0 9 9 9t9 -9v-41q0 -9 -9 -9t-9 9zM640 249v41q0 9 9 9t9 -9v-41q0 -9 -9 -9 t-9 9zM640 309v41q0 9 9 9t9 -9v-41q0 -9 -9 -9t-9 9zM520 369v41q0 9 9 9t9 -9v-41q0 -9 -9 -9t-9 9zM580 69v41q0 9 9 9t9 -9v-41q0 -9 -9 -9t-9 9zM580 129v41q0 9 9 9t9 -9v-41q0 -9 -9 -9t-9 9zM580 189v41q0 9 9 9t9 -9v-41q0 -9 -9 -9t-9 9zM580 249v41q0 9 9 9t9 -9 v-41q0 -9 -9 -9t-9 9zM580 309v41q0 9 9 9t9 -9v-41q0 -9 -9 -9t-9 9zM580 369v41q0 9 9 9t9 -9v-41q0 -9 -9 -9t-9 9zM640 9v41q0 9 9 9t9 -9v-41q0 -9 -9 -9t-9 9zM340 9v41q0 9 9 9t9 -9v-41q0 -9 -9 -9t-9 9zM340 369v41q0 9 9 9t9 -9v-41q0 -9 -9 -9t-9 9z" />
<glyph unicode="n" d="M160 9v41q0 9 9 9t9 -9v-41q0 -9 -9 -9t-9 9zM160 69v41q0 9 9 9t9 -9v-41q0 -9 -9 -9t-9 9zM160 129v41q0 9 9 9t9 -9v-41q0 -9 -9 -9t-9 9zM160 189v41q0 9 9 9t9 -9v-41q0 -9 -9 -9t-9 9zM160 249v41q0 9 9 9t9 -9v-41q0 -9 -9 -9t-9 9zM160 309v41q0 9 9 9t9 -9v-41 q0 -9 -9 -9t-9 9zM160 369v41q0 9 9 9t9 -9v-41q0 -9 -9 -9t-9 9zM100 69v41q0 9 9 9t9 -9v-41q0 -9 -9 -9t-9 9zM100 129v41q0 9 9 9t9 -9v-41q0 -9 -9 -9t-9 9zM100 189v41q0 9 9 9t9 -9v-41q0 -9 -9 -9t-9 9zM100 249v41q0 9 9 9t9 -9v-41q0 -9 -9 -9t-9 9zM100 309v41 q0 9 9 9t9 -9v-41q0 -9 -9 -9t-9 9zM220 369v41q0 9 9 9t9 -9v-41q0 -9 -9 -9t-9 9zM340 9v41q0 9 9 9t9 -9v-41q0 -9 -9 -9t-9 9zM400 69v41q0 9 9 9t9 -9v-41q0 -9 -9 -9t-9 9zM400 129v41q0 9 9 9t9 -9v-41q0 -9 -9 -9t-9 9zM400 189v41q0 9 9 9t9 -9v-41q0 -9 -9 -9 t-9 9zM400 249v41q0 9 9 9t9 -9v-41q0 -9 -9 -9t-9 9zM400 309v41q0 9 9 9t9 -9v-41q0 -9 -9 -9t-9 9zM280 369v41q0 9 9 9t9 -9v-41q0 -9 -9 -9t-9 9zM340 69v41q0 9 9 9t9 -9v-41q0 -9 -9 -9t-9 9zM340 129v41q0 9 9 9t9 -9v-41q0 -9 -9 -9t-9 9zM340 189v41q0 9 9 9t9 -9 v-41q0 -9 -9 -9t-9 9zM340 249v41q0 9 9 9t9 -9v-41q0 -9 -9 -9t-9 9zM340 309v41q0 9 9 9t9 -9v-41q0 -9 -9 -9t-9 9zM340 369v41q0 9 9 9t9 -9v-41q0 -9 -9 -9t-9 9zM400 9v41q0 9 9 9t9 -9v-41q0 -9 -9 -9t-9 9zM100 9v41q0 9 9 9t9 -9v-41q0 -9 -9 -9t-9 9zM100 369v41 q0 9 9 9t9 -9v-41q0 -9 -9 -9t-9 9z" />
<glyph unicode="o" d="M160 9v41q0 9 9 9t9 -9v-41q0 -9 -9 -9t-9 9zM160 69v41q0 9 9 9t9 -9v-41q0 -9 -9 -9t-9 9zM160 129v41q0 9 9 9t9 -9v-41q0 -9 -9 -9t-9 9zM160 189v41q0 9 9 9t9 -9v-41q0 -9 -9 -9t-9 9zM160 249v41q0 9 9 9t9 -9v-41q0 -9 -9 -9t-9 9zM160 309v41q0 9 9 9t9 -9v-41 q0 -9 -9 -9t-9 9zM160 369v41q0 9 9 9t9 -9v-41q0 -9 -9 -9t-9 9zM100 69v41q0 9 9 9t9 -9v-41q0 -9 -9 -9t-9 9zM100 129v41q0 9 9 9t9 -9v-41q0 -9 -9 -9t-9 9zM100 189v41q0 9 9 9t9 -9v-41q0 -9 -9 -9t-9 9zM100 249v41q0 9 9 9t9 -9v-41q0 -9 -9 -9t-9 9zM100 309v41 q0 9 9 9t9 -9v-41q0 -9 -9 -9t-9 9zM220 369v41q0 9 9 9t9 -9v-41q0 -9 -9 -9t-9 9zM340 9v41q0 9 9 9t9 -9v-41q0 -9 -9 -9t-9 9zM400 69v41q0 9 9 9t9 -9v-41q0 -9 -9 -9t-9 9zM400 129v41q0 9 9 9t9 -9v-41q0 -9 -9 -9t-9 9zM400 189v41q0 9 9 9t9 -9v-41q0 -9 -9 -9 t-9 9zM400 249v41q0 9 9 9t9 -9v-41q0 -9 -9 -9t-9 9zM400 309v41q0 9 9 9t9 -9v-41q0 -9 -9 -9t-9 9zM280 369v41q0 9 9 9t9 -9v-41q0 -9 -9 -9t-9 9zM340 69v41q0 9 9 9t9 -9v-41q0 -9 -9 -9t-9 9zM340 129v41q0 9 9 9t9 -9v-41q0 -9 -9 -9t-9 9zM340 189v41q0 9 9 9t9 -9 v-41q0 -9 -9 -9t-9 9zM340 249v41q0 9 9 9t9 -9v-41q0 -9 -9 -9t-9 9zM340 309v41q0 9 9 9t9 -9v-41q0 -9 -9 -9t-9 9zM340 369v41q0 9 9 9t9 -9v-41q0 -9 -9 -9t-9 9zM280 9v41q0 9 9 9t9 -9v-41q0 -9 -9 -9t-9 9zM220 9v41q0 9 9 9t9 -9v-41q0 -9 -9 -9t-9 9z" />
<glyph unicode="p" d="M160 369v41q0 9 9 9t9 -9v-41q0 -9 -9 -9t-9 9zM160 309v41q0 9 9 9t9 -9v-41q0 -9 -9 -9t-9 9zM160 249v41q0 9 9 9t9 -9v-41q0 -9 -9 -9t-9 9zM160 189v41q0 9 9 9t9 -9v-41q0 -9 -9 -9t-9 9zM160 129v41q0 9 9 9t9 -9v-41q0 -9 -9 -9t-9 9zM160 69v41q0 9 9 9t9 -9 v-41q0 -9 -9 -9t-9 9zM160 9v41q0 9 9 9t9 -9v-41q0 -9 -9 -9t-9 9zM100 309v41q0 9 9 9t9 -9v-41q0 -9 -9 -9t-9 9zM100 249v41q0 9 9 9t9 -9v-41q0 -9 -9 -9t-9 9zM100 189v41q0 9 9 9t9 -9v-41q0 -9 -9 -9t-9 9zM100 129v41q0 9 9 9t9 -9v-41q0 -9 -9 -9t-9 9zM100 69v41 q0 9 9 9t9 -9v-41q0 -9 -9 -9t-9 9zM220 9v41q0 9 9 9t9 -9v-41q0 -9 -9 -9t-9 9zM340 369v41q0 9 9 9t9 -9v-41q0 -9 -9 -9t-9 9zM400 309v41q0 9 9 9t9 -9v-41q0 -9 -9 -9t-9 9zM400 249v41q0 9 9 9t9 -9v-41q0 -9 -9 -9t-9 9zM400 189v41q0 9 9 9t9 -9v-41q0 -9 -9 -9 t-9 9zM400 129v41q0 9 9 9t9 -9v-41q0 -9 -9 -9t-9 9zM400 69v41q0 9 9 9t9 -9v-41q0 -9 -9 -9t-9 9zM280 9v41q0 9 9 9t9 -9v-41q0 -9 -9 -9t-9 9zM340 309v41q0 9 9 9t9 -9v-41q0 -9 -9 -9t-9 9zM340 249v41q0 9 9 9t9 -9v-41q0 -9 -9 -9t-9 9zM340 189v41q0 9 9 9t9 -9 v-41q0 -9 -9 -9t-9 9zM340 129v41q0 9 9 9t9 -9v-41q0 -9 -9 -9t-9 9zM340 69v41q0 9 9 9t9 -9v-41q0 -9 -9 -9t-9 9zM340 9v41q0 9 9 9t9 -9v-41q0 -9 -9 -9t-9 9zM280 369v41q0 9 9 9t9 -9v-41q0 -9 -9 -9t-9 9zM220 369v41q0 9 9 9t9 -9v-41q0 -9 -9 -9t-9 9zM100 9v41 q0 9 9 9t9 -9v-41q0 -9 -9 -9t-9 9zM100 -51v41q0 9 9 9t9 -9v-41q0 -9 -9 -9t-9 9zM100 -111v41q0 9 9 9t9 -9v-41q0 -9 -9 -9t-9 9zM160 -111v41q0 9 9 9t9 -9v-41q0 -9 -9 -9t-9 9zM160 -51v41q0 9 9 9t9 -9v-41q0 -9 -9 -9t-9 9zM100 369v41q0 9 9 9t9 -9v-41 q0 -9 -9 -9t-9 9z" />
<glyph unicode="q" d="M358 410v-41q0 -9 -9 -9t-9 9v41q0 9 9 9t9 -9zM358 350v-41q0 -9 -9 -9t-9 9v41q0 9 9 9t9 -9zM358 290v-41q0 -9 -9 -9t-9 9v41q0 9 9 9t9 -9zM358 230v-41q0 -9 -9 -9t-9 9v41q0 9 9 9t9 -9zM358 170v-41q0 -9 -9 -9t-9 9v41q0 9 9 9t9 -9zM358 110v-41q0 -9 -9 -9 t-9 9v41q0 9 9 9t9 -9zM358 50v-41q0 -9 -9 -9t-9 9v41q0 9 9 9t9 -9zM418 350v-41q0 -9 -9 -9t-9 9v41q0 9 9 9t9 -9zM418 290v-41q0 -9 -9 -9t-9 9v41q0 9 9 9t9 -9zM418 230v-41q0 -9 -9 -9t-9 9v41q0 9 9 9t9 -9zM418 170v-41q0 -9 -9 -9t-9 9v41q0 9 9 9t9 -9zM418 110 v-41q0 -9 -9 -9t-9 9v41q0 9 9 9t9 -9zM298 50v-41q0 -9 -9 -9t-9 9v41q0 9 9 9t9 -9zM178 410v-41q0 -9 -9 -9t-9 9v41q0 9 9 9t9 -9zM118 350v-41q0 -9 -9 -9t-9 9v41q0 9 9 9t9 -9zM118 290v-41q0 -9 -9 -9t-9 9v41q0 9 9 9t9 -9zM118 230v-41q0 -9 -9 -9t-9 9v41 q0 9 9 9t9 -9zM118 170v-41q0 -9 -9 -9t-9 9v41q0 9 9 9t9 -9zM118 110v-41q0 -9 -9 -9t-9 9v41q0 9 9 9t9 -9zM238 50v-41q0 -9 -9 -9t-9 9v41q0 9 9 9t9 -9zM178 350v-41q0 -9 -9 -9t-9 9v41q0 9 9 9t9 -9zM178 290v-41q0 -9 -9 -9t-9 9v41q0 9 9 9t9 -9zM178 230v-41 q0 -9 -9 -9t-9 9v41q0 9 9 9t9 -9zM178 170v-41q0 -9 -9 -9t-9 9v41q0 9 9 9t9 -9zM178 110v-41q0 -9 -9 -9t-9 9v41q0 9 9 9t9 -9zM178 50v-41q0 -9 -9 -9t-9 9v41q0 9 9 9t9 -9zM238 410v-41q0 -9 -9 -9t-9 9v41q0 9 9 9t9 -9zM298 410v-41q0 -9 -9 -9t-9 9v41q0 9 9 9 t9 -9zM418 50v-41q0 -9 -9 -9t-9 9v41q0 9 9 9t9 -9zM418 -10v-41q0 -9 -9 -9t-9 9v41q0 9 9 9t9 -9zM418 -70v-41q0 -9 -9 -9t-9 9v41q0 9 9 9t9 -9zM358 -70v-41q0 -9 -9 -9t-9 9v41q0 9 9 9t9 -9zM358 -10v-41q0 -9 -9 -9t-9 9v41q0 9 9 9t9 -9zM418 410v-41q0 -9 -9 -9 t-9 9v41q0 9 9 9t9 -9z" />
<glyph unicode="r" horiz-adv-x="360" d="M160 9v41q0 9 9 9t9 -9v-41q0 -9 -9 -9t-9 9zM160 69v41q0 9 9 9t9 -9v-41q0 -9 -9 -9t-9 9zM160 129v41q0 9 9 9t9 -9v-41q0 -9 -9 -9t-9 9zM160 189v41q0 9 9 9t9 -9v-41q0 -9 -9 -9t-9 9zM160 249v41q0 9 9 9t9 -9v-41q0 -9 -9 -9t-9 9zM160 309v41q0 9 9 9t9 -9v-41 q0 -9 -9 -9t-9 9zM160 369v41q0 9 9 9t9 -9v-41q0 -9 -9 -9t-9 9zM100 69v41q0 9 9 9t9 -9v-41q0 -9 -9 -9t-9 9zM100 129v41q0 9 9 9t9 -9v-41q0 -9 -9 -9t-9 9zM100 189v41q0 9 9 9t9 -9v-41q0 -9 -9 -9t-9 9zM100 249v41q0 9 9 9t9 -9v-41q0 -9 -9 -9t-9 9zM100 309v41 q0 9 9 9t9 -9v-41q0 -9 -9 -9t-9 9zM220 309v41q0 9 9 9t9 -9v-41q0 -9 -9 -9t-9 9zM280 369v41q0 9 9 9t9 -9v-41q0 -9 -9 -9t-9 9zM340 369v41q0 9 9 9t9 -9v-41q0 -9 -9 -9t-9 9zM100 9v41q0 9 9 9t9 -9v-41q0 -9 -9 -9t-9 9zM100 369v41q0 9 9 9t9 -9v-41q0 -9 -9 -9 t-9 9z" />
<glyph unicode="s" horiz-adv-x="420" d="M220 189v41q0 9 9 9t9 -9v-41q0 -9 -9 -9t-9 9zM100 69v41q0 9 9 9t9 -9v-41q0 -9 -9 -9t-9 9zM220 129v41q0 9 9 9t9 -9v-41q0 -9 -9 -9t-9 9zM280 9v41q0 9 9 9t9 -9v-41q0 -9 -9 -9t-9 9zM340 69v41q0 9 9 9t9 -9v-41q0 -9 -9 -9t-9 9zM340 129v41q0 9 9 9t9 -9v-41 q0 -9 -9 -9t-9 9zM340 309v41q0 9 9 9t9 -9v-41q0 -9 -9 -9t-9 9zM280 69v41q0 9 9 9t9 -9v-41q0 -9 -9 -9t-9 9zM280 129v41q0 9 9 9t9 -9v-41q0 -9 -9 -9t-9 9zM280 189v41q0 9 9 9t9 -9v-41q0 -9 -9 -9t-9 9zM280 369v41q0 9 9 9t9 -9v-41q0 -9 -9 -9t-9 9zM220 9v41 q0 9 9 9t9 -9v-41q0 -9 -9 -9t-9 9zM160 9v41q0 9 9 9t9 -9v-41q0 -9 -9 -9t-9 9zM220 249v41q0 9 9 9t9 -9v-41q0 -9 -9 -9t-9 9zM220 369v41q0 9 9 9t9 -9v-41q0 -9 -9 -9t-9 9zM160 189v41q0 9 9 9t9 -9v-41q0 -9 -9 -9t-9 9zM160 249v41q0 9 9 9t9 -9v-41q0 -9 -9 -9 t-9 9zM160 309v41q0 9 9 9t9 -9v-41q0 -9 -9 -9t-9 9zM160 369v41q0 9 9 9t9 -9v-41q0 -9 -9 -9t-9 9zM100 249v41q0 9 9 9t9 -9v-41q0 -9 -9 -9t-9 9zM100 309v41q0 9 9 9t9 -9v-41q0 -9 -9 -9t-9 9z" />
<glyph unicode="t" horiz-adv-x="360" d="M238 50v-41q0 -9 -9 -9t-9 9v41q0 9 9 9t9 -9zM178 110v-41q0 -9 -9 -9t-9 9v41q0 9 9 9t9 -9zM178 170v-41q0 -9 -9 -9t-9 9v41q0 9 9 9t9 -9zM178 230v-41q0 -9 -9 -9t-9 9v41q0 9 9 9t9 -9zM178 290v-41q0 -9 -9 -9t-9 9v41q0 9 9 9t9 -9zM178 350v-41q0 -9 -9 -9 t-9 9v41q0 9 9 9t9 -9zM178 410v-41q0 -9 -9 -9t-9 9v41q0 9 9 9t9 -9zM178 470v-41q0 -9 -9 -9t-9 9v41q0 9 9 9t9 -9zM178 530v-41q0 -9 -9 -9t-9 9v41q0 9 9 9t9 -9zM238 110v-41q0 -9 -9 -9t-9 9v41q0 9 9 9t9 -9zM238 170v-41q0 -9 -9 -9t-9 9v41q0 9 9 9t9 -9z M238 230v-41q0 -9 -9 -9t-9 9v41q0 9 9 9t9 -9zM238 290v-41q0 -9 -9 -9t-9 9v41q0 9 9 9t9 -9zM238 350v-41q0 -9 -9 -9t-9 9v41q0 9 9 9t9 -9zM238 410v-41q0 -9 -9 -9t-9 9v41q0 9 9 9t9 -9zM238 470v-41q0 -9 -9 -9t-9 9v41q0 9 9 9t9 -9zM238 530v-41q0 -9 -9 -9t-9 9 v41q0 9 9 9t9 -9zM118 410v-41q0 -9 -9 -9t-9 9v41q0 9 9 9t9 -9zM298 410v-41q0 -9 -9 -9t-9 9v41q0 9 9 9t9 -9zM298 50v-41q0 -9 -9 -9t-9 9v41q0 9 9 9t9 -9z" />
<glyph unicode="u" d="M358 410v-41q0 -9 -9 -9t-9 9v41q0 9 9 9t9 -9zM358 350v-41q0 -9 -9 -9t-9 9v41q0 9 9 9t9 -9zM358 290v-41q0 -9 -9 -9t-9 9v41q0 9 9 9t9 -9zM358 230v-41q0 -9 -9 -9t-9 9v41q0 9 9 9t9 -9zM358 170v-41q0 -9 -9 -9t-9 9v41q0 9 9 9t9 -9zM358 110v-41q0 -9 -9 -9 t-9 9v41q0 9 9 9t9 -9zM358 50v-41q0 -9 -9 -9t-9 9v41q0 9 9 9t9 -9zM418 350v-41q0 -9 -9 -9t-9 9v41q0 9 9 9t9 -9zM418 290v-41q0 -9 -9 -9t-9 9v41q0 9 9 9t9 -9zM418 230v-41q0 -9 -9 -9t-9 9v41q0 9 9 9t9 -9zM418 170v-41q0 -9 -9 -9t-9 9v41q0 9 9 9t9 -9zM418 110 v-41q0 -9 -9 -9t-9 9v41q0 9 9 9t9 -9zM298 50v-41q0 -9 -9 -9t-9 9v41q0 9 9 9t9 -9zM178 410v-41q0 -9 -9 -9t-9 9v41q0 9 9 9t9 -9zM118 350v-41q0 -9 -9 -9t-9 9v41q0 9 9 9t9 -9zM118 290v-41q0 -9 -9 -9t-9 9v41q0 9 9 9t9 -9zM118 230v-41q0 -9 -9 -9t-9 9v41 q0 9 9 9t9 -9zM118 170v-41q0 -9 -9 -9t-9 9v41q0 9 9 9t9 -9zM118 110v-41q0 -9 -9 -9t-9 9v41q0 9 9 9t9 -9zM238 50v-41q0 -9 -9 -9t-9 9v41q0 9 9 9t9 -9zM178 350v-41q0 -9 -9 -9t-9 9v41q0 9 9 9t9 -9zM178 290v-41q0 -9 -9 -9t-9 9v41q0 9 9 9t9 -9zM178 230v-41 q0 -9 -9 -9t-9 9v41q0 9 9 9t9 -9zM178 170v-41q0 -9 -9 -9t-9 9v41q0 9 9 9t9 -9zM178 110v-41q0 -9 -9 -9t-9 9v41q0 9 9 9t9 -9zM178 50v-41q0 -9 -9 -9t-9 9v41q0 9 9 9t9 -9zM118 410v-41q0 -9 -9 -9t-9 9v41q0 9 9 9t9 -9zM418 410v-41q0 -9 -9 -9t-9 9v41q0 9 9 9 t9 -9zM418 50v-41q0 -9 -9 -9t-9 9v41q0 9 9 9t9 -9z" />
<glyph unicode="v" d="M160 369v41q0 9 9 9t9 -9v-41q0 -9 -9 -9t-9 9zM160 309v41q0 9 9 9t9 -9v-41q0 -9 -9 -9t-9 9zM160 249v41q0 9 9 9t9 -9v-41q0 -9 -9 -9t-9 9zM160 189v41q0 9 9 9t9 -9v-41q0 -9 -9 -9t-9 9zM160 129v41q0 9 9 9t9 -9v-41q0 -9 -9 -9t-9 9zM160 69v41q0 9 9 9t9 -9 v-41q0 -9 -9 -9t-9 9zM160 9v41q0 9 9 9t9 -9v-41q0 -9 -9 -9t-9 9zM100 309v41q0 9 9 9t9 -9v-41q0 -9 -9 -9t-9 9zM100 249v41q0 9 9 9t9 -9v-41q0 -9 -9 -9t-9 9zM100 189v41q0 9 9 9t9 -9v-41q0 -9 -9 -9t-9 9zM100 129v41q0 9 9 9t9 -9v-41q0 -9 -9 -9t-9 9zM100 69v41 q0 9 9 9t9 -9v-41q0 -9 -9 -9t-9 9zM220 9v41q0 9 9 9t9 -9v-41q0 -9 -9 -9t-9 9zM340 369v41q0 9 9 9t9 -9v-41q0 -9 -9 -9t-9 9zM400 309v41q0 9 9 9t9 -9v-41q0 -9 -9 -9t-9 9zM400 249v41q0 9 9 9t9 -9v-41q0 -9 -9 -9t-9 9zM400 189v41q0 9 9 9t9 -9v-41q0 -9 -9 -9 t-9 9zM400 129v41q0 9 9 9t9 -9v-41q0 -9 -9 -9t-9 9zM280 9v41q0 9 9 9t9 -9v-41q0 -9 -9 -9t-9 9zM340 309v41q0 9 9 9t9 -9v-41q0 -9 -9 -9t-9 9zM340 249v41q0 9 9 9t9 -9v-41q0 -9 -9 -9t-9 9zM340 189v41q0 9 9 9t9 -9v-41q0 -9 -9 -9t-9 9zM340 129v41q0 9 9 9t9 -9 v-41q0 -9 -9 -9t-9 9zM340 69v41q0 9 9 9t9 -9v-41q0 -9 -9 -9t-9 9zM400 369v41q0 9 9 9t9 -9v-41q0 -9 -9 -9t-9 9zM100 369v41q0 9 9 9t9 -9v-41q0 -9 -9 -9t-9 9zM100 9v41q0 9 9 9t9 -9v-41q0 -9 -9 -9t-9 9z" />
<glyph unicode="w" horiz-adv-x="721" d="M160 369v41q0 9 9 9t9 -9v-41q0 -9 -9 -9t-9 9zM160 309v41q0 9 9 9t9 -9v-41q0 -9 -9 -9t-9 9zM160 249v41q0 9 9 9t9 -9v-41q0 -9 -9 -9t-9 9zM160 189v41q0 9 9 9t9 -9v-41q0 -9 -9 -9t-9 9zM160 129v41q0 9 9 9t9 -9v-41q0 -9 -9 -9t-9 9zM160 69v41q0 9 9 9t9 -9 v-41q0 -9 -9 -9t-9 9zM160 9v41q0 9 9 9t9 -9v-41q0 -9 -9 -9t-9 9zM100 309v41q0 9 9 9t9 -9v-41q0 -9 -9 -9t-9 9zM100 249v41q0 9 9 9t9 -9v-41q0 -9 -9 -9t-9 9zM100 189v41q0 9 9 9t9 -9v-41q0 -9 -9 -9t-9 9zM100 129v41q0 9 9 9t9 -9v-41q0 -9 -9 -9t-9 9zM100 69v41 q0 9 9 9t9 -9v-41q0 -9 -9 -9t-9 9zM220 9v41q0 9 9 9t9 -9v-41q0 -9 -9 -9t-9 9zM280 9v41q0 9 9 9t9 -9v-41q0 -9 -9 -9t-9 9zM100 369v41q0 9 9 9t9 -9v-41q0 -9 -9 -9t-9 9zM100 9v41q0 9 9 9t9 -9v-41q0 -9 -9 -9t-9 9zM400 369v41q0 9 9 9t9 -9v-41q0 -9 -9 -9t-9 9z M400 309v41q0 9 9 9t9 -9v-41q0 -9 -9 -9t-9 9zM400 249v41q0 9 9 9t9 -9v-41q0 -9 -9 -9t-9 9zM400 189v41q0 9 9 9t9 -9v-41q0 -9 -9 -9t-9 9zM400 129v41q0 9 9 9t9 -9v-41q0 -9 -9 -9t-9 9zM400 69v41q0 9 9 9t9 -9v-41q0 -9 -9 -9t-9 9zM400 9v41q0 9 9 9t9 -9v-41 q0 -9 -9 -9t-9 9zM340 309v41q0 9 9 9t9 -9v-41q0 -9 -9 -9t-9 9zM340 249v41q0 9 9 9t9 -9v-41q0 -9 -9 -9t-9 9zM340 189v41q0 9 9 9t9 -9v-41q0 -9 -9 -9t-9 9zM340 129v41q0 9 9 9t9 -9v-41q0 -9 -9 -9t-9 9zM340 69v41q0 9 9 9t9 -9v-41q0 -9 -9 -9t-9 9zM460 9v41 q0 9 9 9t9 -9v-41q0 -9 -9 -9t-9 9zM580 369v41q0 9 9 9t9 -9v-41q0 -9 -9 -9t-9 9zM640 309v41q0 9 9 9t9 -9v-41q0 -9 -9 -9t-9 9zM640 249v41q0 9 9 9t9 -9v-41q0 -9 -9 -9t-9 9zM640 189v41q0 9 9 9t9 -9v-41q0 -9 -9 -9t-9 9zM640 129v41q0 9 9 9t9 -9v-41q0 -9 -9 -9 t-9 9zM520 9v41q0 9 9 9t9 -9v-41q0 -9 -9 -9t-9 9zM580 309v41q0 9 9 9t9 -9v-41q0 -9 -9 -9t-9 9zM580 249v41q0 9 9 9t9 -9v-41q0 -9 -9 -9t-9 9zM580 189v41q0 9 9 9t9 -9v-41q0 -9 -9 -9t-9 9zM580 129v41q0 9 9 9t9 -9v-41q0 -9 -9 -9t-9 9zM580 69v41q0 9 9 9t9 -9 v-41q0 -9 -9 -9t-9 9zM640 369v41q0 9 9 9t9 -9v-41q0 -9 -9 -9t-9 9zM340 369v41q0 9 9 9t9 -9v-41q0 -9 -9 -9t-9 9zM340 9v41q0 9 9 9t9 -9v-41q0 -9 -9 -9t-9 9z" />
<glyph unicode="x" d="M160 189v41q0 9 9 9t9 -9v-41q0 -9 -9 -9t-9 9zM100 129v41q0 9 9 9t9 -9v-41q0 -9 -9 -9t-9 9zM160 129v41q0 9 9 9t9 -9v-41q0 -9 -9 -9t-9 9zM100 69v41q0 9 9 9t9 -9v-41q0 -9 -9 -9t-9 9zM160 69v41q0 9 9 9t9 -9v-41q0 -9 -9 -9t-9 9zM100 9v41q0 9 9 9t9 -9v-41 q0 -9 -9 -9t-9 9zM160 9v41q0 9 9 9t9 -9v-41q0 -9 -9 -9t-9 9zM340 9v41q0 9 9 9t9 -9v-41q0 -9 -9 -9t-9 9zM400 9v41q0 9 9 9t9 -9v-41q0 -9 -9 -9t-9 9zM340 69v41v4l3 3q2 2 3 2h3q4 0 8 -4v-1l1 -2v-2v-41v-2v-1l-1 -2l-3 -3l-1 -1h-2h-2h-3q-6 2 -6 7v2zM400 69v41v4 l3 3q2 2 3 2h3h2q1 0 3 -2q1 0 3 -2v-1l1 -2v-2v-41q0 -5 -4 -8q-1 -1 -5 -1q-7 0 -9 5v2v2zM220 189v41q0 9 9 9t9 -9v-41q0 -9 -9 -9t-9 9zM280 189v41q0 9 9 9t9 -9v-41q0 -9 -9 -9t-9 9zM340 129v41q0 9 9 9t9 -9v-41q0 -9 -9 -9t-9 9zM340 369v41q0 9 9 9t9 -9v-41 q0 -9 -9 -9t-9 9zM340 309v41q0 9 9 9t9 -9v-41q0 -9 -9 -9t-9 9zM340 249v41q0 9 9 9t9 -9v-41q0 -9 -9 -9t-9 9zM400 129v41q0 9 9 9t9 -9v-41q0 -9 -9 -9t-9 9zM400 369v41q0 9 9 9t9 -9v-41q0 -9 -9 -9t-9 9zM400 309v41q0 9 9 9t9 -9v-41q0 -9 -9 -9t-9 9zM400 249v41 q0 9 9 9t9 -9v-41q0 -9 -9 -9t-9 9zM340 189v41q0 9 9 9t9 -9v-41q0 -9 -9 -9t-9 9zM100 369v41q0 9 9 9t9 -9v-41q0 -9 -9 -9t-9 9zM100 309v41q0 9 9 9t9 -9v-41q0 -9 -9 -9t-9 9zM100 249v41q0 9 9 9t9 -9v-41q0 -9 -9 -9t-9 9zM160 369v41q0 9 9 9t9 -9v-41q0 -9 -9 -9 t-9 9zM160 309v41q0 9 9 9t9 -9v-41q0 -9 -9 -9t-9 9zM160 249v41q0 9 9 9t9 -9v-41q0 -9 -9 -9t-9 9z" />
<glyph unicode="y" d="M358 410v-41q0 -9 -9 -9t-9 9v41q0 9 9 9t9 -9zM358 350v-41q0 -9 -9 -9t-9 9v41q0 9 9 9t9 -9zM358 290v-41q0 -9 -9 -9t-9 9v41q0 9 9 9t9 -9zM358 230v-41q0 -9 -9 -9t-9 9v41q0 9 9 9t9 -9zM358 170v-41q0 -9 -9 -9t-9 9v41q0 9 9 9t9 -9zM358 110v-41q0 -9 -9 -9 t-9 9v41q0 9 9 9t9 -9zM358 50v-41q0 -9 -9 -9t-9 9v41q0 9 9 9t9 -9zM418 350v-41q0 -9 -9 -9t-9 9v41q0 9 9 9t9 -9zM418 290v-41q0 -9 -9 -9t-9 9v41q0 9 9 9t9 -9zM418 230v-41q0 -9 -9 -9t-9 9v41q0 9 9 9t9 -9zM418 170v-41q0 -9 -9 -9t-9 9v41q0 9 9 9t9 -9zM418 110 v-41q0 -9 -9 -9t-9 9v41q0 9 9 9t9 -9zM298 50v-41q0 -9 -9 -9t-9 9v41q0 9 9 9t9 -9zM178 410v-41q0 -9 -9 -9t-9 9v41q0 9 9 9t9 -9zM118 350v-41q0 -9 -9 -9t-9 9v41q0 9 9 9t9 -9zM118 290v-41q0 -9 -9 -9t-9 9v41q0 9 9 9t9 -9zM118 230v-41q0 -9 -9 -9t-9 9v41 q0 9 9 9t9 -9zM118 170v-41q0 -9 -9 -9t-9 9v41q0 9 9 9t9 -9zM118 110v-41q0 -9 -9 -9t-9 9v41q0 9 9 9t9 -9zM238 50v-41q0 -9 -9 -9t-9 9v41q0 9 9 9t9 -9zM178 350v-41q0 -9 -9 -9t-9 9v41q0 9 9 9t9 -9zM178 290v-41q0 -9 -9 -9t-9 9v41q0 9 9 9t9 -9zM178 230v-41 q0 -9 -9 -9t-9 9v41q0 9 9 9t9 -9zM178 170v-41q0 -9 -9 -9t-9 9v41q0 9 9 9t9 -9zM178 110v-41q0 -9 -9 -9t-9 9v41q0 9 9 9t9 -9zM178 50v-41q0 -9 -9 -9t-9 9v41q0 9 9 9t9 -9zM118 410v-41q0 -9 -9 -9t-9 9v41q0 9 9 9t9 -9zM418 50v-41q0 -9 -9 -9t-9 9v41q0 9 9 9 t9 -9zM418 -10v-41q0 -9 -9 -9t-9 9v41q0 9 9 9t9 -9zM418 -70v-41q0 -9 -9 -9t-9 9v41q0 9 9 9t9 -9zM358 -70v-41q0 -9 -9 -9t-9 9v41q0 9 9 9t9 -9zM358 -10v-41q0 -9 -9 -9t-9 9v41q0 9 9 9t9 -9zM418 410v-41q0 -9 -9 -9t-9 9v41q0 9 9 9t9 -9zM358 -130v-41 q0 -9 -9 -9t-9 9v41q0 9 9 9t9 -9zM298 -130v-41q0 -9 -9 -9t-9 9v41q0 9 9 9t9 -9zM238 -130v-41q0 -9 -9 -9t-9 9v41q0 9 9 9t9 -9zM178 -130v-41q0 -9 -9 -9t-9 9v41q0 9 9 9t9 -9zM118 -70v-41q0 -9 -9 -9t-9 9v41q0 9 9 9t9 -9z" />
<glyph unicode="z" d="M358 50v-41q0 -9 -9 -9t-9 9v41q0 9 9 9t9 -9zM178 410v-41q0 -9 -9 -9t-9 9v41q0 9 9 9t9 -9zM118 110v-41q0 -9 -9 -9t-9 9v41q0 9 9 9t9 -9zM118 50v-41q0 -9 -9 -9t-9 9v41q0 9 9 9t9 -9zM178 170v-41q0 -9 -9 -9t-9 9v41q0 9 9 9t9 -9zM178 110v-41q0 -9 -9 -9t-9 9 v41q0 9 9 9t9 -9zM178 50v-41q0 -9 -9 -9t-9 9v41q0 9 9 9t9 -9zM118 410v-41q0 -9 -9 -9t-9 9v41q0 9 9 9t9 -9zM298 50v-41q0 -9 -9 -9t-9 9v41q0 9 9 9t9 -9zM238 50v-41q0 -9 -9 -9t-9 9v41q0 9 9 9t9 -9zM298 290v-41q0 -9 -9 -9t-9 9v41q0 9 9 9t9 -9zM238 230v-41 q0 -9 -9 -9t-9 9v41q0 9 9 9t9 -9zM298 410v-41q0 -9 -9 -9t-9 9v41q0 9 9 9t9 -9zM238 410v-41q0 -9 -9 -9t-9 9v41q0 9 9 9t9 -9zM358 410v-41q0 -9 -9 -9t-9 9v41q0 9 9 9t9 -9zM418 410v-41q0 -9 -9 -9t-9 9v41q0 9 9 9t9 -9zM418 50v-41q0 -9 -9 -9t-9 9v41q0 9 9 9 t9 -9zM298 230v-41q0 -9 -9 -9t-9 9v41q0 9 9 9t9 -9zM238 170v-41q0 -9 -9 -9t-9 9v41q0 9 9 9t9 -9zM358 350v-41q0 -9 -9 -9t-9 9v41q0 9 9 9t9 -9zM358 290v-41q0 -9 -9 -9t-9 9v41q0 9 9 9t9 -9zM418 350v-41q0 -9 -9 -9t-9 9v41q0 9 9 9t9 -9z" />
<glyph unicode="{" horiz-adv-x="300" d="M220 549v41q0 9 9 9t9 -9v-41q0 -9 -9 -9t-9 9zM160 369v41q0 9 9 9t9 -9v-41q0 -9 -9 -9t-9 9zM160 429v41q0 9 9 9t9 -9v-41q0 -9 -9 -9t-9 9zM160 489v41q0 9 9 9t9 -9v-41q0 -9 -9 -9t-9 9zM160 189v41q0 9 9 9t9 -9v-41q0 -9 -9 -9t-9 9zM160 309v41q0 9 9 9t9 -9 v-41q0 -9 -9 -9t-9 9zM160 9v41q0 9 9 9t9 -9v-41q0 -9 -9 -9t-9 9zM160 69v41q0 9 9 9t9 -9v-41q0 -9 -9 -9t-9 9zM160 129v41q0 9 9 9t9 -9v-41q0 -9 -9 -9t-9 9zM220 -51v41q0 9 9 9t9 -9v-41q0 -9 -9 -9t-9 9zM100 249v41q0 9 9 9t9 -9v-41q0 -9 -9 -9t-9 9z" />
<glyph unicode="|" horiz-adv-x="300" d="M160 549v41q0 9 9 9t9 -9v-41q0 -9 -9 -9t-9 9zM160 609v41q0 9 9 9t9 -9v-41q0 -9 -9 -9t-9 9zM160 669v41q0 9 9 9t9 -9v-41q0 -9 -9 -9t-9 9zM160 369v41q0 9 9 9t9 -9v-41q0 -9 -9 -9t-9 9zM160 429v41q0 9 9 9t9 -9v-41q0 -9 -9 -9t-9 9zM160 489v41q0 9 9 9t9 -9 v-41q0 -9 -9 -9t-9 9zM160 189v41q0 9 9 9t9 -9v-41q0 -9 -9 -9t-9 9zM160 249v41q0 9 9 9t9 -9v-41q0 -9 -9 -9t-9 9zM160 309v41q0 9 9 9t9 -9v-41q0 -9 -9 -9t-9 9zM160 9v41q0 9 9 9t9 -9v-41q0 -9 -9 -9t-9 9zM160 69v41q0 9 9 9t9 -9v-41q0 -9 -9 -9t-9 9zM160 129v41 q0 9 9 9t9 -9v-41q0 -9 -9 -9t-9 9zM160 -111v41q0 9 9 9t9 -9v-41q0 -9 -9 -9t-9 9zM160 -51v41q0 9 9 9t9 -9v-41q0 -9 -9 -9t-9 9z" />
<glyph unicode="}" horiz-adv-x="300" d="M118 590v-41q0 -9 -9 -9t-9 9v41q0 9 9 9t9 -9zM178 410v-41q0 -9 -9 -9t-9 9v41q0 9 9 9t9 -9zM178 470v-41q0 -9 -9 -9t-9 9v41q0 9 9 9t9 -9zM178 530v-41q0 -9 -9 -9t-9 9v41q0 9 9 9t9 -9zM178 230v-41q0 -9 -9 -9t-9 9v41q0 9 9 9t9 -9zM178 350v-41q0 -9 -9 -9 t-9 9v41q0 9 9 9t9 -9zM178 50v-41q0 -9 -9 -9t-9 9v41q0 9 9 9t9 -9zM178 110v-41q0 -9 -9 -9t-9 9v41q0 9 9 9t9 -9zM178 170v-41q0 -9 -9 -9t-9 9v41q0 9 9 9t9 -9zM118 -10v-41q0 -9 -9 -9t-9 9v41q0 9 9 9t9 -9zM238 290v-41q0 -9 -9 -9t-9 9v41q0 9 9 9t9 -9z" />
<glyph unicode="~" d="M100 309v41q0 9 9 9t9 -9v-41q0 -9 -9 -9t-9 9zM160 369v41q0 9 9 9t9 -9v-41q0 -9 -9 -9t-9 9zM220 369v41q0 9 9 9t9 -9v-41q0 -9 -9 -9t-9 9zM280 309v41q0 9 9 9t9 -9v-41q0 -9 -9 -9t-9 9zM340 309v41q0 9 9 9t9 -9v-41q0 -9 -9 -9t-9 9zM400 369v41q0 9 9 9t9 -9 v-41q0 -9 -9 -9t-9 9z" />
<glyph unicode="&#xa1;" horiz-adv-x="360" d="M238 530v-41q0 -9 -9 -9t-9 9v41q0 9 9 9t9 -9zM178 410v-41q0 -9 -9 -9t-9 9v41q0 9 9 9t9 -9zM178 350v-41q0 -9 -9 -9t-9 9v41q0 9 9 9t9 -9zM178 290v-41q0 -9 -9 -9t-9 9v41q0 9 9 9t9 -9zM178 230v-41q0 -9 -9 -9t-9 9v41q0 9 9 9t9 -9zM178 170v-41q0 -9 -9 -9 t-9 9v41q0 9 9 9t9 -9zM178 110v-41q0 -9 -9 -9t-9 9v41q0 9 9 9t9 -9zM178 50v-41q0 -9 -9 -9t-9 9v41q0 9 9 9t9 -9zM238 410v-41q0 -9 -9 -9t-9 9v41q0 9 9 9t9 -9zM238 350v-41q0 -9 -9 -9t-9 9v41q0 9 9 9t9 -9zM238 290v-41q0 -9 -9 -9t-9 9v41q0 9 9 9t9 -9zM238 230 v-41q0 -9 -9 -9t-9 9v41q0 9 9 9t9 -9zM238 170v-41q0 -9 -9 -9t-9 9v41q0 9 9 9t9 -9zM238 110v-41q0 -9 -9 -9t-9 9v41q0 9 9 9t9 -9zM238 50v-41q0 -9 -9 -9t-9 9v41q0 9 9 9t9 -9zM178 530v-41q0 -9 -9 -9t-9 9v41q0 9 9 9t9 -9z" />
<glyph unicode="&#xa2;" horiz-adv-x="420" d="M100 249v41q0 9 9 9t9 -9v-41q0 -9 -9 -9t-9 9zM100 309v41q0 9 9 9t9 -9v-41q0 -9 -9 -9t-9 9zM100 369v41q0 9 9 9t9 -9v-41q0 -9 -9 -9t-9 9zM100 429v41q0 9 9 9t9 -9v-41q0 -9 -9 -9t-9 9zM220 489v41q0 9 9 9t9 -9v-41q0 -9 -9 -9t-9 9zM280 489v41q0 9 9 9t9 -9 v-41q0 -9 -9 -9t-9 9zM340 249v41q0 9 9 9t9 -9v-41q0 -9 -9 -9t-9 9zM340 429v41q0 9 9 9t9 -9v-41q0 -9 -9 -9t-9 9zM280 189v41q0 9 9 9t9 -9v-41q0 -9 -9 -9t-9 9zM220 189v41q0 9 9 9t9 -9v-41q0 -9 -9 -9t-9 9zM220 549v41q0 9 9 9t9 -9v-41q0 -9 -9 -9t-9 9zM160 489 v41q0 9 9 9t9 -9v-41q0 -9 -9 -9t-9 9zM160 189v41q0 9 9 9t9 -9v-41q0 -9 -9 -9t-9 9zM220 129v41q0 9 9 9t9 -9v-41q0 -9 -9 -9t-9 9zM220 249v41q0 9 9 9t9 -9v-41q0 -9 -9 -9t-9 9zM220 309v41q0 9 9 9t9 -9v-41q0 -9 -9 -9t-9 9zM220 369v41q0 9 9 9t9 -9v-41 q0 -9 -9 -9t-9 9zM220 429v41q0 9 9 9t9 -9v-41q0 -9 -9 -9t-9 9z" />
<glyph unicode="&#xa3;" d="M418 50v-41q0 -9 -9 -9t-9 9v41q0 9 9 9t9 -9zM238 530v-41q0 -9 -9 -9t-9 9v41q0 9 9 9t9 -9zM178 470v-41q0 -9 -9 -9t-9 9v41q0 9 9 9t9 -9zM178 410v-41q0 -9 -9 -9t-9 9v41q0 9 9 9t9 -9zM178 350v-41q0 -9 -9 -9t-9 9v41q0 9 9 9t9 -9zM178 290v-41q0 -9 -9 -9 t-9 9v41q0 9 9 9t9 -9zM178 230v-41q0 -9 -9 -9t-9 9v41q0 9 9 9t9 -9zM178 170v-41q0 -9 -9 -9t-9 9v41q0 9 9 9t9 -9zM178 110v-41q0 -9 -9 -9t-9 9v41q0 9 9 9t9 -9zM178 50v-41q0 -9 -9 -9t-9 9v41q0 9 9 9t9 -9zM238 470v-41q0 -9 -9 -9t-9 9v41q0 9 9 9t9 -9zM238 410 v-41q0 -9 -9 -9t-9 9v41q0 9 9 9t9 -9zM238 350v-41q0 -9 -9 -9t-9 9v41q0 9 9 9t9 -9zM238 290v-41q0 -9 -9 -9t-9 9v41q0 9 9 9t9 -9zM238 230v-41q0 -9 -9 -9t-9 9v41q0 9 9 9t9 -9zM238 170v-41q0 -9 -9 -9t-9 9v41q0 9 9 9t9 -9zM238 110v-41q0 -9 -9 -9t-9 9v41 q0 9 9 9t9 -9zM238 50v-41q0 -9 -9 -9t-9 9v41q0 9 9 9t9 -9zM298 530v-41q0 -9 -9 -9t-9 9v41q0 9 9 9t9 -9zM358 50v-41q0 -9 -9 -9t-9 9v41q0 9 9 9t9 -9zM298 50v-41q0 -9 -9 -9t-9 9v41q0 9 9 9t9 -9zM118 290v-41q0 -9 -9 -9t-9 9v41q0 9 9 9t9 -9zM118 50v-41 q0 -9 -9 -9t-9 9v41q0 9 9 9t9 -9zM298 290v-41q0 -9 -9 -9t-9 9v41q0 9 9 9t9 -9zM478 110v-41q0 -9 -9 -9t-9 9v41q0 9 9 9t9 -9zM358 530v-41q0 -9 -9 -9t-9 9v41q0 9 9 9t9 -9zM418 470v-41q0 -9 -9 -9t-9 9v41q0 9 9 9t9 -9z" />
<glyph unicode="&#xa5;" d="M160 429v41q0 9 9 9t9 -9v-41q0 -9 -9 -9t-9 9zM100 489v41q0 9 9 9t9 -9v-41q0 -9 -9 -9t-9 9zM280 309v41q0 9 9 9t9 -9v-41q0 -9 -9 -9t-9 9zM280 369v41q0 9 9 9t9 -9v-41q0 -9 -9 -9t-9 9zM400 489v41q0 9 9 9t9 -9v-41q0 -9 -9 -9t-9 9zM220 309v41q0 9 9 9t9 -9 v-41q0 -9 -9 -9t-9 9zM220 369v41q0 9 9 9t9 -9v-41q0 -9 -9 -9t-9 9zM340 429v41q0 9 9 9t9 -9v-41q0 -9 -9 -9t-9 9zM280 249v41q0 9 9 9t9 -9v-41q0 -9 -9 -9t-9 9zM220 249v41q0 9 9 9t9 -9v-41q0 -9 -9 -9t-9 9zM280 189v41q0 9 9 9t9 -9v-41q0 -9 -9 -9t-9 9zM220 189 v41q0 9 9 9t9 -9v-41q0 -9 -9 -9t-9 9zM280 129v41q0 9 9 9t9 -9v-41q0 -9 -9 -9t-9 9zM220 129v41q0 9 9 9t9 -9v-41q0 -9 -9 -9t-9 9zM280 69v41q0 9 9 9t9 -9v-41q0 -9 -9 -9t-9 9zM220 69v41q0 9 9 9t9 -9v-41q0 -9 -9 -9t-9 9zM280 9v41q0 9 9 9t9 -9v-41q0 -9 -9 -9 t-9 9zM220 9v41q0 9 9 9t9 -9v-41q0 -9 -9 -9t-9 9zM160 309v41q0 9 9 9t9 -9v-41q0 -9 -9 -9t-9 9zM100 309v41q0 9 9 9t9 -9v-41q0 -9 -9 -9t-9 9zM400 309v41q0 9 9 9t9 -9v-41q0 -9 -9 -9t-9 9zM340 309v41q0 9 9 9t9 -9v-41q0 -9 -9 -9t-9 9zM160 189v41q0 9 9 9t9 -9 v-41q0 -9 -9 -9t-9 9zM100 189v41q0 9 9 9t9 -9v-41q0 -9 -9 -9t-9 9zM400 189v41q0 9 9 9t9 -9v-41q0 -9 -9 -9t-9 9zM340 189v41q0 9 9 9t9 -9v-41q0 -9 -9 -9t-9 9z" />
<glyph unicode="&#xa6;" horiz-adv-x="500" />
<glyph unicode="&#xa7;" horiz-adv-x="420" d="M220 309v41q0 9 9 9t9 -9v-41q0 -9 -9 -9t-9 9zM340 129v41q0 9 9 9t9 -9v-41q0 -9 -9 -9t-9 9zM340 189v41q0 9 9 9t9 -9v-41q0 -9 -9 -9t-9 9zM340 249v41q0 9 9 9t9 -9v-41q0 -9 -9 -9t-9 9zM340 489v41q0 9 9 9t9 -9v-41q0 -9 -9 -9t-9 9zM280 249v41q0 9 9 9t9 -9 v-41q0 -9 -9 -9t-9 9zM280 309v41q0 9 9 9t9 -9v-41q0 -9 -9 -9t-9 9zM280 549v41q0 9 9 9t9 -9v-41q0 -9 -9 -9t-9 9zM220 369v41q0 9 9 9t9 -9v-41q0 -9 -9 -9t-9 9zM220 549v41q0 9 9 9t9 -9v-41q0 -9 -9 -9t-9 9zM160 369v41q0 9 9 9t9 -9v-41q0 -9 -9 -9t-9 9zM160 429 v41q0 9 9 9t9 -9v-41q0 -9 -9 -9t-9 9zM160 489v41q0 9 9 9t9 -9v-41q0 -9 -9 -9t-9 9zM160 549v41q0 9 9 9t9 -9v-41q0 -9 -9 -9t-9 9zM100 429v41q0 9 9 9t9 -9v-41q0 -9 -9 -9t-9 9zM100 489v41q0 9 9 9t9 -9v-41q0 -9 -9 -9t-9 9zM238 170v-41q0 -9 -9 -9t-9 9v41 q0 9 9 9t9 -9zM118 350v-41q0 -9 -9 -9t-9 9v41q0 9 9 9t9 -9zM118 290v-41q0 -9 -9 -9t-9 9v41q0 9 9 9t9 -9zM118 230v-41q0 -9 -9 -9t-9 9v41q0 9 9 9t9 -9zM118 -10v-41q0 -9 -9 -9t-9 9v41q0 9 9 9t9 -9zM178 230v-41q0 -9 -9 -9t-9 9v41q0 9 9 9t9 -9zM178 170v-41 q0 -9 -9 -9t-9 9v41q0 9 9 9t9 -9zM178 -70v-41q0 -9 -9 -9t-9 9v41q0 9 9 9t9 -9zM238 110v-41q0 -9 -9 -9t-9 9v41q0 9 9 9t9 -9zM238 -70v-41q0 -9 -9 -9t-9 9v41q0 9 9 9t9 -9zM298 110v-41q0 -9 -9 -9t-9 9v41q0 9 9 9t9 -9zM298 50v-41q0 -9 -9 -9t-9 9v41q0 9 9 9 t9 -9zM298 -10v-41q0 -9 -9 -9t-9 9v41q0 9 9 9t9 -9zM298 -70v-41q0 -9 -9 -9t-9 9v41q0 9 9 9t9 -9zM358 50v-41q0 -9 -9 -9t-9 9v41q0 9 9 9t9 -9zM358 -10v-41q0 -9 -9 -9t-9 9v41q0 9 9 9t9 -9z" />
<glyph unicode="&#xa8;" d="M340 489v41q0 9 9 9t9 -9v-41q0 -9 -9 -9t-9 9zM160 489v41q0 9 9 9t9 -9v-41q0 -9 -9 -9t-9 9z" />
<glyph unicode="&#xa9;" horiz-adv-x="600" d="M160 69v41q0 9 9 9t9 -9v-41q0 -9 -9 -9t-9 9zM280 129v41q0 9 9 9t9 -9v-41q0 -9 -9 -9t-9 9zM220 189v41q0 9 9 9t9 -9v-41q0 -9 -9 -9t-9 9zM220 249v41q0 9 9 9t9 -9v-41q0 -9 -9 -9t-9 9zM220 309v41q0 9 9 9t9 -9v-41q0 -9 -9 -9t-9 9zM160 429v41q0 9 9 9t9 -9 v-41q0 -9 -9 -9t-9 9zM100 129v41q0 9 9 9t9 -9v-41q0 -9 -9 -9t-9 9zM100 189v41q0 9 9 9t9 -9v-41q0 -9 -9 -9t-9 9zM100 249v41q0 9 9 9t9 -9v-41q0 -9 -9 -9t-9 9zM100 309v41q0 9 9 9t9 -9v-41q0 -9 -9 -9t-9 9zM100 369v41q0 9 9 9t9 -9v-41q0 -9 -9 -9t-9 9zM220 489 v41q0 9 9 9t9 -9v-41q0 -9 -9 -9t-9 9zM520 129v41q0 9 9 9t9 -9v-41q0 -9 -9 -9t-9 9zM520 189v41q0 9 9 9t9 -9v-41q0 -9 -9 -9t-9 9zM520 249v41q0 9 9 9t9 -9v-41q0 -9 -9 -9t-9 9zM520 309v41q0 9 9 9t9 -9v-41q0 -9 -9 -9t-9 9zM520 369v41q0 9 9 9t9 -9v-41 q0 -9 -9 -9t-9 9zM280 489v41q0 9 9 9t9 -9v-41q0 -9 -9 -9t-9 9zM460 69v41q0 9 9 9t9 -9v-41q0 -9 -9 -9t-9 9zM460 429v41q0 9 9 9t9 -9v-41q0 -9 -9 -9t-9 9zM280 9v41q0 9 9 9t9 -9v-41q0 -9 -9 -9t-9 9zM220 9v41q0 9 9 9t9 -9v-41q0 -9 -9 -9t-9 9zM340 489v41 q0 9 9 9t9 -9v-41q0 -9 -9 -9t-9 9zM340 9v41q0 9 9 9t9 -9v-41q0 -9 -9 -9t-9 9zM400 489v41q0 9 9 9t9 -9v-41q0 -9 -9 -9t-9 9zM400 9v41q0 9 9 9t9 -9v-41q0 -9 -9 -9t-9 9zM340 129v41q0 9 9 9t9 -9v-41q0 -9 -9 -9t-9 9zM400 189v41q0 9 9 9t9 -9v-41q0 -9 -9 -9t-9 9 zM400 309v41q0 9 9 9t9 -9v-41q0 -9 -9 -9t-9 9zM340 369v41q0 9 9 9t9 -9v-41q0 -9 -9 -9t-9 9zM280 369v41q0 9 9 9t9 -9v-41q0 -9 -9 -9t-9 9z" />
<glyph unicode="&#xaa;" horiz-adv-x="360" d="M160 249v41q0 9 9 9t9 -9v-41q0 -9 -9 -9t-9 9zM100 309v41q0 9 9 9t9 -9v-41q0 -9 -9 -9t-9 9zM160 369v41q0 9 9 9t9 -9v-41q0 -9 -9 -9t-9 9zM220 249v41q0 9 9 9t9 -9v-41q0 -9 -9 -9t-9 9zM280 309v41q0 9 9 9t9 -9v-41q0 -9 -9 -9t-9 9zM280 429v41q0 9 9 9t9 -9 v-41q0 -9 -9 -9t-9 9zM220 489v41q0 9 9 9t9 -9v-41q0 -9 -9 -9t-9 9zM160 489v41q0 9 9 9t9 -9v-41q0 -9 -9 -9t-9 9zM280 369v41q0 9 9 9t9 -9v-41q0 -9 -9 -9t-9 9zM220 369v41q0 9 9 9t9 -9v-41q0 -9 -9 -9t-9 9zM280 249v41q0 9 9 9t9 -9v-41q0 -9 -9 -9t-9 9z" />
<glyph unicode="&#xab;" d="M118 170v-41q0 -9 -9 -9t-9 9v41q0 9 9 9t9 -9zM178 110v-41q0 -9 -9 -9t-9 9v41q0 9 9 9t9 -9zM238 50v-41q0 -9 -9 -9t-9 9v41q0 9 9 9t9 -9zM58 230v-41q0 -9 -9 -9t-9 9v41q0 9 9 9t9 -9zM118 290v-41q0 -9 -9 -9t-9 9v41q0 9 9 9t9 -9zM178 350v-41q0 -9 -9 -9t-9 9 v41q0 9 9 9t9 -9zM238 410v-41q0 -9 -9 -9t-9 9v41q0 9 9 9t9 -9zM298 170v-41q0 -9 -9 -9t-9 9v41q0 9 9 9t9 -9zM358 110v-41q0 -9 -9 -9t-9 9v41q0 9 9 9t9 -9zM418 50v-41q0 -9 -9 -9t-9 9v41q0 9 9 9t9 -9zM238 230v-41q0 -9 -9 -9t-9 9v41q0 9 9 9t9 -9zM298 290v-41 q0 -9 -9 -9t-9 9v41q0 9 9 9t9 -9zM358 350v-41q0 -9 -9 -9t-9 9v41q0 9 9 9t9 -9zM418 410v-41q0 -9 -9 -9t-9 9v41q0 9 9 9t9 -9z" />
<glyph unicode="&#xac;" horiz-adv-x="500" />
<glyph unicode="&#xad;" horiz-adv-x="420" d="M178 290v-41q0 -9 -9 -9t-9 9v41q0 9 9 9t9 -9zM118 290v-41q0 -9 -9 -9t-9 9v41q0 9 9 9t9 -9zM298 290v-41q0 -9 -9 -9t-9 9v41q0 9 9 9t9 -9zM238 290v-41q0 -9 -9 -9t-9 9v41q0 9 9 9t9 -9zM358 290v-41q0 -9 -9 -9t-9 9v41q0 9 9 9t9 -9z" />
<glyph unicode="&#xae;" horiz-adv-x="600" d="M160 69v41q0 9 9 9t9 -9v-41q0 -9 -9 -9t-9 9zM220 129v41q0 9 9 9t9 -9v-41q0 -9 -9 -9t-9 9zM220 189v41q0 9 9 9t9 -9v-41q0 -9 -9 -9t-9 9zM220 249v41q0 9 9 9t9 -9v-41q0 -9 -9 -9t-9 9zM220 309v41q0 9 9 9t9 -9v-41q0 -9 -9 -9t-9 9zM220 369v41q0 9 9 9t9 -9 v-41q0 -9 -9 -9t-9 9zM160 429v41q0 9 9 9t9 -9v-41q0 -9 -9 -9t-9 9zM100 129v41q0 9 9 9t9 -9v-41q0 -9 -9 -9t-9 9zM100 189v41q0 9 9 9t9 -9v-41q0 -9 -9 -9t-9 9zM100 249v41q0 9 9 9t9 -9v-41q0 -9 -9 -9t-9 9zM100 309v41q0 9 9 9t9 -9v-41q0 -9 -9 -9t-9 9zM100 369 v41q0 9 9 9t9 -9v-41q0 -9 -9 -9t-9 9zM220 489v41q0 9 9 9t9 -9v-41q0 -9 -9 -9t-9 9zM520 129v41q0 9 9 9t9 -9v-41q0 -9 -9 -9t-9 9zM520 189v41q0 9 9 9t9 -9v-41q0 -9 -9 -9t-9 9zM520 249v41q0 9 9 9t9 -9v-41q0 -9 -9 -9t-9 9zM520 309v41q0 9 9 9t9 -9v-41 q0 -9 -9 -9t-9 9zM520 369v41q0 9 9 9t9 -9v-41q0 -9 -9 -9t-9 9zM280 489v41q0 9 9 9t9 -9v-41q0 -9 -9 -9t-9 9zM460 69v41q0 9 9 9t9 -9v-41q0 -9 -9 -9t-9 9zM460 429v41q0 9 9 9t9 -9v-41q0 -9 -9 -9t-9 9zM280 9v41q0 9 9 9t9 -9v-41q0 -9 -9 -9t-9 9zM220 9v41 q0 9 9 9t9 -9v-41q0 -9 -9 -9t-9 9zM340 489v41q0 9 9 9t9 -9v-41q0 -9 -9 -9t-9 9zM340 9v41q0 9 9 9t9 -9v-41q0 -9 -9 -9t-9 9zM400 489v41q0 9 9 9t9 -9v-41q0 -9 -9 -9t-9 9zM400 9v41q0 9 9 9t9 -9v-41q0 -9 -9 -9t-9 9zM400 129v41q0 9 9 9t9 -9v-41q0 -9 -9 -9t-9 9 zM400 189v41q0 9 9 9t9 -9v-41q0 -9 -9 -9t-9 9zM340 249v41q0 9 9 9t9 -9v-41q0 -9 -9 -9t-9 9zM400 309v41q0 9 9 9t9 -9v-41q0 -9 -9 -9t-9 9zM340 369v41q0 9 9 9t9 -9v-41q0 -9 -9 -9t-9 9zM280 249v41q0 9 9 9t9 -9v-41q0 -9 -9 -9t-9 9zM280 369v41q0 9 9 9t9 -9v-41 q0 -9 -9 -9t-9 9z" />
<glyph unicode="&#xaf;" horiz-adv-x="500" />
<glyph unicode="&#xb0;" horiz-adv-x="360" d="M160 309v41q0 9 9 9t9 -9v-41q0 -9 -9 -9t-9 9zM220 309v41q0 9 9 9t9 -9v-41q0 -9 -9 -9t-9 9zM160 489v41q0 9 9 9t9 -9v-41q0 -9 -9 -9t-9 9zM220 489v41q0 9 9 9t9 -9v-41q0 -9 -9 -9t-9 9zM280 429v41q0 9 9 9t9 -9v-41q0 -9 -9 -9t-9 9zM280 369v41q0 9 9 9t9 -9 v-41q0 -9 -9 -9t-9 9zM100 429v41q0 9 9 9t9 -9v-41q0 -9 -9 -9t-9 9zM100 369v41q0 9 9 9t9 -9v-41q0 -9 -9 -9t-9 9z" />
<glyph unicode="&#xb1;" d="M178 290v-41q0 -9 -9 -9t-9 9v41q0 9 9 9t9 -9zM118 290v-41q0 -9 -9 -9t-9 9v41q0 9 9 9t9 -9zM298 290v-41q0 -9 -9 -9t-9 9v41q0 9 9 9t9 -9zM238 290v-41q0 -9 -9 -9t-9 9v41q0 9 9 9t9 -9zM358 290v-41q0 -9 -9 -9t-9 9v41q0 9 9 9t9 -9zM418 290v-41q0 -9 -9 -9 t-9 9v41q0 9 9 9t9 -9zM478 290v-41q0 -9 -9 -9t-9 9v41q0 9 9 9t9 -9zM298 350v-41q0 -9 -9 -9t-9 9v41q0 9 9 9t9 -9zM298 410v-41q0 -9 -9 -9t-9 9v41q0 9 9 9t9 -9zM298 230v-41q0 -9 -9 -9t-9 9v41q0 9 9 9t9 -9zM298 170v-41q0 -9 -9 -9t-9 9v41q0 9 9 9t9 -9zM178 50 v-41q0 -9 -9 -9t-9 9v41q0 9 9 9t9 -9zM118 50v-41q0 -9 -9 -9t-9 9v41q0 9 9 9t9 -9zM238 50v-41q0 -9 -9 -9t-9 9v41q0 9 9 9t9 -9zM358 50v-41q0 -9 -9 -9t-9 9v41q0 9 9 9t9 -9zM298 50v-41q0 -9 -9 -9t-9 9v41q0 9 9 9t9 -9zM418 50v-41q0 -9 -9 -9t-9 9v41q0 9 9 9 t9 -9zM478 50v-41q0 -9 -9 -9t-9 9v41q0 9 9 9t9 -9z" />
<glyph unicode="&#xb2;" horiz-adv-x="500" />
<glyph unicode="&#xb3;" horiz-adv-x="500" />
<glyph unicode="&#xb4;" horiz-adv-x="300" d="M220 549v41q0 9 9 9t9 -9v-41q0 -9 -9 -9t-9 9zM160 489v41q0 9 9 9t9 -9v-41q0 -9 -9 -9t-9 9z" />
<glyph unicode="&#xb5;" d="M358 410v-41q0 -9 -9 -9t-9 9v41q0 9 9 9t9 -9zM358 350v-41q0 -9 -9 -9t-9 9v41q0 9 9 9t9 -9zM358 290v-41q0 -9 -9 -9t-9 9v41q0 9 9 9t9 -9zM358 230v-41q0 -9 -9 -9t-9 9v41q0 9 9 9t9 -9zM358 170v-41q0 -9 -9 -9t-9 9v41q0 9 9 9t9 -9zM358 110v-41q0 -9 -9 -9 t-9 9v41q0 9 9 9t9 -9zM358 50v-41q0 -9 -9 -9t-9 9v41q0 9 9 9t9 -9zM418 350v-41q0 -9 -9 -9t-9 9v41q0 9 9 9t9 -9zM418 290v-41q0 -9 -9 -9t-9 9v41q0 9 9 9t9 -9zM418 230v-41q0 -9 -9 -9t-9 9v41q0 9 9 9t9 -9zM418 170v-41q0 -9 -9 -9t-9 9v41q0 9 9 9t9 -9zM418 110 v-41q0 -9 -9 -9t-9 9v41q0 9 9 9t9 -9zM298 50v-41q0 -9 -9 -9t-9 9v41q0 9 9 9t9 -9zM178 410v-41q0 -9 -9 -9t-9 9v41q0 9 9 9t9 -9zM118 350v-41q0 -9 -9 -9t-9 9v41q0 9 9 9t9 -9zM118 290v-41q0 -9 -9 -9t-9 9v41q0 9 9 9t9 -9zM118 230v-41q0 -9 -9 -9t-9 9v41 q0 9 9 9t9 -9zM118 170v-41q0 -9 -9 -9t-9 9v41q0 9 9 9t9 -9zM118 110v-41q0 -9 -9 -9t-9 9v41q0 9 9 9t9 -9zM238 50v-41q0 -9 -9 -9t-9 9v41q0 9 9 9t9 -9zM178 350v-41q0 -9 -9 -9t-9 9v41q0 9 9 9t9 -9zM178 290v-41q0 -9 -9 -9t-9 9v41q0 9 9 9t9 -9zM178 230v-41 q0 -9 -9 -9t-9 9v41q0 9 9 9t9 -9zM178 170v-41q0 -9 -9 -9t-9 9v41q0 9 9 9t9 -9zM178 110v-41q0 -9 -9 -9t-9 9v41q0 9 9 9t9 -9zM178 50v-41q0 -9 -9 -9t-9 9v41q0 9 9 9t9 -9zM118 410v-41q0 -9 -9 -9t-9 9v41q0 9 9 9t9 -9zM418 410v-41q0 -9 -9 -9t-9 9v41q0 9 9 9 t9 -9zM418 50v-41q0 -9 -9 -9t-9 9v41q0 9 9 9t9 -9zM118 50v-41q0 -9 -9 -9t-9 9v41q0 9 9 9t9 -9zM118 -10v-41q0 -9 -9 -9t-9 9v41q0 9 9 9t9 -9zM118 -70v-41q0 -9 -9 -9t-9 9v41q0 9 9 9t9 -9zM178 -70v-41q0 -9 -9 -9t-9 9v41q0 9 9 9t9 -9zM178 -10v-41q0 -9 -9 -9 t-9 9v41q0 9 9 9t9 -9z" />
<glyph unicode="&#x3bc;" d="M358 410v-41q0 -9 -9 -9t-9 9v41q0 9 9 9t9 -9zM358 350v-41q0 -9 -9 -9t-9 9v41q0 9 9 9t9 -9zM358 290v-41q0 -9 -9 -9t-9 9v41q0 9 9 9t9 -9zM358 230v-41q0 -9 -9 -9t-9 9v41q0 9 9 9t9 -9zM358 170v-41q0 -9 -9 -9t-9 9v41q0 9 9 9t9 -9zM358 110v-41q0 -9 -9 -9 t-9 9v41q0 9 9 9t9 -9zM358 50v-41q0 -9 -9 -9t-9 9v41q0 9 9 9t9 -9zM418 350v-41q0 -9 -9 -9t-9 9v41q0 9 9 9t9 -9zM418 290v-41q0 -9 -9 -9t-9 9v41q0 9 9 9t9 -9zM418 230v-41q0 -9 -9 -9t-9 9v41q0 9 9 9t9 -9zM418 170v-41q0 -9 -9 -9t-9 9v41q0 9 9 9t9 -9zM418 110 v-41q0 -9 -9 -9t-9 9v41q0 9 9 9t9 -9zM298 50v-41q0 -9 -9 -9t-9 9v41q0 9 9 9t9 -9zM178 410v-41q0 -9 -9 -9t-9 9v41q0 9 9 9t9 -9zM118 350v-41q0 -9 -9 -9t-9 9v41q0 9 9 9t9 -9zM118 290v-41q0 -9 -9 -9t-9 9v41q0 9 9 9t9 -9zM118 230v-41q0 -9 -9 -9t-9 9v41 q0 9 9 9t9 -9zM118 170v-41q0 -9 -9 -9t-9 9v41q0 9 9 9t9 -9zM118 110v-41q0 -9 -9 -9t-9 9v41q0 9 9 9t9 -9zM238 50v-41q0 -9 -9 -9t-9 9v41q0 9 9 9t9 -9zM178 350v-41q0 -9 -9 -9t-9 9v41q0 9 9 9t9 -9zM178 290v-41q0 -9 -9 -9t-9 9v41q0 9 9 9t9 -9zM178 230v-41 q0 -9 -9 -9t-9 9v41q0 9 9 9t9 -9zM178 170v-41q0 -9 -9 -9t-9 9v41q0 9 9 9t9 -9zM178 110v-41q0 -9 -9 -9t-9 9v41q0 9 9 9t9 -9zM178 50v-41q0 -9 -9 -9t-9 9v41q0 9 9 9t9 -9zM118 410v-41q0 -9 -9 -9t-9 9v41q0 9 9 9t9 -9zM418 410v-41q0 -9 -9 -9t-9 9v41q0 9 9 9 t9 -9zM418 50v-41q0 -9 -9 -9t-9 9v41q0 9 9 9t9 -9zM118 50v-41q0 -9 -9 -9t-9 9v41q0 9 9 9t9 -9zM118 -10v-41q0 -9 -9 -9t-9 9v41q0 9 9 9t9 -9zM118 -70v-41q0 -9 -9 -9t-9 9v41q0 9 9 9t9 -9zM178 -70v-41q0 -9 -9 -9t-9 9v41q0 9 9 9t9 -9zM178 -10v-41q0 -9 -9 -9 t-9 9v41q0 9 9 9t9 -9z" />
<glyph unicode="&#xb6;" horiz-adv-x="540" d="M160 489v41q0 9 9 9t9 -9v-41q0 -9 -9 -9t-9 9zM160 429v41q0 9 9 9t9 -9v-41q0 -9 -9 -9t-9 9zM160 369v41q0 9 9 9t9 -9v-41q0 -9 -9 -9t-9 9zM160 309v41q0 9 9 9t9 -9v-41q0 -9 -9 -9t-9 9zM160 249v41q0 9 9 9t9 -9v-41q0 -9 -9 -9t-9 9zM100 429v41q0 9 9 9t9 -9 v-41q0 -9 -9 -9t-9 9zM100 369v41q0 9 9 9t9 -9v-41q0 -9 -9 -9t-9 9zM100 309v41q0 9 9 9t9 -9v-41q0 -9 -9 -9t-9 9zM460 489v41q0 9 9 9t9 -9v-41q0 -9 -9 -9t-9 9zM340 489v41q0 9 9 9t9 -9v-41q0 -9 -9 -9t-9 9zM460 429v41q0 9 9 9t9 -9v-41q0 -9 -9 -9t-9 9zM460 369 v41q0 9 9 9t9 -9v-41q0 -9 -9 -9t-9 9zM460 309v41q0 9 9 9t9 -9v-41q0 -9 -9 -9t-9 9zM460 249v41q0 9 9 9t9 -9v-41q0 -9 -9 -9t-9 9zM460 189v41q0 9 9 9t9 -9v-41q0 -9 -9 -9t-9 9zM460 129v41q0 9 9 9t9 -9v-41q0 -9 -9 -9t-9 9zM460 69v41q0 9 9 9t9 -9v-41 q0 -9 -9 -9t-9 9zM460 9v41q0 9 9 9t9 -9v-41q0 -9 -9 -9t-9 9zM340 429v41q0 9 9 9t9 -9v-41q0 -9 -9 -9t-9 9zM340 369v41q0 9 9 9t9 -9v-41q0 -9 -9 -9t-9 9zM340 309v41q0 9 9 9t9 -9v-41q0 -9 -9 -9t-9 9zM340 249v41q0 9 9 9t9 -9v-41q0 -9 -9 -9t-9 9zM340 189v41 q0 9 9 9t9 -9v-41q0 -9 -9 -9t-9 9zM340 129v41q0 9 9 9t9 -9v-41q0 -9 -9 -9t-9 9zM340 69v41q0 9 9 9t9 -9v-41q0 -9 -9 -9t-9 9zM340 9v41q0 9 9 9t9 -9v-41q0 -9 -9 -9t-9 9zM280 489v41q0 9 9 9t9 -9v-41q0 -9 -9 -9t-9 9zM220 489v41q0 9 9 9t9 -9v-41q0 -9 -9 -9 t-9 9zM220 249v41q0 9 9 9t9 -9v-41q0 -9 -9 -9t-9 9zM280 249v41q0 9 9 9t9 -9v-41q0 -9 -9 -9t-9 9zM400 489v41q0 9 9 9t9 -9v-41q0 -9 -9 -9t-9 9z" />
<glyph unicode="&#xb7;" horiz-adv-x="240" d="M118 310v-41q0 -9 -9 -9t-9 9v41q0 9 9 9t9 -9zM178 310v-41q0 -9 -9 -9t-9 9v41q0 9 9 9t9 -9zM118 250v-41q0 -9 -9 -9t-9 9v41q0 9 9 9t9 -9zM178 250v-41q0 -9 -9 -9t-9 9v41q0 9 9 9t9 -9z" />
<glyph unicode="&#xb8;" d="M220 -51v41q0 9 9 9t9 -9v-41q0 -9 -9 -9t-9 9zM280 -51v41q0 9 9 9t9 -9v-41q0 -9 -9 -9t-9 9zM220 -171v41q0 9 9 9t9 -9v-41q0 -9 -9 -9t-9 9zM280 -111v41q0 9 9 9t9 -9v-41q0 -9 -9 -9t-9 9z" />
<glyph unicode="&#xb9;" horiz-adv-x="500" />
<glyph unicode="&#xba;" horiz-adv-x="360" d="M160 249v41q0 9 9 9t9 -9v-41q0 -9 -9 -9t-9 9zM100 309v41q0 9 9 9t9 -9v-41q0 -9 -9 -9t-9 9zM100 369v41q0 9 9 9t9 -9v-41q0 -9 -9 -9t-9 9zM100 429v41q0 9 9 9t9 -9v-41q0 -9 -9 -9t-9 9zM220 249v41q0 9 9 9t9 -9v-41q0 -9 -9 -9t-9 9zM280 309v41q0 9 9 9t9 -9 v-41q0 -9 -9 -9t-9 9zM280 429v41q0 9 9 9t9 -9v-41q0 -9 -9 -9t-9 9zM220 489v41q0 9 9 9t9 -9v-41q0 -9 -9 -9t-9 9zM160 489v41q0 9 9 9t9 -9v-41q0 -9 -9 -9t-9 9zM280 369v41q0 9 9 9t9 -9v-41q0 -9 -9 -9t-9 9z" />
<glyph unicode="&#xbb;" d="M400 129v41q0 9 9 9t9 -9v-41q0 -9 -9 -9t-9 9zM340 69v41q0 9 9 9t9 -9v-41q0 -9 -9 -9t-9 9zM280 9v41q0 9 9 9t9 -9v-41q0 -9 -9 -9t-9 9zM460 189v41q0 9 9 9t9 -9v-41q0 -9 -9 -9t-9 9zM400 249v41q0 9 9 9t9 -9v-41q0 -9 -9 -9t-9 9zM340 309v41q0 9 9 9t9 -9v-41 q0 -9 -9 -9t-9 9zM280 369v41q0 9 9 9t9 -9v-41q0 -9 -9 -9t-9 9zM220 129v41q0 9 9 9t9 -9v-41q0 -9 -9 -9t-9 9zM160 69v41q0 9 9 9t9 -9v-41q0 -9 -9 -9t-9 9zM100 9v41q0 9 9 9t9 -9v-41q0 -9 -9 -9t-9 9zM280 189v41q0 9 9 9t9 -9v-41q0 -9 -9 -9t-9 9zM220 249v41 q0 9 9 9t9 -9v-41q0 -9 -9 -9t-9 9zM160 309v41q0 9 9 9t9 -9v-41q0 -9 -9 -9t-9 9zM100 369v41q0 9 9 9t9 -9v-41q0 -9 -9 -9t-9 9z" />
<glyph unicode="&#xbc;" horiz-adv-x="500" />
<glyph unicode="&#xbd;" horiz-adv-x="500" />
<glyph unicode="&#xbe;" horiz-adv-x="500" />
<glyph unicode="&#xbf;" d="M220 309v41q0 9 9 9t9 -9v-41q0 -9 -9 -9t-9 9zM280 249v41q0 9 9 9t9 -9v-41q0 -9 -9 -9t-9 9zM160 189v41q0 9 9 9t9 -9v-41q0 -9 -9 -9t-9 9zM160 129v41q0 9 9 9t9 -9v-41q0 -9 -9 -9t-9 9zM160 69v41q0 9 9 9t9 -9v-41q0 -9 -9 -9t-9 9zM160 9v41q0 9 9 9t9 -9v-41 q0 -9 -9 -9t-9 9zM280 309v41q0 9 9 9t9 -9v-41q0 -9 -9 -9t-9 9zM220 249v41q0 9 9 9t9 -9v-41q0 -9 -9 -9t-9 9zM220 189v41q0 9 9 9t9 -9v-41q0 -9 -9 -9t-9 9zM100 129v41q0 9 9 9t9 -9v-41q0 -9 -9 -9t-9 9zM100 69v41q0 9 9 9t9 -9v-41q0 -9 -9 -9t-9 9zM220 9v41 q0 9 9 9t9 -9v-41q0 -9 -9 -9t-9 9zM400 69v41q0 9 9 9t9 -9v-41q0 -9 -9 -9t-9 9zM280 9v41q0 9 9 9t9 -9v-41q0 -9 -9 -9t-9 9zM340 9v41q0 9 9 9t9 -9v-41q0 -9 -9 -9t-9 9zM280 489v41q0 9 9 9t9 -9v-41q0 -9 -9 -9t-9 9zM220 489v41q0 9 9 9t9 -9v-41q0 -9 -9 -9t-9 9z M280 429v41q0 9 9 9t9 -9v-41q0 -9 -9 -9t-9 9zM220 429v41q0 9 9 9t9 -9v-41q0 -9 -9 -9t-9 9z" />
<glyph unicode="&#xc0;" d="M358 530v-41q0 -9 -9 -9t-9 9v41q0 9 9 9t9 -9zM358 470v-41q0 -9 -9 -9t-9 9v41q0 9 9 9t9 -9zM358 410v-41q0 -9 -9 -9t-9 9v41q0 9 9 9t9 -9zM358 350v-41q0 -9 -9 -9t-9 9v41q0 9 9 9t9 -9zM358 290v-41q0 -9 -9 -9t-9 9v41q0 9 9 9t9 -9zM358 230v-41q0 -9 -9 -9 t-9 9v41q0 9 9 9t9 -9zM358 170v-41q0 -9 -9 -9t-9 9v41q0 9 9 9t9 -9zM358 110v-41q0 -9 -9 -9t-9 9v41q0 9 9 9t9 -9zM358 50v-41q0 -9 -9 -9t-9 9v41q0 9 9 9t9 -9zM418 470v-41q0 -9 -9 -9t-9 9v41q0 9 9 9t9 -9zM418 410v-41q0 -9 -9 -9t-9 9v41q0 9 9 9t9 -9zM418 350 v-41q0 -9 -9 -9t-9 9v41q0 9 9 9t9 -9zM418 290v-41q0 -9 -9 -9t-9 9v41q0 9 9 9t9 -9zM418 230v-41q0 -9 -9 -9t-9 9v41q0 9 9 9t9 -9zM418 170v-41q0 -9 -9 -9t-9 9v41q0 9 9 9t9 -9zM418 110v-41q0 -9 -9 -9t-9 9v41q0 9 9 9t9 -9zM418 50v-41q0 -9 -9 -9t-9 9v41 q0 9 9 9t9 -9zM178 530v-41q0 -9 -9 -9t-9 9v41q0 9 9 9t9 -9zM118 470v-41q0 -9 -9 -9t-9 9v41q0 9 9 9t9 -9zM118 410v-41q0 -9 -9 -9t-9 9v41q0 9 9 9t9 -9zM118 350v-41q0 -9 -9 -9t-9 9v41q0 9 9 9t9 -9zM118 290v-41q0 -9 -9 -9t-9 9v41q0 9 9 9t9 -9zM118 230v-41 q0 -9 -9 -9t-9 9v41q0 9 9 9t9 -9zM118 170v-41q0 -9 -9 -9t-9 9v41q0 9 9 9t9 -9zM118 110v-41q0 -9 -9 -9t-9 9v41q0 9 9 9t9 -9zM118 50v-41q0 -9 -9 -9t-9 9v41q0 9 9 9t9 -9zM178 470v-41q0 -9 -9 -9t-9 9v41q0 9 9 9t9 -9zM178 410v-41q0 -9 -9 -9t-9 9v41q0 9 9 9 t9 -9zM178 350v-41q0 -9 -9 -9t-9 9v41q0 9 9 9t9 -9zM178 290v-41q0 -9 -9 -9t-9 9v41q0 9 9 9t9 -9zM178 230v-41q0 -9 -9 -9t-9 9v41q0 9 9 9t9 -9zM178 170v-41q0 -9 -9 -9t-9 9v41q0 9 9 9t9 -9zM178 110v-41q0 -9 -9 -9t-9 9v41q0 9 9 9t9 -9zM178 50v-41q0 -9 -9 -9 t-9 9v41q0 9 9 9t9 -9zM238 530v-41q0 -9 -9 -9t-9 9v41q0 9 9 9t9 -9zM298 530v-41q0 -9 -9 -9t-9 9v41q0 9 9 9t9 -9zM298 290v-41q0 -9 -9 -9t-9 9v41q0 9 9 9t9 -9zM238 290v-41q0 -9 -9 -9t-9 9v41q0 9 9 9t9 -9zM238 710v-41q0 -9 -9 -9t-9 9v41q0 9 9 9t9 -9z M298 650v-41q0 -9 -9 -9t-9 9v41q0 9 9 9t9 -9z" />
<glyph unicode="&#xc1;" d="M358 530v-41q0 -9 -9 -9t-9 9v41q0 9 9 9t9 -9zM358 470v-41q0 -9 -9 -9t-9 9v41q0 9 9 9t9 -9zM358 410v-41q0 -9 -9 -9t-9 9v41q0 9 9 9t9 -9zM358 350v-41q0 -9 -9 -9t-9 9v41q0 9 9 9t9 -9zM358 290v-41q0 -9 -9 -9t-9 9v41q0 9 9 9t9 -9zM358 230v-41q0 -9 -9 -9 t-9 9v41q0 9 9 9t9 -9zM358 170v-41q0 -9 -9 -9t-9 9v41q0 9 9 9t9 -9zM358 110v-41q0 -9 -9 -9t-9 9v41q0 9 9 9t9 -9zM358 50v-41q0 -9 -9 -9t-9 9v41q0 9 9 9t9 -9zM418 470v-41q0 -9 -9 -9t-9 9v41q0 9 9 9t9 -9zM418 410v-41q0 -9 -9 -9t-9 9v41q0 9 9 9t9 -9zM418 350 v-41q0 -9 -9 -9t-9 9v41q0 9 9 9t9 -9zM418 290v-41q0 -9 -9 -9t-9 9v41q0 9 9 9t9 -9zM418 230v-41q0 -9 -9 -9t-9 9v41q0 9 9 9t9 -9zM418 170v-41q0 -9 -9 -9t-9 9v41q0 9 9 9t9 -9zM418 110v-41q0 -9 -9 -9t-9 9v41q0 9 9 9t9 -9zM418 50v-41q0 -9 -9 -9t-9 9v41 q0 9 9 9t9 -9zM178 530v-41q0 -9 -9 -9t-9 9v41q0 9 9 9t9 -9zM118 470v-41q0 -9 -9 -9t-9 9v41q0 9 9 9t9 -9zM118 410v-41q0 -9 -9 -9t-9 9v41q0 9 9 9t9 -9zM118 350v-41q0 -9 -9 -9t-9 9v41q0 9 9 9t9 -9zM118 290v-41q0 -9 -9 -9t-9 9v41q0 9 9 9t9 -9zM118 230v-41 q0 -9 -9 -9t-9 9v41q0 9 9 9t9 -9zM118 170v-41q0 -9 -9 -9t-9 9v41q0 9 9 9t9 -9zM118 110v-41q0 -9 -9 -9t-9 9v41q0 9 9 9t9 -9zM118 50v-41q0 -9 -9 -9t-9 9v41q0 9 9 9t9 -9zM178 470v-41q0 -9 -9 -9t-9 9v41q0 9 9 9t9 -9zM178 410v-41q0 -9 -9 -9t-9 9v41q0 9 9 9 t9 -9zM178 350v-41q0 -9 -9 -9t-9 9v41q0 9 9 9t9 -9zM178 290v-41q0 -9 -9 -9t-9 9v41q0 9 9 9t9 -9zM178 230v-41q0 -9 -9 -9t-9 9v41q0 9 9 9t9 -9zM178 170v-41q0 -9 -9 -9t-9 9v41q0 9 9 9t9 -9zM178 110v-41q0 -9 -9 -9t-9 9v41q0 9 9 9t9 -9zM178 50v-41q0 -9 -9 -9 t-9 9v41q0 9 9 9t9 -9zM238 530v-41q0 -9 -9 -9t-9 9v41q0 9 9 9t9 -9zM298 530v-41q0 -9 -9 -9t-9 9v41q0 9 9 9t9 -9zM298 290v-41q0 -9 -9 -9t-9 9v41q0 9 9 9t9 -9zM238 290v-41q0 -9 -9 -9t-9 9v41q0 9 9 9t9 -9zM280 669v41q0 9 9 9t9 -9v-41q0 -9 -9 -9t-9 9z M220 609v41q0 9 9 9t9 -9v-41q0 -9 -9 -9t-9 9z" />
<glyph unicode="&#xc2;" d="M358 530v-41q0 -9 -9 -9t-9 9v41q0 9 9 9t9 -9zM358 470v-41q0 -9 -9 -9t-9 9v41q0 9 9 9t9 -9zM358 410v-41q0 -9 -9 -9t-9 9v41q0 9 9 9t9 -9zM358 350v-41q0 -9 -9 -9t-9 9v41q0 9 9 9t9 -9zM358 290v-41q0 -9 -9 -9t-9 9v41q0 9 9 9t9 -9zM358 230v-41q0 -9 -9 -9 t-9 9v41q0 9 9 9t9 -9zM358 170v-41q0 -9 -9 -9t-9 9v41q0 9 9 9t9 -9zM358 110v-41q0 -9 -9 -9t-9 9v41q0 9 9 9t9 -9zM358 50v-41q0 -9 -9 -9t-9 9v41q0 9 9 9t9 -9zM418 470v-41q0 -9 -9 -9t-9 9v41q0 9 9 9t9 -9zM418 410v-41q0 -9 -9 -9t-9 9v41q0 9 9 9t9 -9zM418 350 v-41q0 -9 -9 -9t-9 9v41q0 9 9 9t9 -9zM418 290v-41q0 -9 -9 -9t-9 9v41q0 9 9 9t9 -9zM418 230v-41q0 -9 -9 -9t-9 9v41q0 9 9 9t9 -9zM418 170v-41q0 -9 -9 -9t-9 9v41q0 9 9 9t9 -9zM418 110v-41q0 -9 -9 -9t-9 9v41q0 9 9 9t9 -9zM418 50v-41q0 -9 -9 -9t-9 9v41 q0 9 9 9t9 -9zM178 530v-41q0 -9 -9 -9t-9 9v41q0 9 9 9t9 -9zM118 470v-41q0 -9 -9 -9t-9 9v41q0 9 9 9t9 -9zM118 410v-41q0 -9 -9 -9t-9 9v41q0 9 9 9t9 -9zM118 350v-41q0 -9 -9 -9t-9 9v41q0 9 9 9t9 -9zM118 290v-41q0 -9 -9 -9t-9 9v41q0 9 9 9t9 -9zM118 230v-41 q0 -9 -9 -9t-9 9v41q0 9 9 9t9 -9zM118 170v-41q0 -9 -9 -9t-9 9v41q0 9 9 9t9 -9zM118 110v-41q0 -9 -9 -9t-9 9v41q0 9 9 9t9 -9zM118 50v-41q0 -9 -9 -9t-9 9v41q0 9 9 9t9 -9zM178 470v-41q0 -9 -9 -9t-9 9v41q0 9 9 9t9 -9zM178 410v-41q0 -9 -9 -9t-9 9v41q0 9 9 9 t9 -9zM178 350v-41q0 -9 -9 -9t-9 9v41q0 9 9 9t9 -9zM178 290v-41q0 -9 -9 -9t-9 9v41q0 9 9 9t9 -9zM178 230v-41q0 -9 -9 -9t-9 9v41q0 9 9 9t9 -9zM178 170v-41q0 -9 -9 -9t-9 9v41q0 9 9 9t9 -9zM178 110v-41q0 -9 -9 -9t-9 9v41q0 9 9 9t9 -9zM178 50v-41q0 -9 -9 -9 t-9 9v41q0 9 9 9t9 -9zM238 530v-41q0 -9 -9 -9t-9 9v41q0 9 9 9t9 -9zM298 530v-41q0 -9 -9 -9t-9 9v41q0 9 9 9t9 -9zM298 290v-41q0 -9 -9 -9t-9 9v41q0 9 9 9t9 -9zM238 290v-41q0 -9 -9 -9t-9 9v41q0 9 9 9t9 -9zM160 609v41q0 9 9 9t9 -9v-41q0 -9 -9 -9t-9 9z M220 669v41q0 9 9 9t9 -9v-41q0 -9 -9 -9t-9 9zM280 669v41q0 9 9 9t9 -9v-41q0 -9 -9 -9t-9 9zM340 609v41q0 9 9 9t9 -9v-41q0 -9 -9 -9t-9 9z" />
<glyph unicode="&#xc3;" d="M358 530v-41q0 -9 -9 -9t-9 9v41q0 9 9 9t9 -9zM358 470v-41q0 -9 -9 -9t-9 9v41q0 9 9 9t9 -9zM358 410v-41q0 -9 -9 -9t-9 9v41q0 9 9 9t9 -9zM358 350v-41q0 -9 -9 -9t-9 9v41q0 9 9 9t9 -9zM358 290v-41q0 -9 -9 -9t-9 9v41q0 9 9 9t9 -9zM358 230v-41q0 -9 -9 -9 t-9 9v41q0 9 9 9t9 -9zM358 170v-41q0 -9 -9 -9t-9 9v41q0 9 9 9t9 -9zM358 110v-41q0 -9 -9 -9t-9 9v41q0 9 9 9t9 -9zM358 50v-41q0 -9 -9 -9t-9 9v41q0 9 9 9t9 -9zM418 470v-41q0 -9 -9 -9t-9 9v41q0 9 9 9t9 -9zM418 410v-41q0 -9 -9 -9t-9 9v41q0 9 9 9t9 -9zM418 350 v-41q0 -9 -9 -9t-9 9v41q0 9 9 9t9 -9zM418 290v-41q0 -9 -9 -9t-9 9v41q0 9 9 9t9 -9zM418 230v-41q0 -9 -9 -9t-9 9v41q0 9 9 9t9 -9zM418 170v-41q0 -9 -9 -9t-9 9v41q0 9 9 9t9 -9zM418 110v-41q0 -9 -9 -9t-9 9v41q0 9 9 9t9 -9zM418 50v-41q0 -9 -9 -9t-9 9v41 q0 9 9 9t9 -9zM178 530v-41q0 -9 -9 -9t-9 9v41q0 9 9 9t9 -9zM118 470v-41q0 -9 -9 -9t-9 9v41q0 9 9 9t9 -9zM118 410v-41q0 -9 -9 -9t-9 9v41q0 9 9 9t9 -9zM118 350v-41q0 -9 -9 -9t-9 9v41q0 9 9 9t9 -9zM118 290v-41q0 -9 -9 -9t-9 9v41q0 9 9 9t9 -9zM118 230v-41 q0 -9 -9 -9t-9 9v41q0 9 9 9t9 -9zM118 170v-41q0 -9 -9 -9t-9 9v41q0 9 9 9t9 -9zM118 110v-41q0 -9 -9 -9t-9 9v41q0 9 9 9t9 -9zM118 50v-41q0 -9 -9 -9t-9 9v41q0 9 9 9t9 -9zM178 470v-41q0 -9 -9 -9t-9 9v41q0 9 9 9t9 -9zM178 410v-41q0 -9 -9 -9t-9 9v41q0 9 9 9 t9 -9zM178 350v-41q0 -9 -9 -9t-9 9v41q0 9 9 9t9 -9zM178 290v-41q0 -9 -9 -9t-9 9v41q0 9 9 9t9 -9zM178 230v-41q0 -9 -9 -9t-9 9v41q0 9 9 9t9 -9zM178 170v-41q0 -9 -9 -9t-9 9v41q0 9 9 9t9 -9zM178 110v-41q0 -9 -9 -9t-9 9v41q0 9 9 9t9 -9zM178 50v-41q0 -9 -9 -9 t-9 9v41q0 9 9 9t9 -9zM238 530v-41q0 -9 -9 -9t-9 9v41q0 9 9 9t9 -9zM298 530v-41q0 -9 -9 -9t-9 9v41q0 9 9 9t9 -9zM298 290v-41q0 -9 -9 -9t-9 9v41q0 9 9 9t9 -9zM238 290v-41q0 -9 -9 -9t-9 9v41q0 9 9 9t9 -9zM100 609v41q0 9 9 9t9 -9v-41q0 -9 -9 -9t-9 9z M160 669v41q0 9 9 9t9 -9v-41q0 -9 -9 -9t-9 9zM220 669v41q0 9 9 9t9 -9v-41q0 -9 -9 -9t-9 9zM280 609v41q0 9 9 9t9 -9v-41q0 -9 -9 -9t-9 9zM340 609v41q0 9 9 9t9 -9v-41q0 -9 -9 -9t-9 9zM400 669v41q0 9 9 9t9 -9v-41q0 -9 -9 -9t-9 9z" />
<glyph unicode="&#xc4;" d="M358 530v-41q0 -9 -9 -9t-9 9v41q0 9 9 9t9 -9zM358 470v-41q0 -9 -9 -9t-9 9v41q0 9 9 9t9 -9zM358 410v-41q0 -9 -9 -9t-9 9v41q0 9 9 9t9 -9zM358 350v-41q0 -9 -9 -9t-9 9v41q0 9 9 9t9 -9zM358 290v-41q0 -9 -9 -9t-9 9v41q0 9 9 9t9 -9zM358 230v-41q0 -9 -9 -9 t-9 9v41q0 9 9 9t9 -9zM358 170v-41q0 -9 -9 -9t-9 9v41q0 9 9 9t9 -9zM358 110v-41q0 -9 -9 -9t-9 9v41q0 9 9 9t9 -9zM358 50v-41q0 -9 -9 -9t-9 9v41q0 9 9 9t9 -9zM418 470v-41q0 -9 -9 -9t-9 9v41q0 9 9 9t9 -9zM418 410v-41q0 -9 -9 -9t-9 9v41q0 9 9 9t9 -9zM418 350 v-41q0 -9 -9 -9t-9 9v41q0 9 9 9t9 -9zM418 290v-41q0 -9 -9 -9t-9 9v41q0 9 9 9t9 -9zM418 230v-41q0 -9 -9 -9t-9 9v41q0 9 9 9t9 -9zM418 170v-41q0 -9 -9 -9t-9 9v41q0 9 9 9t9 -9zM418 110v-41q0 -9 -9 -9t-9 9v41q0 9 9 9t9 -9zM418 50v-41q0 -9 -9 -9t-9 9v41 q0 9 9 9t9 -9zM178 530v-41q0 -9 -9 -9t-9 9v41q0 9 9 9t9 -9zM118 470v-41q0 -9 -9 -9t-9 9v41q0 9 9 9t9 -9zM118 410v-41q0 -9 -9 -9t-9 9v41q0 9 9 9t9 -9zM118 350v-41q0 -9 -9 -9t-9 9v41q0 9 9 9t9 -9zM118 290v-41q0 -9 -9 -9t-9 9v41q0 9 9 9t9 -9zM118 230v-41 q0 -9 -9 -9t-9 9v41q0 9 9 9t9 -9zM118 170v-41q0 -9 -9 -9t-9 9v41q0 9 9 9t9 -9zM118 110v-41q0 -9 -9 -9t-9 9v41q0 9 9 9t9 -9zM118 50v-41q0 -9 -9 -9t-9 9v41q0 9 9 9t9 -9zM178 470v-41q0 -9 -9 -9t-9 9v41q0 9 9 9t9 -9zM178 410v-41q0 -9 -9 -9t-9 9v41q0 9 9 9 t9 -9zM178 350v-41q0 -9 -9 -9t-9 9v41q0 9 9 9t9 -9zM178 290v-41q0 -9 -9 -9t-9 9v41q0 9 9 9t9 -9zM178 230v-41q0 -9 -9 -9t-9 9v41q0 9 9 9t9 -9zM178 170v-41q0 -9 -9 -9t-9 9v41q0 9 9 9t9 -9zM178 110v-41q0 -9 -9 -9t-9 9v41q0 9 9 9t9 -9zM178 50v-41q0 -9 -9 -9 t-9 9v41q0 9 9 9t9 -9zM238 530v-41q0 -9 -9 -9t-9 9v41q0 9 9 9t9 -9zM298 530v-41q0 -9 -9 -9t-9 9v41q0 9 9 9t9 -9zM298 290v-41q0 -9 -9 -9t-9 9v41q0 9 9 9t9 -9zM238 290v-41q0 -9 -9 -9t-9 9v41q0 9 9 9t9 -9zM340 609v41q0 9 9 9t9 -9v-41q0 -9 -9 -9t-9 9z M160 609v41q0 9 9 9t9 -9v-41q0 -9 -9 -9t-9 9z" />
<glyph unicode="&#xc5;" d="M358 530v-41q0 -9 -9 -9t-9 9v41q0 9 9 9t9 -9zM358 470v-41q0 -9 -9 -9t-9 9v41q0 9 9 9t9 -9zM358 410v-41q0 -9 -9 -9t-9 9v41q0 9 9 9t9 -9zM358 350v-41q0 -9 -9 -9t-9 9v41q0 9 9 9t9 -9zM358 290v-41q0 -9 -9 -9t-9 9v41q0 9 9 9t9 -9zM358 230v-41q0 -9 -9 -9 t-9 9v41q0 9 9 9t9 -9zM358 170v-41q0 -9 -9 -9t-9 9v41q0 9 9 9t9 -9zM358 110v-41q0 -9 -9 -9t-9 9v41q0 9 9 9t9 -9zM358 50v-41q0 -9 -9 -9t-9 9v41q0 9 9 9t9 -9zM418 470v-41q0 -9 -9 -9t-9 9v41q0 9 9 9t9 -9zM418 410v-41q0 -9 -9 -9t-9 9v41q0 9 9 9t9 -9zM418 350 v-41q0 -9 -9 -9t-9 9v41q0 9 9 9t9 -9zM418 290v-41q0 -9 -9 -9t-9 9v41q0 9 9 9t9 -9zM418 230v-41q0 -9 -9 -9t-9 9v41q0 9 9 9t9 -9zM418 170v-41q0 -9 -9 -9t-9 9v41q0 9 9 9t9 -9zM418 110v-41q0 -9 -9 -9t-9 9v41q0 9 9 9t9 -9zM418 50v-41q0 -9 -9 -9t-9 9v41 q0 9 9 9t9 -9zM178 530v-41q0 -9 -9 -9t-9 9v41q0 9 9 9t9 -9zM118 470v-41q0 -9 -9 -9t-9 9v41q0 9 9 9t9 -9zM118 410v-41q0 -9 -9 -9t-9 9v41q0 9 9 9t9 -9zM118 350v-41q0 -9 -9 -9t-9 9v41q0 9 9 9t9 -9zM118 290v-41q0 -9 -9 -9t-9 9v41q0 9 9 9t9 -9zM118 230v-41 q0 -9 -9 -9t-9 9v41q0 9 9 9t9 -9zM118 170v-41q0 -9 -9 -9t-9 9v41q0 9 9 9t9 -9zM118 110v-41q0 -9 -9 -9t-9 9v41q0 9 9 9t9 -9zM118 50v-41q0 -9 -9 -9t-9 9v41q0 9 9 9t9 -9zM178 470v-41q0 -9 -9 -9t-9 9v41q0 9 9 9t9 -9zM178 410v-41q0 -9 -9 -9t-9 9v41q0 9 9 9 t9 -9zM178 350v-41q0 -9 -9 -9t-9 9v41q0 9 9 9t9 -9zM178 290v-41q0 -9 -9 -9t-9 9v41q0 9 9 9t9 -9zM178 230v-41q0 -9 -9 -9t-9 9v41q0 9 9 9t9 -9zM178 170v-41q0 -9 -9 -9t-9 9v41q0 9 9 9t9 -9zM178 110v-41q0 -9 -9 -9t-9 9v41q0 9 9 9t9 -9zM178 50v-41q0 -9 -9 -9 t-9 9v41q0 9 9 9t9 -9zM238 530v-41q0 -9 -9 -9t-9 9v41q0 9 9 9t9 -9zM298 530v-41q0 -9 -9 -9t-9 9v41q0 9 9 9t9 -9zM298 290v-41q0 -9 -9 -9t-9 9v41q0 9 9 9t9 -9zM238 290v-41q0 -9 -9 -9t-9 9v41q0 9 9 9t9 -9zM220 669v41q0 9 9 9t9 -9v-41q0 -9 -9 -9t-9 9z M280 669v41q0 9 9 9t9 -9v-41q0 -9 -9 -9t-9 9zM340 609v41q0 9 9 9t9 -9v-41q0 -9 -9 -9t-9 9zM340 549v41q0 9 9 9t9 -9v-41q0 -9 -9 -9t-9 9zM160 609v41q0 9 9 9t9 -9v-41q0 -9 -9 -9t-9 9zM160 549v41q0 9 9 9t9 -9v-41q0 -9 -9 -9t-9 9z" />
<glyph unicode="&#xc6;" horiz-adv-x="660" d="M178 530v-41q0 -9 -9 -9t-9 9v41q0 9 9 9t9 -9zM118 470v-41q0 -9 -9 -9t-9 9v41q0 9 9 9t9 -9zM118 410v-41q0 -9 -9 -9t-9 9v41q0 9 9 9t9 -9zM118 350v-41q0 -9 -9 -9t-9 9v41q0 9 9 9t9 -9zM118 290v-41q0 -9 -9 -9t-9 9v41q0 9 9 9t9 -9zM118 230v-41q0 -9 -9 -9 t-9 9v41q0 9 9 9t9 -9zM118 170v-41q0 -9 -9 -9t-9 9v41q0 9 9 9t9 -9zM118 110v-41q0 -9 -9 -9t-9 9v41q0 9 9 9t9 -9zM118 50v-41q0 -9 -9 -9t-9 9v41q0 9 9 9t9 -9zM178 470v-41q0 -9 -9 -9t-9 9v41q0 9 9 9t9 -9zM178 410v-41q0 -9 -9 -9t-9 9v41q0 9 9 9t9 -9zM178 350 v-41q0 -9 -9 -9t-9 9v41q0 9 9 9t9 -9zM178 290v-41q0 -9 -9 -9t-9 9v41q0 9 9 9t9 -9zM178 230v-41q0 -9 -9 -9t-9 9v41q0 9 9 9t9 -9zM178 170v-41q0 -9 -9 -9t-9 9v41q0 9 9 9t9 -9zM178 110v-41q0 -9 -9 -9t-9 9v41q0 9 9 9t9 -9zM178 50v-41q0 -9 -9 -9t-9 9v41 q0 9 9 9t9 -9zM238 530v-41q0 -9 -9 -9t-9 9v41q0 9 9 9t9 -9zM298 530v-41q0 -9 -9 -9t-9 9v41q0 9 9 9t9 -9zM298 290v-41q0 -9 -9 -9t-9 9v41q0 9 9 9t9 -9zM238 290v-41q0 -9 -9 -9t-9 9v41q0 9 9 9t9 -9zM598 50v-41q0 -9 -9 -9t-9 9v41q0 9 9 9t9 -9zM418 530v-41 q0 -9 -9 -9t-9 9v41q0 9 9 9t9 -9zM358 470v-41q0 -9 -9 -9t-9 9v41q0 9 9 9t9 -9zM358 410v-41q0 -9 -9 -9t-9 9v41q0 9 9 9t9 -9zM358 350v-41q0 -9 -9 -9t-9 9v41q0 9 9 9t9 -9zM358 290v-41q0 -9 -9 -9t-9 9v41q0 9 9 9t9 -9zM358 230v-41q0 -9 -9 -9t-9 9v41q0 9 9 9 t9 -9zM358 170v-41q0 -9 -9 -9t-9 9v41q0 9 9 9t9 -9zM358 110v-41q0 -9 -9 -9t-9 9v41q0 9 9 9t9 -9zM358 50v-41q0 -9 -9 -9t-9 9v41q0 9 9 9t9 -9zM418 470v-41q0 -9 -9 -9t-9 9v41q0 9 9 9t9 -9zM418 410v-41q0 -9 -9 -9t-9 9v41q0 9 9 9t9 -9zM418 350v-41q0 -9 -9 -9 t-9 9v41q0 9 9 9t9 -9zM418 290v-41q0 -9 -9 -9t-9 9v41q0 9 9 9t9 -9zM418 230v-41q0 -9 -9 -9t-9 9v41q0 9 9 9t9 -9zM418 170v-41q0 -9 -9 -9t-9 9v41q0 9 9 9t9 -9zM418 110v-41q0 -9 -9 -9t-9 9v41q0 9 9 9t9 -9zM418 50v-41q0 -9 -9 -9t-9 9v41q0 9 9 9t9 -9zM358 530 v-41q0 -9 -9 -9t-9 9v41q0 9 9 9t9 -9zM538 50v-41q0 -9 -9 -9t-9 9v41q0 9 9 9t9 -9zM478 50v-41q0 -9 -9 -9t-9 9v41q0 9 9 9t9 -9zM538 290v-41q0 -9 -9 -9t-9 9v41q0 9 9 9t9 -9zM478 290v-41q0 -9 -9 -9t-9 9v41q0 9 9 9t9 -9zM538 530v-41q0 -9 -9 -9t-9 9v41q0 9 9 9 t9 -9zM478 530v-41q0 -9 -9 -9t-9 9v41q0 9 9 9t9 -9zM598 530v-41q0 -9 -9 -9t-9 9v41q0 9 9 9t9 -9z" />
<glyph unicode="&#xc7;" d="M160 9v41q0 9 9 9t9 -9v-41q0 -9 -9 -9t-9 9zM160 69v41q0 9 9 9t9 -9v-41q0 -9 -9 -9t-9 9zM160 129v41q0 9 9 9t9 -9v-41q0 -9 -9 -9t-9 9zM160 189v41q0 9 9 9t9 -9v-41q0 -9 -9 -9t-9 9zM160 249v41q0 9 9 9t9 -9v-41q0 -9 -9 -9t-9 9zM160 309v41q0 9 9 9t9 -9v-41 q0 -9 -9 -9t-9 9zM160 369v41q0 9 9 9t9 -9v-41q0 -9 -9 -9t-9 9zM160 429v41q0 9 9 9t9 -9v-41q0 -9 -9 -9t-9 9zM160 489v41q0 9 9 9t9 -9v-41q0 -9 -9 -9t-9 9zM100 69v41q0 9 9 9t9 -9v-41q0 -9 -9 -9t-9 9zM100 129v41q0 9 9 9t9 -9v-41q0 -9 -9 -9t-9 9zM100 189v41 q0 9 9 9t9 -9v-41q0 -9 -9 -9t-9 9zM100 249v41q0 9 9 9t9 -9v-41q0 -9 -9 -9t-9 9zM100 309v41q0 9 9 9t9 -9v-41q0 -9 -9 -9t-9 9zM100 369v41q0 9 9 9t9 -9v-41q0 -9 -9 -9t-9 9zM100 429v41q0 9 9 9t9 -9v-41q0 -9 -9 -9t-9 9zM220 489v41q0 9 9 9t9 -9v-41q0 -9 -9 -9 t-9 9zM340 9v41q0 9 9 9t9 -9v-41q0 -9 -9 -9t-9 9zM400 69v41q0 9 9 9t9 -9v-41q0 -9 -9 -9t-9 9zM400 429v41q0 9 9 9t9 -9v-41q0 -9 -9 -9t-9 9zM280 489v41q0 9 9 9t9 -9v-41q0 -9 -9 -9t-9 9zM340 489v41q0 9 9 9t9 -9v-41q0 -9 -9 -9t-9 9zM280 9v41q0 9 9 9t9 -9v-41 q0 -9 -9 -9t-9 9zM220 9v41q0 9 9 9t9 -9v-41q0 -9 -9 -9t-9 9zM220 -51v41q0 9 9 9t9 -9v-41q0 -9 -9 -9t-9 9zM280 -51v41q0 9 9 9t9 -9v-41q0 -9 -9 -9t-9 9zM220 -171v41q0 9 9 9t9 -9v-41q0 -9 -9 -9t-9 9zM280 -111v41q0 9 9 9t9 -9v-41q0 -9 -9 -9t-9 9z" />
<glyph unicode="&#xc8;" horiz-adv-x="420" d="M358 50v-41q0 -9 -9 -9t-9 9v41q0 9 9 9t9 -9zM178 530v-41q0 -9 -9 -9t-9 9v41q0 9 9 9t9 -9zM118 470v-41q0 -9 -9 -9t-9 9v41q0 9 9 9t9 -9zM118 410v-41q0 -9 -9 -9t-9 9v41q0 9 9 9t9 -9zM118 350v-41q0 -9 -9 -9t-9 9v41q0 9 9 9t9 -9zM118 290v-41q0 -9 -9 -9 t-9 9v41q0 9 9 9t9 -9zM118 230v-41q0 -9 -9 -9t-9 9v41q0 9 9 9t9 -9zM118 170v-41q0 -9 -9 -9t-9 9v41q0 9 9 9t9 -9zM118 110v-41q0 -9 -9 -9t-9 9v41q0 9 9 9t9 -9zM118 50v-41q0 -9 -9 -9t-9 9v41q0 9 9 9t9 -9zM178 470v-41q0 -9 -9 -9t-9 9v41q0 9 9 9t9 -9zM178 410 v-41q0 -9 -9 -9t-9 9v41q0 9 9 9t9 -9zM178 350v-41q0 -9 -9 -9t-9 9v41q0 9 9 9t9 -9zM178 290v-41q0 -9 -9 -9t-9 9v41q0 9 9 9t9 -9zM178 230v-41q0 -9 -9 -9t-9 9v41q0 9 9 9t9 -9zM178 170v-41q0 -9 -9 -9t-9 9v41q0 9 9 9t9 -9zM178 110v-41q0 -9 -9 -9t-9 9v41 q0 9 9 9t9 -9zM178 50v-41q0 -9 -9 -9t-9 9v41q0 9 9 9t9 -9zM118 530v-41q0 -9 -9 -9t-9 9v41q0 9 9 9t9 -9zM298 50v-41q0 -9 -9 -9t-9 9v41q0 9 9 9t9 -9zM238 50v-41q0 -9 -9 -9t-9 9v41q0 9 9 9t9 -9zM298 290v-41q0 -9 -9 -9t-9 9v41q0 9 9 9t9 -9zM238 290v-41 q0 -9 -9 -9t-9 9v41q0 9 9 9t9 -9zM298 530v-41q0 -9 -9 -9t-9 9v41q0 9 9 9t9 -9zM238 530v-41q0 -9 -9 -9t-9 9v41q0 9 9 9t9 -9zM358 530v-41q0 -9 -9 -9t-9 9v41q0 9 9 9t9 -9zM178 710v-41q0 -9 -9 -9t-9 9v41q0 9 9 9t9 -9zM238 650v-41q0 -9 -9 -9t-9 9v41q0 9 9 9 t9 -9z" />
<glyph unicode="&#xc9;" horiz-adv-x="420" d="M358 50v-41q0 -9 -9 -9t-9 9v41q0 9 9 9t9 -9zM178 530v-41q0 -9 -9 -9t-9 9v41q0 9 9 9t9 -9zM118 470v-41q0 -9 -9 -9t-9 9v41q0 9 9 9t9 -9zM118 410v-41q0 -9 -9 -9t-9 9v41q0 9 9 9t9 -9zM118 350v-41q0 -9 -9 -9t-9 9v41q0 9 9 9t9 -9zM118 290v-41q0 -9 -9 -9 t-9 9v41q0 9 9 9t9 -9zM118 230v-41q0 -9 -9 -9t-9 9v41q0 9 9 9t9 -9zM118 170v-41q0 -9 -9 -9t-9 9v41q0 9 9 9t9 -9zM118 110v-41q0 -9 -9 -9t-9 9v41q0 9 9 9t9 -9zM118 50v-41q0 -9 -9 -9t-9 9v41q0 9 9 9t9 -9zM178 470v-41q0 -9 -9 -9t-9 9v41q0 9 9 9t9 -9zM178 410 v-41q0 -9 -9 -9t-9 9v41q0 9 9 9t9 -9zM178 350v-41q0 -9 -9 -9t-9 9v41q0 9 9 9t9 -9zM178 290v-41q0 -9 -9 -9t-9 9v41q0 9 9 9t9 -9zM178 230v-41q0 -9 -9 -9t-9 9v41q0 9 9 9t9 -9zM178 170v-41q0 -9 -9 -9t-9 9v41q0 9 9 9t9 -9zM178 110v-41q0 -9 -9 -9t-9 9v41 q0 9 9 9t9 -9zM178 50v-41q0 -9 -9 -9t-9 9v41q0 9 9 9t9 -9zM118 530v-41q0 -9 -9 -9t-9 9v41q0 9 9 9t9 -9zM298 50v-41q0 -9 -9 -9t-9 9v41q0 9 9 9t9 -9zM238 50v-41q0 -9 -9 -9t-9 9v41q0 9 9 9t9 -9zM298 290v-41q0 -9 -9 -9t-9 9v41q0 9 9 9t9 -9zM238 290v-41 q0 -9 -9 -9t-9 9v41q0 9 9 9t9 -9zM298 530v-41q0 -9 -9 -9t-9 9v41q0 9 9 9t9 -9zM238 530v-41q0 -9 -9 -9t-9 9v41q0 9 9 9t9 -9zM358 530v-41q0 -9 -9 -9t-9 9v41q0 9 9 9t9 -9zM220 669v41q0 9 9 9t9 -9v-41q0 -9 -9 -9t-9 9zM160 609v41q0 9 9 9t9 -9v-41q0 -9 -9 -9 t-9 9z" />
<glyph unicode="&#xca;" horiz-adv-x="420" d="M358 50v-41q0 -9 -9 -9t-9 9v41q0 9 9 9t9 -9zM178 530v-41q0 -9 -9 -9t-9 9v41q0 9 9 9t9 -9zM118 470v-41q0 -9 -9 -9t-9 9v41q0 9 9 9t9 -9zM118 410v-41q0 -9 -9 -9t-9 9v41q0 9 9 9t9 -9zM118 350v-41q0 -9 -9 -9t-9 9v41q0 9 9 9t9 -9zM118 290v-41q0 -9 -9 -9 t-9 9v41q0 9 9 9t9 -9zM118 230v-41q0 -9 -9 -9t-9 9v41q0 9 9 9t9 -9zM118 170v-41q0 -9 -9 -9t-9 9v41q0 9 9 9t9 -9zM118 110v-41q0 -9 -9 -9t-9 9v41q0 9 9 9t9 -9zM118 50v-41q0 -9 -9 -9t-9 9v41q0 9 9 9t9 -9zM178 470v-41q0 -9 -9 -9t-9 9v41q0 9 9 9t9 -9zM178 410 v-41q0 -9 -9 -9t-9 9v41q0 9 9 9t9 -9zM178 350v-41q0 -9 -9 -9t-9 9v41q0 9 9 9t9 -9zM178 290v-41q0 -9 -9 -9t-9 9v41q0 9 9 9t9 -9zM178 230v-41q0 -9 -9 -9t-9 9v41q0 9 9 9t9 -9zM178 170v-41q0 -9 -9 -9t-9 9v41q0 9 9 9t9 -9zM178 110v-41q0 -9 -9 -9t-9 9v41 q0 9 9 9t9 -9zM178 50v-41q0 -9 -9 -9t-9 9v41q0 9 9 9t9 -9zM118 530v-41q0 -9 -9 -9t-9 9v41q0 9 9 9t9 -9zM298 50v-41q0 -9 -9 -9t-9 9v41q0 9 9 9t9 -9zM238 50v-41q0 -9 -9 -9t-9 9v41q0 9 9 9t9 -9zM298 290v-41q0 -9 -9 -9t-9 9v41q0 9 9 9t9 -9zM238 290v-41 q0 -9 -9 -9t-9 9v41q0 9 9 9t9 -9zM298 530v-41q0 -9 -9 -9t-9 9v41q0 9 9 9t9 -9zM238 530v-41q0 -9 -9 -9t-9 9v41q0 9 9 9t9 -9zM358 530v-41q0 -9 -9 -9t-9 9v41q0 9 9 9t9 -9zM100 609v41q0 9 9 9t9 -9v-41q0 -9 -9 -9t-9 9zM160 669v41q0 9 9 9t9 -9v-41q0 -9 -9 -9 t-9 9zM220 669v41q0 9 9 9t9 -9v-41q0 -9 -9 -9t-9 9zM280 609v41q0 9 9 9t9 -9v-41q0 -9 -9 -9t-9 9z" />
<glyph unicode="&#xcb;" horiz-adv-x="420" d="M358 50v-41q0 -9 -9 -9t-9 9v41q0 9 9 9t9 -9zM178 530v-41q0 -9 -9 -9t-9 9v41q0 9 9 9t9 -9zM118 470v-41q0 -9 -9 -9t-9 9v41q0 9 9 9t9 -9zM118 410v-41q0 -9 -9 -9t-9 9v41q0 9 9 9t9 -9zM118 350v-41q0 -9 -9 -9t-9 9v41q0 9 9 9t9 -9zM118 290v-41q0 -9 -9 -9 t-9 9v41q0 9 9 9t9 -9zM118 230v-41q0 -9 -9 -9t-9 9v41q0 9 9 9t9 -9zM118 170v-41q0 -9 -9 -9t-9 9v41q0 9 9 9t9 -9zM118 110v-41q0 -9 -9 -9t-9 9v41q0 9 9 9t9 -9zM118 50v-41q0 -9 -9 -9t-9 9v41q0 9 9 9t9 -9zM178 470v-41q0 -9 -9 -9t-9 9v41q0 9 9 9t9 -9zM178 410 v-41q0 -9 -9 -9t-9 9v41q0 9 9 9t9 -9zM178 350v-41q0 -9 -9 -9t-9 9v41q0 9 9 9t9 -9zM178 290v-41q0 -9 -9 -9t-9 9v41q0 9 9 9t9 -9zM178 230v-41q0 -9 -9 -9t-9 9v41q0 9 9 9t9 -9zM178 170v-41q0 -9 -9 -9t-9 9v41q0 9 9 9t9 -9zM178 110v-41q0 -9 -9 -9t-9 9v41 q0 9 9 9t9 -9zM178 50v-41q0 -9 -9 -9t-9 9v41q0 9 9 9t9 -9zM118 530v-41q0 -9 -9 -9t-9 9v41q0 9 9 9t9 -9zM298 50v-41q0 -9 -9 -9t-9 9v41q0 9 9 9t9 -9zM238 50v-41q0 -9 -9 -9t-9 9v41q0 9 9 9t9 -9zM298 290v-41q0 -9 -9 -9t-9 9v41q0 9 9 9t9 -9zM238 290v-41 q0 -9 -9 -9t-9 9v41q0 9 9 9t9 -9zM298 530v-41q0 -9 -9 -9t-9 9v41q0 9 9 9t9 -9zM238 530v-41q0 -9 -9 -9t-9 9v41q0 9 9 9t9 -9zM358 530v-41q0 -9 -9 -9t-9 9v41q0 9 9 9t9 -9zM280 609v41q0 9 9 9t9 -9v-41q0 -9 -9 -9t-9 9zM100 609v41q0 9 9 9t9 -9v-41q0 -9 -9 -9 t-9 9z" />
<glyph unicode="&#xcc;" horiz-adv-x="240" d="M178 530v-41q0 -9 -9 -9t-9 9v41q0 9 9 9t9 -9zM118 470v-41q0 -9 -9 -9t-9 9v41q0 9 9 9t9 -9zM118 410v-41q0 -9 -9 -9t-9 9v41q0 9 9 9t9 -9zM118 350v-41q0 -9 -9 -9t-9 9v41q0 9 9 9t9 -9zM118 290v-41q0 -9 -9 -9t-9 9v41q0 9 9 9t9 -9zM118 230v-41q0 -9 -9 -9 t-9 9v41q0 9 9 9t9 -9zM118 170v-41q0 -9 -9 -9t-9 9v41q0 9 9 9t9 -9zM118 110v-41q0 -9 -9 -9t-9 9v41q0 9 9 9t9 -9zM118 50v-41q0 -9 -9 -9t-9 9v41q0 9 9 9t9 -9zM178 470v-41q0 -9 -9 -9t-9 9v41q0 9 9 9t9 -9zM178 410v-41q0 -9 -9 -9t-9 9v41q0 9 9 9t9 -9zM178 350 v-41q0 -9 -9 -9t-9 9v41q0 9 9 9t9 -9zM178 290v-41q0 -9 -9 -9t-9 9v41q0 9 9 9t9 -9zM178 230v-41q0 -9 -9 -9t-9 9v41q0 9 9 9t9 -9zM178 170v-41q0 -9 -9 -9t-9 9v41q0 9 9 9t9 -9zM178 110v-41q0 -9 -9 -9t-9 9v41q0 9 9 9t9 -9zM178 50v-41q0 -9 -9 -9t-9 9v41 q0 9 9 9t9 -9zM118 530v-41q0 -9 -9 -9t-9 9v41q0 9 9 9t9 -9zM118 710v-41q0 -9 -9 -9t-9 9v41q0 9 9 9t9 -9zM178 650v-41q0 -9 -9 -9t-9 9v41q0 9 9 9t9 -9z" />
<glyph unicode="&#xcd;" horiz-adv-x="240" d="M178 530v-41q0 -9 -9 -9t-9 9v41q0 9 9 9t9 -9zM118 470v-41q0 -9 -9 -9t-9 9v41q0 9 9 9t9 -9zM118 410v-41q0 -9 -9 -9t-9 9v41q0 9 9 9t9 -9zM118 350v-41q0 -9 -9 -9t-9 9v41q0 9 9 9t9 -9zM118 290v-41q0 -9 -9 -9t-9 9v41q0 9 9 9t9 -9zM118 230v-41q0 -9 -9 -9 t-9 9v41q0 9 9 9t9 -9zM118 170v-41q0 -9 -9 -9t-9 9v41q0 9 9 9t9 -9zM118 110v-41q0 -9 -9 -9t-9 9v41q0 9 9 9t9 -9zM118 50v-41q0 -9 -9 -9t-9 9v41q0 9 9 9t9 -9zM178 470v-41q0 -9 -9 -9t-9 9v41q0 9 9 9t9 -9zM178 410v-41q0 -9 -9 -9t-9 9v41q0 9 9 9t9 -9zM178 350 v-41q0 -9 -9 -9t-9 9v41q0 9 9 9t9 -9zM178 290v-41q0 -9 -9 -9t-9 9v41q0 9 9 9t9 -9zM178 230v-41q0 -9 -9 -9t-9 9v41q0 9 9 9t9 -9zM178 170v-41q0 -9 -9 -9t-9 9v41q0 9 9 9t9 -9zM178 110v-41q0 -9 -9 -9t-9 9v41q0 9 9 9t9 -9zM178 50v-41q0 -9 -9 -9t-9 9v41 q0 9 9 9t9 -9zM118 530v-41q0 -9 -9 -9t-9 9v41q0 9 9 9t9 -9zM160 669v41q0 9 9 9t9 -9v-41q0 -9 -9 -9t-9 9zM100 609v41q0 9 9 9t9 -9v-41q0 -9 -9 -9t-9 9z" />
<glyph unicode="&#xce;" horiz-adv-x="240" d="M178 530v-41q0 -9 -9 -9t-9 9v41q0 9 9 9t9 -9zM118 470v-41q0 -9 -9 -9t-9 9v41q0 9 9 9t9 -9zM118 410v-41q0 -9 -9 -9t-9 9v41q0 9 9 9t9 -9zM118 350v-41q0 -9 -9 -9t-9 9v41q0 9 9 9t9 -9zM118 290v-41q0 -9 -9 -9t-9 9v41q0 9 9 9t9 -9zM118 230v-41q0 -9 -9 -9 t-9 9v41q0 9 9 9t9 -9zM118 170v-41q0 -9 -9 -9t-9 9v41q0 9 9 9t9 -9zM118 110v-41q0 -9 -9 -9t-9 9v41q0 9 9 9t9 -9zM118 50v-41q0 -9 -9 -9t-9 9v41q0 9 9 9t9 -9zM178 470v-41q0 -9 -9 -9t-9 9v41q0 9 9 9t9 -9zM178 410v-41q0 -9 -9 -9t-9 9v41q0 9 9 9t9 -9zM178 350 v-41q0 -9 -9 -9t-9 9v41q0 9 9 9t9 -9zM178 290v-41q0 -9 -9 -9t-9 9v41q0 9 9 9t9 -9zM178 230v-41q0 -9 -9 -9t-9 9v41q0 9 9 9t9 -9zM178 170v-41q0 -9 -9 -9t-9 9v41q0 9 9 9t9 -9zM178 110v-41q0 -9 -9 -9t-9 9v41q0 9 9 9t9 -9zM178 50v-41q0 -9 -9 -9t-9 9v41 q0 9 9 9t9 -9zM118 530v-41q0 -9 -9 -9t-9 9v41q0 9 9 9t9 -9zM40 609v41q0 9 9 9t9 -9v-41q0 -9 -9 -9t-9 9zM100 669v41q0 9 9 9t9 -9v-41q0 -9 -9 -9t-9 9zM160 669v41q0 9 9 9t9 -9v-41q0 -9 -9 -9t-9 9zM220 609v41q0 9 9 9t9 -9v-41q0 -9 -9 -9t-9 9z" />
<glyph unicode="&#xcf;" horiz-adv-x="240" d="M178 530v-41q0 -9 -9 -9t-9 9v41q0 9 9 9t9 -9zM118 470v-41q0 -9 -9 -9t-9 9v41q0 9 9 9t9 -9zM118 410v-41q0 -9 -9 -9t-9 9v41q0 9 9 9t9 -9zM118 350v-41q0 -9 -9 -9t-9 9v41q0 9 9 9t9 -9zM118 290v-41q0 -9 -9 -9t-9 9v41q0 9 9 9t9 -9zM118 230v-41q0 -9 -9 -9 t-9 9v41q0 9 9 9t9 -9zM118 170v-41q0 -9 -9 -9t-9 9v41q0 9 9 9t9 -9zM118 110v-41q0 -9 -9 -9t-9 9v41q0 9 9 9t9 -9zM118 50v-41q0 -9 -9 -9t-9 9v41q0 9 9 9t9 -9zM178 470v-41q0 -9 -9 -9t-9 9v41q0 9 9 9t9 -9zM178 410v-41q0 -9 -9 -9t-9 9v41q0 9 9 9t9 -9zM178 350 v-41q0 -9 -9 -9t-9 9v41q0 9 9 9t9 -9zM178 290v-41q0 -9 -9 -9t-9 9v41q0 9 9 9t9 -9zM178 230v-41q0 -9 -9 -9t-9 9v41q0 9 9 9t9 -9zM178 170v-41q0 -9 -9 -9t-9 9v41q0 9 9 9t9 -9zM178 110v-41q0 -9 -9 -9t-9 9v41q0 9 9 9t9 -9zM178 50v-41q0 -9 -9 -9t-9 9v41 q0 9 9 9t9 -9zM118 530v-41q0 -9 -9 -9t-9 9v41q0 9 9 9t9 -9zM220 609v41q0 9 9 9t9 -9v-41q0 -9 -9 -9t-9 9zM40 609v41q0 9 9 9t9 -9v-41q0 -9 -9 -9t-9 9z" />
<glyph unicode="&#xd0;" d="M160 9v41q0 9 9 9t9 -9v-41q0 -9 -9 -9t-9 9zM160 69v41q0 9 9 9t9 -9v-41q0 -9 -9 -9t-9 9zM160 129v41q0 9 9 9t9 -9v-41q0 -9 -9 -9t-9 9zM160 189v41q0 9 9 9t9 -9v-41q0 -9 -9 -9t-9 9zM160 249v41q0 9 9 9t9 -9v-41q0 -9 -9 -9t-9 9zM160 309v41q0 9 9 9t9 -9v-41 q0 -9 -9 -9t-9 9zM160 369v41q0 9 9 9t9 -9v-41q0 -9 -9 -9t-9 9zM160 429v41q0 9 9 9t9 -9v-41q0 -9 -9 -9t-9 9zM160 489v41q0 9 9 9t9 -9v-41q0 -9 -9 -9t-9 9zM100 69v41q0 9 9 9t9 -9v-41q0 -9 -9 -9t-9 9zM100 129v41q0 9 9 9t9 -9v-41q0 -9 -9 -9t-9 9zM100 189v41 q0 9 9 9t9 -9v-41q0 -9 -9 -9t-9 9zM100 249v41q0 9 9 9t9 -9v-41q0 -9 -9 -9t-9 9zM100 309v41q0 9 9 9t9 -9v-41q0 -9 -9 -9t-9 9zM100 369v41q0 9 9 9t9 -9v-41q0 -9 -9 -9t-9 9zM100 429v41q0 9 9 9t9 -9v-41q0 -9 -9 -9t-9 9zM220 489v41q0 9 9 9t9 -9v-41q0 -9 -9 -9 t-9 9zM340 9v41q0 9 9 9t9 -9v-41q0 -9 -9 -9t-9 9zM400 69v41q0 9 9 9t9 -9v-41q0 -9 -9 -9t-9 9zM400 129v41q0 9 9 9t9 -9v-41q0 -9 -9 -9t-9 9zM400 189v41q0 9 9 9t9 -9v-41q0 -9 -9 -9t-9 9zM400 249v41q0 9 9 9t9 -9v-41q0 -9 -9 -9t-9 9zM400 309v41q0 9 9 9t9 -9 v-41q0 -9 -9 -9t-9 9zM400 369v41q0 9 9 9t9 -9v-41q0 -9 -9 -9t-9 9zM400 429v41q0 9 9 9t9 -9v-41q0 -9 -9 -9t-9 9zM280 489v41q0 9 9 9t9 -9v-41q0 -9 -9 -9t-9 9zM340 69v41q0 9 9 9t9 -9v-41q0 -9 -9 -9t-9 9zM340 129v41q0 9 9 9t9 -9v-41q0 -9 -9 -9t-9 9zM340 189 v41q0 9 9 9t9 -9v-41q0 -9 -9 -9t-9 9zM340 249v41q0 9 9 9t9 -9v-41q0 -9 -9 -9t-9 9zM340 309v41q0 9 9 9t9 -9v-41q0 -9 -9 -9t-9 9zM340 369v41q0 9 9 9t9 -9v-41q0 -9 -9 -9t-9 9zM340 429v41q0 9 9 9t9 -9v-41q0 -9 -9 -9t-9 9zM340 489v41q0 9 9 9t9 -9v-41 q0 -9 -9 -9t-9 9zM280 9v41q0 9 9 9t9 -9v-41q0 -9 -9 -9t-9 9zM220 9v41q0 9 9 9t9 -9v-41q0 -9 -9 -9t-9 9zM100 489v41q0 9 9 9t9 -9v-41q0 -9 -9 -9t-9 9zM100 9v41q0 9 9 9t9 -9v-41q0 -9 -9 -9t-9 9zM220 249v41q0 9 9 9t9 -9v-41q0 -9 -9 -9t-9 9zM40 249v41q0 9 9 9 t9 -9v-41q0 -9 -9 -9t-9 9z" />
<glyph unicode="&#xd1;" horiz-adv-x="540" d="M400 170v-41q0 -9 9 -9t9 9v41q0 9 -9 9t-9 -9zM400 110v-41q0 -9 9 -9t9 9v41q0 9 -9 9t-9 -9zM400 50v-41q0 -9 9 -9t9 9v41q0 9 -9 9t-9 -9zM340 230v-41q0 -9 9 -9t9 9v41q0 9 -9 9t-9 -9zM340 170v-41q0 -9 9 -9t9 9v41q0 9 -9 9t-9 -9zM340 110v-41q0 -9 9 -9t9 9 v41q0 9 -9 9t-9 -9zM340 50v-41q0 -9 9 -9t9 9v41q0 9 -9 9t-9 -9zM220 350v-41q0 -9 9 -9t9 9v41q0 9 -9 9t-9 -9zM280 290v-41q0 -9 9 -9t9 9v41q0 9 -9 9t-9 -9zM160 530v-41q0 -9 9 -9t9 9v41q0 9 -9 9t-9 -9zM100 530v-41q0 -9 9 -9t9 9v41q0 9 -9 9t-9 -9zM100 50v-41 q0 -9 9 -9t9 9v41q0 9 -9 9t-9 -9zM220 290v-41q0 -9 9 -9t9 9v41q0 9 -9 9t-9 -9zM280 230v-41q0 -9 9 -9t9 9v41q0 9 -9 9t-9 -9zM160 410v-41q0 -9 9 -9t9 9v41q0 9 -9 9t-9 -9zM160 350v-41q0 -9 9 -9t9 9v41q0 9 -9 9t-9 -9zM100 470v-41q0 -9 9 -9t9 9v41q0 9 -9 9 t-9 -9zM100 410v-41q0 -9 9 -9t9 9v41q0 9 -9 9t-9 -9zM160 470v-41q0 -9 9 -9t9 9v41q0 9 -9 9t-9 -9zM220 410v-41q0 -9 9 -9t9 9v41q0 9 -9 9t-9 -9zM280 350v-41q0 -9 9 -9t9 9v41q0 9 -9 9t-9 -9zM340 290v-41q0 -9 9 -9t9 9v41q0 9 -9 9t-9 -9zM400 230v-41q0 -9 9 -9 t9 9v41q0 9 -9 9t-9 -9zM100 110v-41q0 -9 9 -9t9 9v41q0 9 -9 9t-9 -9zM100 170v-41q0 -9 9 -9t9 9v41q0 9 -9 9t-9 -9zM100 230v-41q0 -9 9 -9t9 9v41q0 9 -9 9t-9 -9zM100 290v-41q0 -9 9 -9t9 9v41q0 9 -9 9t-9 -9zM100 350v-41q0 -9 9 -9t9 9v41q0 9 -9 9t-9 -9z M460 530v-41q0 -9 9 -9t9 9v41q0 9 -9 9t-9 -9zM460 50v-41q0 -9 9 -9t9 9v41q0 9 -9 9t-9 -9zM460 470v-41q0 -9 9 -9t9 9v41q0 9 -9 9t-9 -9zM460 410v-41q0 -9 9 -9t9 9v41q0 9 -9 9t-9 -9zM460 110v-41q0 -9 9 -9t9 9v41q0 9 -9 9t-9 -9zM460 170v-41q0 -9 9 -9t9 9v41 q0 9 -9 9t-9 -9zM460 230v-41q0 -9 9 -9t9 9v41q0 9 -9 9t-9 -9zM460 290v-41q0 -9 9 -9t9 9v41q0 9 -9 9t-9 -9zM460 350v-41q0 -9 9 -9t9 9v41q0 9 -9 9t-9 -9zM100 609v41q0 9 9 9t9 -9v-41q0 -9 -9 -9t-9 9zM160 669v41q0 9 9 9t9 -9v-41q0 -9 -9 -9t-9 9zM220 669v41 q0 9 9 9t9 -9v-41q0 -9 -9 -9t-9 9zM280 609v41q0 9 9 9t9 -9v-41q0 -9 -9 -9t-9 9zM340 609v41q0 9 9 9t9 -9v-41q0 -9 -9 -9t-9 9zM400 669v41q0 9 9 9t9 -9v-41q0 -9 -9 -9t-9 9z" />
<glyph unicode="&#xd2;" d="M160 9v41q0 9 9 9t9 -9v-41q0 -9 -9 -9t-9 9zM160 69v41q0 9 9 9t9 -9v-41q0 -9 -9 -9t-9 9zM160 129v41q0 9 9 9t9 -9v-41q0 -9 -9 -9t-9 9zM160 189v41q0 9 9 9t9 -9v-41q0 -9 -9 -9t-9 9zM160 249v41q0 9 9 9t9 -9v-41q0 -9 -9 -9t-9 9zM160 309v41q0 9 9 9t9 -9v-41 q0 -9 -9 -9t-9 9zM160 369v41q0 9 9 9t9 -9v-41q0 -9 -9 -9t-9 9zM160 429v41q0 9 9 9t9 -9v-41q0 -9 -9 -9t-9 9zM160 489v41q0 9 9 9t9 -9v-41q0 -9 -9 -9t-9 9zM100 69v41q0 9 9 9t9 -9v-41q0 -9 -9 -9t-9 9zM100 129v41q0 9 9 9t9 -9v-41q0 -9 -9 -9t-9 9zM100 189v41 q0 9 9 9t9 -9v-41q0 -9 -9 -9t-9 9zM100 249v41q0 9 9 9t9 -9v-41q0 -9 -9 -9t-9 9zM100 309v41q0 9 9 9t9 -9v-41q0 -9 -9 -9t-9 9zM100 369v41q0 9 9 9t9 -9v-41q0 -9 -9 -9t-9 9zM100 429v41q0 9 9 9t9 -9v-41q0 -9 -9 -9t-9 9zM220 489v41q0 9 9 9t9 -9v-41q0 -9 -9 -9 t-9 9zM340 9v41q0 9 9 9t9 -9v-41q0 -9 -9 -9t-9 9zM400 69v41q0 9 9 9t9 -9v-41q0 -9 -9 -9t-9 9zM400 129v41q0 9 9 9t9 -9v-41q0 -9 -9 -9t-9 9zM400 189v41q0 9 9 9t9 -9v-41q0 -9 -9 -9t-9 9zM400 249v41q0 9 9 9t9 -9v-41q0 -9 -9 -9t-9 9zM400 309v41q0 9 9 9t9 -9 v-41q0 -9 -9 -9t-9 9zM400 369v41q0 9 9 9t9 -9v-41q0 -9 -9 -9t-9 9zM400 429v41q0 9 9 9t9 -9v-41q0 -9 -9 -9t-9 9zM280 489v41q0 9 9 9t9 -9v-41q0 -9 -9 -9t-9 9zM340 69v41q0 9 9 9t9 -9v-41q0 -9 -9 -9t-9 9zM340 129v41q0 9 9 9t9 -9v-41q0 -9 -9 -9t-9 9zM340 189 v41q0 9 9 9t9 -9v-41q0 -9 -9 -9t-9 9zM340 249v41q0 9 9 9t9 -9v-41q0 -9 -9 -9t-9 9zM340 309v41q0 9 9 9t9 -9v-41q0 -9 -9 -9t-9 9zM340 369v41q0 9 9 9t9 -9v-41q0 -9 -9 -9t-9 9zM340 429v41q0 9 9 9t9 -9v-41q0 -9 -9 -9t-9 9zM340 489v41q0 9 9 9t9 -9v-41 q0 -9 -9 -9t-9 9zM280 9v41q0 9 9 9t9 -9v-41q0 -9 -9 -9t-9 9zM220 9v41q0 9 9 9t9 -9v-41q0 -9 -9 -9t-9 9zM238 710v-41q0 -9 -9 -9t-9 9v41q0 9 9 9t9 -9zM298 650v-41q0 -9 -9 -9t-9 9v41q0 9 9 9t9 -9z" />
<glyph unicode="&#xd3;" d="M160 9v41q0 9 9 9t9 -9v-41q0 -9 -9 -9t-9 9zM160 69v41q0 9 9 9t9 -9v-41q0 -9 -9 -9t-9 9zM160 129v41q0 9 9 9t9 -9v-41q0 -9 -9 -9t-9 9zM160 189v41q0 9 9 9t9 -9v-41q0 -9 -9 -9t-9 9zM160 249v41q0 9 9 9t9 -9v-41q0 -9 -9 -9t-9 9zM160 309v41q0 9 9 9t9 -9v-41 q0 -9 -9 -9t-9 9zM160 369v41q0 9 9 9t9 -9v-41q0 -9 -9 -9t-9 9zM160 429v41q0 9 9 9t9 -9v-41q0 -9 -9 -9t-9 9zM160 489v41q0 9 9 9t9 -9v-41q0 -9 -9 -9t-9 9zM100 69v41q0 9 9 9t9 -9v-41q0 -9 -9 -9t-9 9zM100 129v41q0 9 9 9t9 -9v-41q0 -9 -9 -9t-9 9zM100 189v41 q0 9 9 9t9 -9v-41q0 -9 -9 -9t-9 9zM100 249v41q0 9 9 9t9 -9v-41q0 -9 -9 -9t-9 9zM100 309v41q0 9 9 9t9 -9v-41q0 -9 -9 -9t-9 9zM100 369v41q0 9 9 9t9 -9v-41q0 -9 -9 -9t-9 9zM100 429v41q0 9 9 9t9 -9v-41q0 -9 -9 -9t-9 9zM220 489v41q0 9 9 9t9 -9v-41q0 -9 -9 -9 t-9 9zM340 9v41q0 9 9 9t9 -9v-41q0 -9 -9 -9t-9 9zM400 69v41q0 9 9 9t9 -9v-41q0 -9 -9 -9t-9 9zM400 129v41q0 9 9 9t9 -9v-41q0 -9 -9 -9t-9 9zM400 189v41q0 9 9 9t9 -9v-41q0 -9 -9 -9t-9 9zM400 249v41q0 9 9 9t9 -9v-41q0 -9 -9 -9t-9 9zM400 309v41q0 9 9 9t9 -9 v-41q0 -9 -9 -9t-9 9zM400 369v41q0 9 9 9t9 -9v-41q0 -9 -9 -9t-9 9zM400 429v41q0 9 9 9t9 -9v-41q0 -9 -9 -9t-9 9zM280 489v41q0 9 9 9t9 -9v-41q0 -9 -9 -9t-9 9zM340 69v41q0 9 9 9t9 -9v-41q0 -9 -9 -9t-9 9zM340 129v41q0 9 9 9t9 -9v-41q0 -9 -9 -9t-9 9zM340 189 v41q0 9 9 9t9 -9v-41q0 -9 -9 -9t-9 9zM340 249v41q0 9 9 9t9 -9v-41q0 -9 -9 -9t-9 9zM340 309v41q0 9 9 9t9 -9v-41q0 -9 -9 -9t-9 9zM340 369v41q0 9 9 9t9 -9v-41q0 -9 -9 -9t-9 9zM340 429v41q0 9 9 9t9 -9v-41q0 -9 -9 -9t-9 9zM340 489v41q0 9 9 9t9 -9v-41 q0 -9 -9 -9t-9 9zM280 9v41q0 9 9 9t9 -9v-41q0 -9 -9 -9t-9 9zM220 9v41q0 9 9 9t9 -9v-41q0 -9 -9 -9t-9 9zM280 669v41q0 9 9 9t9 -9v-41q0 -9 -9 -9t-9 9zM220 609v41q0 9 9 9t9 -9v-41q0 -9 -9 -9t-9 9z" />
<glyph unicode="&#xd4;" d="M160 9v41q0 9 9 9t9 -9v-41q0 -9 -9 -9t-9 9zM160 69v41q0 9 9 9t9 -9v-41q0 -9 -9 -9t-9 9zM160 129v41q0 9 9 9t9 -9v-41q0 -9 -9 -9t-9 9zM160 189v41q0 9 9 9t9 -9v-41q0 -9 -9 -9t-9 9zM160 249v41q0 9 9 9t9 -9v-41q0 -9 -9 -9t-9 9zM160 309v41q0 9 9 9t9 -9v-41 q0 -9 -9 -9t-9 9zM160 369v41q0 9 9 9t9 -9v-41q0 -9 -9 -9t-9 9zM160 429v41q0 9 9 9t9 -9v-41q0 -9 -9 -9t-9 9zM160 489v41q0 9 9 9t9 -9v-41q0 -9 -9 -9t-9 9zM100 69v41q0 9 9 9t9 -9v-41q0 -9 -9 -9t-9 9zM100 129v41q0 9 9 9t9 -9v-41q0 -9 -9 -9t-9 9zM100 189v41 q0 9 9 9t9 -9v-41q0 -9 -9 -9t-9 9zM100 249v41q0 9 9 9t9 -9v-41q0 -9 -9 -9t-9 9zM100 309v41q0 9 9 9t9 -9v-41q0 -9 -9 -9t-9 9zM100 369v41q0 9 9 9t9 -9v-41q0 -9 -9 -9t-9 9zM100 429v41q0 9 9 9t9 -9v-41q0 -9 -9 -9t-9 9zM220 489v41q0 9 9 9t9 -9v-41q0 -9 -9 -9 t-9 9zM340 9v41q0 9 9 9t9 -9v-41q0 -9 -9 -9t-9 9zM400 69v41q0 9 9 9t9 -9v-41q0 -9 -9 -9t-9 9zM400 129v41q0 9 9 9t9 -9v-41q0 -9 -9 -9t-9 9zM400 189v41q0 9 9 9t9 -9v-41q0 -9 -9 -9t-9 9zM400 249v41q0 9 9 9t9 -9v-41q0 -9 -9 -9t-9 9zM400 309v41q0 9 9 9t9 -9 v-41q0 -9 -9 -9t-9 9zM400 369v41q0 9 9 9t9 -9v-41q0 -9 -9 -9t-9 9zM400 429v41q0 9 9 9t9 -9v-41q0 -9 -9 -9t-9 9zM280 489v41q0 9 9 9t9 -9v-41q0 -9 -9 -9t-9 9zM340 69v41q0 9 9 9t9 -9v-41q0 -9 -9 -9t-9 9zM340 129v41q0 9 9 9t9 -9v-41q0 -9 -9 -9t-9 9zM340 189 v41q0 9 9 9t9 -9v-41q0 -9 -9 -9t-9 9zM340 249v41q0 9 9 9t9 -9v-41q0 -9 -9 -9t-9 9zM340 309v41q0 9 9 9t9 -9v-41q0 -9 -9 -9t-9 9zM340 369v41q0 9 9 9t9 -9v-41q0 -9 -9 -9t-9 9zM340 429v41q0 9 9 9t9 -9v-41q0 -9 -9 -9t-9 9zM340 489v41q0 9 9 9t9 -9v-41 q0 -9 -9 -9t-9 9zM280 9v41q0 9 9 9t9 -9v-41q0 -9 -9 -9t-9 9zM220 9v41q0 9 9 9t9 -9v-41q0 -9 -9 -9t-9 9zM160 609v41q0 9 9 9t9 -9v-41q0 -9 -9 -9t-9 9zM220 669v41q0 9 9 9t9 -9v-41q0 -9 -9 -9t-9 9zM280 669v41q0 9 9 9t9 -9v-41q0 -9 -9 -9t-9 9zM340 609v41 q0 9 9 9t9 -9v-41q0 -9 -9 -9t-9 9z" />
<glyph unicode="&#xd5;" d="M160 9v41q0 9 9 9t9 -9v-41q0 -9 -9 -9t-9 9zM160 69v41q0 9 9 9t9 -9v-41q0 -9 -9 -9t-9 9zM160 129v41q0 9 9 9t9 -9v-41q0 -9 -9 -9t-9 9zM160 189v41q0 9 9 9t9 -9v-41q0 -9 -9 -9t-9 9zM160 249v41q0 9 9 9t9 -9v-41q0 -9 -9 -9t-9 9zM160 309v41q0 9 9 9t9 -9v-41 q0 -9 -9 -9t-9 9zM160 369v41q0 9 9 9t9 -9v-41q0 -9 -9 -9t-9 9zM160 429v41q0 9 9 9t9 -9v-41q0 -9 -9 -9t-9 9zM160 489v41q0 9 9 9t9 -9v-41q0 -9 -9 -9t-9 9zM100 69v41q0 9 9 9t9 -9v-41q0 -9 -9 -9t-9 9zM100 129v41q0 9 9 9t9 -9v-41q0 -9 -9 -9t-9 9zM100 189v41 q0 9 9 9t9 -9v-41q0 -9 -9 -9t-9 9zM100 249v41q0 9 9 9t9 -9v-41q0 -9 -9 -9t-9 9zM100 309v41q0 9 9 9t9 -9v-41q0 -9 -9 -9t-9 9zM100 369v41q0 9 9 9t9 -9v-41q0 -9 -9 -9t-9 9zM100 429v41q0 9 9 9t9 -9v-41q0 -9 -9 -9t-9 9zM220 489v41q0 9 9 9t9 -9v-41q0 -9 -9 -9 t-9 9zM340 9v41q0 9 9 9t9 -9v-41q0 -9 -9 -9t-9 9zM400 69v41q0 9 9 9t9 -9v-41q0 -9 -9 -9t-9 9zM400 129v41q0 9 9 9t9 -9v-41q0 -9 -9 -9t-9 9zM400 189v41q0 9 9 9t9 -9v-41q0 -9 -9 -9t-9 9zM400 249v41q0 9 9 9t9 -9v-41q0 -9 -9 -9t-9 9zM400 309v41q0 9 9 9t9 -9 v-41q0 -9 -9 -9t-9 9zM400 369v41q0 9 9 9t9 -9v-41q0 -9 -9 -9t-9 9zM400 429v41q0 9 9 9t9 -9v-41q0 -9 -9 -9t-9 9zM280 489v41q0 9 9 9t9 -9v-41q0 -9 -9 -9t-9 9zM340 69v41q0 9 9 9t9 -9v-41q0 -9 -9 -9t-9 9zM340 129v41q0 9 9 9t9 -9v-41q0 -9 -9 -9t-9 9zM340 189 v41q0 9 9 9t9 -9v-41q0 -9 -9 -9t-9 9zM340 249v41q0 9 9 9t9 -9v-41q0 -9 -9 -9t-9 9zM340 309v41q0 9 9 9t9 -9v-41q0 -9 -9 -9t-9 9zM340 369v41q0 9 9 9t9 -9v-41q0 -9 -9 -9t-9 9zM340 429v41q0 9 9 9t9 -9v-41q0 -9 -9 -9t-9 9zM340 489v41q0 9 9 9t9 -9v-41 q0 -9 -9 -9t-9 9zM280 9v41q0 9 9 9t9 -9v-41q0 -9 -9 -9t-9 9zM220 9v41q0 9 9 9t9 -9v-41q0 -9 -9 -9t-9 9zM100 609v41q0 9 9 9t9 -9v-41q0 -9 -9 -9t-9 9zM160 669v41q0 9 9 9t9 -9v-41q0 -9 -9 -9t-9 9zM220 669v41q0 9 9 9t9 -9v-41q0 -9 -9 -9t-9 9zM280 609v41 q0 9 9 9t9 -9v-41q0 -9 -9 -9t-9 9zM340 609v41q0 9 9 9t9 -9v-41q0 -9 -9 -9t-9 9zM400 669v41q0 9 9 9t9 -9v-41q0 -9 -9 -9t-9 9z" />
<glyph unicode="&#xd6;" d="M160 9v41q0 9 9 9t9 -9v-41q0 -9 -9 -9t-9 9zM160 69v41q0 9 9 9t9 -9v-41q0 -9 -9 -9t-9 9zM160 129v41q0 9 9 9t9 -9v-41q0 -9 -9 -9t-9 9zM160 189v41q0 9 9 9t9 -9v-41q0 -9 -9 -9t-9 9zM160 249v41q0 9 9 9t9 -9v-41q0 -9 -9 -9t-9 9zM160 309v41q0 9 9 9t9 -9v-41 q0 -9 -9 -9t-9 9zM160 369v41q0 9 9 9t9 -9v-41q0 -9 -9 -9t-9 9zM160 429v41q0 9 9 9t9 -9v-41q0 -9 -9 -9t-9 9zM160 489v41q0 9 9 9t9 -9v-41q0 -9 -9 -9t-9 9zM100 69v41q0 9 9 9t9 -9v-41q0 -9 -9 -9t-9 9zM100 129v41q0 9 9 9t9 -9v-41q0 -9 -9 -9t-9 9zM100 189v41 q0 9 9 9t9 -9v-41q0 -9 -9 -9t-9 9zM100 249v41q0 9 9 9t9 -9v-41q0 -9 -9 -9t-9 9zM100 309v41q0 9 9 9t9 -9v-41q0 -9 -9 -9t-9 9zM100 369v41q0 9 9 9t9 -9v-41q0 -9 -9 -9t-9 9zM100 429v41q0 9 9 9t9 -9v-41q0 -9 -9 -9t-9 9zM220 489v41q0 9 9 9t9 -9v-41q0 -9 -9 -9 t-9 9zM340 9v41q0 9 9 9t9 -9v-41q0 -9 -9 -9t-9 9zM400 69v41q0 9 9 9t9 -9v-41q0 -9 -9 -9t-9 9zM400 129v41q0 9 9 9t9 -9v-41q0 -9 -9 -9t-9 9zM400 189v41q0 9 9 9t9 -9v-41q0 -9 -9 -9t-9 9zM400 249v41q0 9 9 9t9 -9v-41q0 -9 -9 -9t-9 9zM400 309v41q0 9 9 9t9 -9 v-41q0 -9 -9 -9t-9 9zM400 369v41q0 9 9 9t9 -9v-41q0 -9 -9 -9t-9 9zM400 429v41q0 9 9 9t9 -9v-41q0 -9 -9 -9t-9 9zM280 489v41q0 9 9 9t9 -9v-41q0 -9 -9 -9t-9 9zM340 69v41q0 9 9 9t9 -9v-41q0 -9 -9 -9t-9 9zM340 129v41q0 9 9 9t9 -9v-41q0 -9 -9 -9t-9 9zM340 189 v41q0 9 9 9t9 -9v-41q0 -9 -9 -9t-9 9zM340 249v41q0 9 9 9t9 -9v-41q0 -9 -9 -9t-9 9zM340 309v41q0 9 9 9t9 -9v-41q0 -9 -9 -9t-9 9zM340 369v41q0 9 9 9t9 -9v-41q0 -9 -9 -9t-9 9zM340 429v41q0 9 9 9t9 -9v-41q0 -9 -9 -9t-9 9zM340 489v41q0 9 9 9t9 -9v-41 q0 -9 -9 -9t-9 9zM280 9v41q0 9 9 9t9 -9v-41q0 -9 -9 -9t-9 9zM220 9v41q0 9 9 9t9 -9v-41q0 -9 -9 -9t-9 9zM340 609v41q0 9 9 9t9 -9v-41q0 -9 -9 -9t-9 9zM160 609v41q0 9 9 9t9 -9v-41q0 -9 -9 -9t-9 9z" />
<glyph unicode="&#xd7;" d="M178 170v-41q0 -9 -9 -9t-9 9v41q0 9 9 9t9 -9zM118 110v-41q0 -9 -9 -9t-9 9v41q0 9 9 9t9 -9zM238 230v-41q0 -9 -9 -9t-9 9v41q0 9 9 9t9 -9zM358 230v-41q0 -9 -9 -9t-9 9v41q0 9 9 9t9 -9zM418 170v-41q0 -9 -9 -9t-9 9v41q0 9 9 9t9 -9zM478 110v-41q0 -9 -9 -9 t-9 9v41q0 9 9 9t9 -9zM178 410v-41q0 -9 -9 -9t-9 9v41q0 9 9 9t9 -9zM118 470v-41q0 -9 -9 -9t-9 9v41q0 9 9 9t9 -9zM298 290v-41q0 -9 -9 -9t-9 9v41q0 9 9 9t9 -9zM238 350v-41q0 -9 -9 -9t-9 9v41q0 9 9 9t9 -9zM358 350v-41q0 -9 -9 -9t-9 9v41q0 9 9 9t9 -9z M418 410v-41q0 -9 -9 -9t-9 9v41q0 9 9 9t9 -9zM478 470v-41q0 -9 -9 -9t-9 9v41q0 9 9 9t9 -9z" />
<glyph unicode="&#xd8;" d="M160 9v41q0 9 9 9t9 -9v-41q0 -9 -9 -9t-9 9zM160 69v41q0 9 9 9t9 -9v-41q0 -9 -9 -9t-9 9zM160 129v41q0 9 9 9t9 -9v-41q0 -9 -9 -9t-9 9zM160 189v41q0 9 9 9t9 -9v-41q0 -9 -9 -9t-9 9zM160 249v41q0 9 9 9t9 -9v-41q0 -9 -9 -9t-9 9zM160 309v41q0 9 9 9t9 -9v-41 q0 -9 -9 -9t-9 9zM160 369v41q0 9 9 9t9 -9v-41q0 -9 -9 -9t-9 9zM160 429v41q0 9 9 9t9 -9v-41q0 -9 -9 -9t-9 9zM160 489v41q0 9 9 9t9 -9v-41q0 -9 -9 -9t-9 9zM100 69v41q0 9 9 9t9 -9v-41q0 -9 -9 -9t-9 9zM100 129v41q0 9 9 9t9 -9v-41q0 -9 -9 -9t-9 9zM100 189v41 q0 9 9 9t9 -9v-41q0 -9 -9 -9t-9 9zM100 249v41q0 9 9 9t9 -9v-41q0 -9 -9 -9t-9 9zM100 309v41q0 9 9 9t9 -9v-41q0 -9 -9 -9t-9 9zM100 369v41q0 9 9 9t9 -9v-41q0 -9 -9 -9t-9 9zM100 429v41q0 9 9 9t9 -9v-41q0 -9 -9 -9t-9 9zM220 489v41q0 9 9 9t9 -9v-41q0 -9 -9 -9 t-9 9zM340 9v41q0 9 9 9t9 -9v-41q0 -9 -9 -9t-9 9zM400 69v41q0 9 9 9t9 -9v-41q0 -9 -9 -9t-9 9zM400 129v41q0 9 9 9t9 -9v-41q0 -9 -9 -9t-9 9zM400 189v41q0 9 9 9t9 -9v-41q0 -9 -9 -9t-9 9zM400 249v41q0 9 9 9t9 -9v-41q0 -9 -9 -9t-9 9zM400 309v41q0 9 9 9t9 -9 v-41q0 -9 -9 -9t-9 9zM400 369v41q0 9 9 9t9 -9v-41q0 -9 -9 -9t-9 9zM400 429v41q0 9 9 9t9 -9v-41q0 -9 -9 -9t-9 9zM280 489v41q0 9 9 9t9 -9v-41q0 -9 -9 -9t-9 9zM340 69v41q0 9 9 9t9 -9v-41q0 -9 -9 -9t-9 9zM340 129v41q0 9 9 9t9 -9v-41q0 -9 -9 -9t-9 9zM340 189 v41q0 9 9 9t9 -9v-41q0 -9 -9 -9t-9 9zM340 249v41q0 9 9 9t9 -9v-41q0 -9 -9 -9t-9 9zM340 309v41q0 9 9 9t9 -9v-41q0 -9 -9 -9t-9 9zM340 369v41q0 9 9 9t9 -9v-41q0 -9 -9 -9t-9 9zM340 429v41q0 9 9 9t9 -9v-41q0 -9 -9 -9t-9 9zM340 489v41q0 9 9 9t9 -9v-41 q0 -9 -9 -9t-9 9zM280 9v41q0 9 9 9t9 -9v-41q0 -9 -9 -9t-9 9zM220 9v41q0 9 9 9t9 -9v-41q0 -9 -9 -9t-9 9zM220 249v41q0 9 9 9t9 -9v-41q0 -9 -9 -9t-9 9zM280 309v41q0 9 9 9t9 -9v-41q0 -9 -9 -9t-9 9zM40 69v41q0 9 9 9t9 -9v-41q0 -9 -9 -9t-9 9zM-20 9v41q0 9 9 9 t9 -9v-41q0 -9 -9 -9t-9 9zM460 489v41q0 9 9 9t9 -9v-41q0 -9 -9 -9t-9 9z" />
<glyph unicode="&#xd9;" d="M160 9v41q0 9 9 9t9 -9v-41q0 -9 -9 -9t-9 9zM160 69v41q0 9 9 9t9 -9v-41q0 -9 -9 -9t-9 9zM160 129v41q0 9 9 9t9 -9v-41q0 -9 -9 -9t-9 9zM160 189v41q0 9 9 9t9 -9v-41q0 -9 -9 -9t-9 9zM160 249v41q0 9 9 9t9 -9v-41q0 -9 -9 -9t-9 9zM160 309v41q0 9 9 9t9 -9v-41 q0 -9 -9 -9t-9 9zM160 369v41q0 9 9 9t9 -9v-41q0 -9 -9 -9t-9 9zM160 429v41q0 9 9 9t9 -9v-41q0 -9 -9 -9t-9 9zM160 489v41q0 9 9 9t9 -9v-41q0 -9 -9 -9t-9 9zM100 69v41q0 9 9 9t9 -9v-41q0 -9 -9 -9t-9 9zM100 129v41q0 9 9 9t9 -9v-41q0 -9 -9 -9t-9 9zM100 189v41 q0 9 9 9t9 -9v-41q0 -9 -9 -9t-9 9zM100 249v41q0 9 9 9t9 -9v-41q0 -9 -9 -9t-9 9zM100 309v41q0 9 9 9t9 -9v-41q0 -9 -9 -9t-9 9zM100 369v41q0 9 9 9t9 -9v-41q0 -9 -9 -9t-9 9zM100 429v41q0 9 9 9t9 -9v-41q0 -9 -9 -9t-9 9zM100 489v41q0 9 9 9t9 -9v-41q0 -9 -9 -9 t-9 9zM340 9v41q0 9 9 9t9 -9v-41q0 -9 -9 -9t-9 9zM400 69v41q0 9 9 9t9 -9v-41q0 -9 -9 -9t-9 9zM400 129v41q0 9 9 9t9 -9v-41q0 -9 -9 -9t-9 9zM400 189v41q0 9 9 9t9 -9v-41q0 -9 -9 -9t-9 9zM400 249v41q0 9 9 9t9 -9v-41q0 -9 -9 -9t-9 9zM400 309v41q0 9 9 9t9 -9 v-41q0 -9 -9 -9t-9 9zM400 369v41q0 9 9 9t9 -9v-41q0 -9 -9 -9t-9 9zM400 429v41q0 9 9 9t9 -9v-41q0 -9 -9 -9t-9 9zM400 489v41q0 9 9 9t9 -9v-41q0 -9 -9 -9t-9 9zM340 69v41q0 9 9 9t9 -9v-41q0 -9 -9 -9t-9 9zM340 129v41q0 9 9 9t9 -9v-41q0 -9 -9 -9t-9 9zM340 189 v41q0 9 9 9t9 -9v-41q0 -9 -9 -9t-9 9zM340 249v41q0 9 9 9t9 -9v-41q0 -9 -9 -9t-9 9zM340 309v41q0 9 9 9t9 -9v-41q0 -9 -9 -9t-9 9zM340 369v41q0 9 9 9t9 -9v-41q0 -9 -9 -9t-9 9zM340 429v41q0 9 9 9t9 -9v-41q0 -9 -9 -9t-9 9zM340 489v41q0 9 9 9t9 -9v-41 q0 -9 -9 -9t-9 9zM280 9v41q0 9 9 9t9 -9v-41q0 -9 -9 -9t-9 9zM220 9v41q0 9 9 9t9 -9v-41q0 -9 -9 -9t-9 9zM238 710v-41q0 -9 -9 -9t-9 9v41q0 9 9 9t9 -9zM298 650v-41q0 -9 -9 -9t-9 9v41q0 9 9 9t9 -9z" />
<glyph unicode="&#xda;" d="M160 9v41q0 9 9 9t9 -9v-41q0 -9 -9 -9t-9 9zM160 69v41q0 9 9 9t9 -9v-41q0 -9 -9 -9t-9 9zM160 129v41q0 9 9 9t9 -9v-41q0 -9 -9 -9t-9 9zM160 189v41q0 9 9 9t9 -9v-41q0 -9 -9 -9t-9 9zM160 249v41q0 9 9 9t9 -9v-41q0 -9 -9 -9t-9 9zM160 309v41q0 9 9 9t9 -9v-41 q0 -9 -9 -9t-9 9zM160 369v41q0 9 9 9t9 -9v-41q0 -9 -9 -9t-9 9zM160 429v41q0 9 9 9t9 -9v-41q0 -9 -9 -9t-9 9zM160 489v41q0 9 9 9t9 -9v-41q0 -9 -9 -9t-9 9zM100 69v41q0 9 9 9t9 -9v-41q0 -9 -9 -9t-9 9zM100 129v41q0 9 9 9t9 -9v-41q0 -9 -9 -9t-9 9zM100 189v41 q0 9 9 9t9 -9v-41q0 -9 -9 -9t-9 9zM100 249v41q0 9 9 9t9 -9v-41q0 -9 -9 -9t-9 9zM100 309v41q0 9 9 9t9 -9v-41q0 -9 -9 -9t-9 9zM100 369v41q0 9 9 9t9 -9v-41q0 -9 -9 -9t-9 9zM100 429v41q0 9 9 9t9 -9v-41q0 -9 -9 -9t-9 9zM100 489v41q0 9 9 9t9 -9v-41q0 -9 -9 -9 t-9 9zM340 9v41q0 9 9 9t9 -9v-41q0 -9 -9 -9t-9 9zM400 69v41q0 9 9 9t9 -9v-41q0 -9 -9 -9t-9 9zM400 129v41q0 9 9 9t9 -9v-41q0 -9 -9 -9t-9 9zM400 189v41q0 9 9 9t9 -9v-41q0 -9 -9 -9t-9 9zM400 249v41q0 9 9 9t9 -9v-41q0 -9 -9 -9t-9 9zM400 309v41q0 9 9 9t9 -9 v-41q0 -9 -9 -9t-9 9zM400 369v41q0 9 9 9t9 -9v-41q0 -9 -9 -9t-9 9zM400 429v41q0 9 9 9t9 -9v-41q0 -9 -9 -9t-9 9zM400 489v41q0 9 9 9t9 -9v-41q0 -9 -9 -9t-9 9zM340 69v41q0 9 9 9t9 -9v-41q0 -9 -9 -9t-9 9zM340 129v41q0 9 9 9t9 -9v-41q0 -9 -9 -9t-9 9zM340 189 v41q0 9 9 9t9 -9v-41q0 -9 -9 -9t-9 9zM340 249v41q0 9 9 9t9 -9v-41q0 -9 -9 -9t-9 9zM340 309v41q0 9 9 9t9 -9v-41q0 -9 -9 -9t-9 9zM340 369v41q0 9 9 9t9 -9v-41q0 -9 -9 -9t-9 9zM340 429v41q0 9 9 9t9 -9v-41q0 -9 -9 -9t-9 9zM340 489v41q0 9 9 9t9 -9v-41 q0 -9 -9 -9t-9 9zM280 9v41q0 9 9 9t9 -9v-41q0 -9 -9 -9t-9 9zM220 9v41q0 9 9 9t9 -9v-41q0 -9 -9 -9t-9 9zM280 669v41q0 9 9 9t9 -9v-41q0 -9 -9 -9t-9 9zM220 609v41q0 9 9 9t9 -9v-41q0 -9 -9 -9t-9 9z" />
<glyph unicode="&#xdb;" d="M160 9v41q0 9 9 9t9 -9v-41q0 -9 -9 -9t-9 9zM160 69v41q0 9 9 9t9 -9v-41q0 -9 -9 -9t-9 9zM160 129v41q0 9 9 9t9 -9v-41q0 -9 -9 -9t-9 9zM160 189v41q0 9 9 9t9 -9v-41q0 -9 -9 -9t-9 9zM160 249v41q0 9 9 9t9 -9v-41q0 -9 -9 -9t-9 9zM160 309v41q0 9 9 9t9 -9v-41 q0 -9 -9 -9t-9 9zM160 369v41q0 9 9 9t9 -9v-41q0 -9 -9 -9t-9 9zM160 429v41q0 9 9 9t9 -9v-41q0 -9 -9 -9t-9 9zM160 489v41q0 9 9 9t9 -9v-41q0 -9 -9 -9t-9 9zM100 69v41q0 9 9 9t9 -9v-41q0 -9 -9 -9t-9 9zM100 129v41q0 9 9 9t9 -9v-41q0 -9 -9 -9t-9 9zM100 189v41 q0 9 9 9t9 -9v-41q0 -9 -9 -9t-9 9zM100 249v41q0 9 9 9t9 -9v-41q0 -9 -9 -9t-9 9zM100 309v41q0 9 9 9t9 -9v-41q0 -9 -9 -9t-9 9zM100 369v41q0 9 9 9t9 -9v-41q0 -9 -9 -9t-9 9zM100 429v41q0 9 9 9t9 -9v-41q0 -9 -9 -9t-9 9zM100 489v41q0 9 9 9t9 -9v-41q0 -9 -9 -9 t-9 9zM340 9v41q0 9 9 9t9 -9v-41q0 -9 -9 -9t-9 9zM400 69v41q0 9 9 9t9 -9v-41q0 -9 -9 -9t-9 9zM400 129v41q0 9 9 9t9 -9v-41q0 -9 -9 -9t-9 9zM400 189v41q0 9 9 9t9 -9v-41q0 -9 -9 -9t-9 9zM400 249v41q0 9 9 9t9 -9v-41q0 -9 -9 -9t-9 9zM400 309v41q0 9 9 9t9 -9 v-41q0 -9 -9 -9t-9 9zM400 369v41q0 9 9 9t9 -9v-41q0 -9 -9 -9t-9 9zM400 429v41q0 9 9 9t9 -9v-41q0 -9 -9 -9t-9 9zM400 489v41q0 9 9 9t9 -9v-41q0 -9 -9 -9t-9 9zM340 69v41q0 9 9 9t9 -9v-41q0 -9 -9 -9t-9 9zM340 129v41q0 9 9 9t9 -9v-41q0 -9 -9 -9t-9 9zM340 189 v41q0 9 9 9t9 -9v-41q0 -9 -9 -9t-9 9zM340 249v41q0 9 9 9t9 -9v-41q0 -9 -9 -9t-9 9zM340 309v41q0 9 9 9t9 -9v-41q0 -9 -9 -9t-9 9zM340 369v41q0 9 9 9t9 -9v-41q0 -9 -9 -9t-9 9zM340 429v41q0 9 9 9t9 -9v-41q0 -9 -9 -9t-9 9zM340 489v41q0 9 9 9t9 -9v-41 q0 -9 -9 -9t-9 9zM280 9v41q0 9 9 9t9 -9v-41q0 -9 -9 -9t-9 9zM220 9v41q0 9 9 9t9 -9v-41q0 -9 -9 -9t-9 9zM160 609v41q0 9 9 9t9 -9v-41q0 -9 -9 -9t-9 9zM220 669v41q0 9 9 9t9 -9v-41q0 -9 -9 -9t-9 9zM280 669v41q0 9 9 9t9 -9v-41q0 -9 -9 -9t-9 9zM340 609v41 q0 9 9 9t9 -9v-41q0 -9 -9 -9t-9 9z" />
<glyph unicode="&#xdc;" d="M160 9v41q0 9 9 9t9 -9v-41q0 -9 -9 -9t-9 9zM160 69v41q0 9 9 9t9 -9v-41q0 -9 -9 -9t-9 9zM160 129v41q0 9 9 9t9 -9v-41q0 -9 -9 -9t-9 9zM160 189v41q0 9 9 9t9 -9v-41q0 -9 -9 -9t-9 9zM160 249v41q0 9 9 9t9 -9v-41q0 -9 -9 -9t-9 9zM160 309v41q0 9 9 9t9 -9v-41 q0 -9 -9 -9t-9 9zM160 369v41q0 9 9 9t9 -9v-41q0 -9 -9 -9t-9 9zM160 429v41q0 9 9 9t9 -9v-41q0 -9 -9 -9t-9 9zM160 489v41q0 9 9 9t9 -9v-41q0 -9 -9 -9t-9 9zM100 69v41q0 9 9 9t9 -9v-41q0 -9 -9 -9t-9 9zM100 129v41q0 9 9 9t9 -9v-41q0 -9 -9 -9t-9 9zM100 189v41 q0 9 9 9t9 -9v-41q0 -9 -9 -9t-9 9zM100 249v41q0 9 9 9t9 -9v-41q0 -9 -9 -9t-9 9zM100 309v41q0 9 9 9t9 -9v-41q0 -9 -9 -9t-9 9zM100 369v41q0 9 9 9t9 -9v-41q0 -9 -9 -9t-9 9zM100 429v41q0 9 9 9t9 -9v-41q0 -9 -9 -9t-9 9zM100 489v41q0 9 9 9t9 -9v-41q0 -9 -9 -9 t-9 9zM340 9v41q0 9 9 9t9 -9v-41q0 -9 -9 -9t-9 9zM400 69v41q0 9 9 9t9 -9v-41q0 -9 -9 -9t-9 9zM400 129v41q0 9 9 9t9 -9v-41q0 -9 -9 -9t-9 9zM400 189v41q0 9 9 9t9 -9v-41q0 -9 -9 -9t-9 9zM400 249v41q0 9 9 9t9 -9v-41q0 -9 -9 -9t-9 9zM400 309v41q0 9 9 9t9 -9 v-41q0 -9 -9 -9t-9 9zM400 369v41q0 9 9 9t9 -9v-41q0 -9 -9 -9t-9 9zM400 429v41q0 9 9 9t9 -9v-41q0 -9 -9 -9t-9 9zM400 489v41q0 9 9 9t9 -9v-41q0 -9 -9 -9t-9 9zM340 69v41q0 9 9 9t9 -9v-41q0 -9 -9 -9t-9 9zM340 129v41q0 9 9 9t9 -9v-41q0 -9 -9 -9t-9 9zM340 189 v41q0 9 9 9t9 -9v-41q0 -9 -9 -9t-9 9zM340 249v41q0 9 9 9t9 -9v-41q0 -9 -9 -9t-9 9zM340 309v41q0 9 9 9t9 -9v-41q0 -9 -9 -9t-9 9zM340 369v41q0 9 9 9t9 -9v-41q0 -9 -9 -9t-9 9zM340 429v41q0 9 9 9t9 -9v-41q0 -9 -9 -9t-9 9zM340 489v41q0 9 9 9t9 -9v-41 q0 -9 -9 -9t-9 9zM280 9v41q0 9 9 9t9 -9v-41q0 -9 -9 -9t-9 9zM220 9v41q0 9 9 9t9 -9v-41q0 -9 -9 -9t-9 9zM340 609v41q0 9 9 9t9 -9v-41q0 -9 -9 -9t-9 9zM160 609v41q0 9 9 9t9 -9v-41q0 -9 -9 -9t-9 9z" />
<glyph unicode="&#xdd;" d="M160 249v41q0 9 9 9t9 -9v-41q0 -9 -9 -9t-9 9zM160 309v41q0 9 9 9t9 -9v-41q0 -9 -9 -9t-9 9zM160 369v41q0 9 9 9t9 -9v-41q0 -9 -9 -9t-9 9zM160 429v41q0 9 9 9t9 -9v-41q0 -9 -9 -9t-9 9zM160 489v41q0 9 9 9t9 -9v-41q0 -9 -9 -9t-9 9zM100 309v41q0 9 9 9t9 -9 v-41q0 -9 -9 -9t-9 9zM100 369v41q0 9 9 9t9 -9v-41q0 -9 -9 -9t-9 9zM100 429v41q0 9 9 9t9 -9v-41q0 -9 -9 -9t-9 9zM100 489v41q0 9 9 9t9 -9v-41q0 -9 -9 -9t-9 9zM340 249v41q0 9 9 9t9 -9v-41q0 -9 -9 -9t-9 9zM400 309v41q0 9 9 9t9 -9v-41q0 -9 -9 -9t-9 9zM400 369 v41q0 9 9 9t9 -9v-41q0 -9 -9 -9t-9 9zM400 429v41q0 9 9 9t9 -9v-41q0 -9 -9 -9t-9 9zM400 489v41q0 9 9 9t9 -9v-41q0 -9 -9 -9t-9 9zM340 309v41q0 9 9 9t9 -9v-41q0 -9 -9 -9t-9 9zM340 369v41q0 9 9 9t9 -9v-41q0 -9 -9 -9t-9 9zM340 429v41q0 9 9 9t9 -9v-41 q0 -9 -9 -9t-9 9zM340 489v41q0 9 9 9t9 -9v-41q0 -9 -9 -9t-9 9zM280 249v41q0 9 9 9t9 -9v-41q0 -9 -9 -9t-9 9zM220 249v41q0 9 9 9t9 -9v-41q0 -9 -9 -9t-9 9zM280 189v41q0 9 9 9t9 -9v-41q0 -9 -9 -9t-9 9zM220 189v41q0 9 9 9t9 -9v-41q0 -9 -9 -9t-9 9zM280 129v41 q0 9 9 9t9 -9v-41q0 -9 -9 -9t-9 9zM220 129v41q0 9 9 9t9 -9v-41q0 -9 -9 -9t-9 9zM280 69v41q0 9 9 9t9 -9v-41q0 -9 -9 -9t-9 9zM220 69v41q0 9 9 9t9 -9v-41q0 -9 -9 -9t-9 9zM280 9v41q0 9 9 9t9 -9v-41q0 -9 -9 -9t-9 9zM220 9v41q0 9 9 9t9 -9v-41q0 -9 -9 -9t-9 9z M280 669v41q0 9 9 9t9 -9v-41q0 -9 -9 -9t-9 9zM220 609v41q0 9 9 9t9 -9v-41q0 -9 -9 -9t-9 9z" />
<glyph unicode="&#xde;" d="M358 530v-41q0 -9 -9 -9t-9 9v41q0 9 9 9t9 -9zM358 470v-41q0 -9 -9 -9t-9 9v41q0 9 9 9t9 -9zM358 410v-41q0 -9 -9 -9t-9 9v41q0 9 9 9t9 -9zM358 350v-41q0 -9 -9 -9t-9 9v41q0 9 9 9t9 -9zM358 290v-41q0 -9 -9 -9t-9 9v41q0 9 9 9t9 -9zM418 470v-41q0 -9 -9 -9 t-9 9v41q0 9 9 9t9 -9zM418 410v-41q0 -9 -9 -9t-9 9v41q0 9 9 9t9 -9zM418 350v-41q0 -9 -9 -9t-9 9v41q0 9 9 9t9 -9zM118 530v-41q0 -9 -9 -9t-9 9v41q0 9 9 9t9 -9zM178 530v-41q0 -9 -9 -9t-9 9v41q0 9 9 9t9 -9zM118 470v-41q0 -9 -9 -9t-9 9v41q0 9 9 9t9 -9z M118 410v-41q0 -9 -9 -9t-9 9v41q0 9 9 9t9 -9zM118 350v-41q0 -9 -9 -9t-9 9v41q0 9 9 9t9 -9zM118 290v-41q0 -9 -9 -9t-9 9v41q0 9 9 9t9 -9zM118 230v-41q0 -9 -9 -9t-9 9v41q0 9 9 9t9 -9zM118 170v-41q0 -9 -9 -9t-9 9v41q0 9 9 9t9 -9zM118 110v-41q0 -9 -9 -9t-9 9 v41q0 9 9 9t9 -9zM118 50v-41q0 -9 -9 -9t-9 9v41q0 9 9 9t9 -9zM178 470v-41q0 -9 -9 -9t-9 9v41q0 9 9 9t9 -9zM178 410v-41q0 -9 -9 -9t-9 9v41q0 9 9 9t9 -9zM178 350v-41q0 -9 -9 -9t-9 9v41q0 9 9 9t9 -9zM178 290v-41q0 -9 -9 -9t-9 9v41q0 9 9 9t9 -9zM178 230v-41 q0 -9 -9 -9t-9 9v41q0 9 9 9t9 -9zM178 170v-41q0 -9 -9 -9t-9 9v41q0 9 9 9t9 -9zM178 110v-41q0 -9 -9 -9t-9 9v41q0 9 9 9t9 -9zM178 50v-41q0 -9 -9 -9t-9 9v41q0 9 9 9t9 -9zM238 530v-41q0 -9 -9 -9t-9 9v41q0 9 9 9t9 -9zM298 530v-41q0 -9 -9 -9t-9 9v41q0 9 9 9 t9 -9zM298 290v-41q0 -9 -9 -9t-9 9v41q0 9 9 9t9 -9zM238 290v-41q0 -9 -9 -9t-9 9v41q0 9 9 9t9 -9zM118 590v-41q0 -9 -9 -9t-9 9v41q0 9 9 9t9 -9zM178 590v-41q0 -9 -9 -9t-9 9v41q0 9 9 9t9 -9zM118 650v-41q0 -9 -9 -9t-9 9v41q0 9 9 9t9 -9zM178 650v-41q0 -9 -9 -9 t-9 9v41q0 9 9 9t9 -9zM118 710v-41q0 -9 -9 -9t-9 9v41q0 9 9 9t9 -9zM178 710v-41q0 -9 -9 -9t-9 9v41q0 9 9 9t9 -9z" />
<glyph unicode="&#xdf;" d="M358 530v-41q0 -9 -9 -9t-9 9v41q0 9 9 9t9 -9zM358 470v-41q0 -9 -9 -9t-9 9v41q0 9 9 9t9 -9zM358 410v-41q0 -9 -9 -9t-9 9v41q0 9 9 9t9 -9zM358 350v-41q0 -9 -9 -9t-9 9v41q0 9 9 9t9 -9zM358 290v-41q0 -9 -9 -9t-9 9v41q0 9 9 9t9 -9zM358 230v-41q0 -9 -9 -9 t-9 9v41q0 9 9 9t9 -9zM358 170v-41q0 -9 -9 -9t-9 9v41q0 9 9 9t9 -9zM358 110v-41q0 -9 -9 -9t-9 9v41q0 9 9 9t9 -9zM358 50v-41q0 -9 -9 -9t-9 9v41q0 9 9 9t9 -9zM418 470v-41q0 -9 -9 -9t-9 9v41q0 9 9 9t9 -9zM418 410v-41q0 -9 -9 -9t-9 9v41q0 9 9 9t9 -9zM418 290 v-41q0 -9 -9 -9t-9 9v41q0 9 9 9t9 -9zM418 230v-41q0 -9 -9 -9t-9 9v41q0 9 9 9t9 -9zM418 170v-41q0 -9 -9 -9t-9 9v41q0 9 9 9t9 -9zM418 110v-41q0 -9 -9 -9t-9 9v41q0 9 9 9t9 -9zM58 50v-41q0 -9 -9 -9t-9 9v41q0 9 9 9t9 -9zM178 530v-41q0 -9 -9 -9t-9 9v41q0 9 9 9 t9 -9zM118 470v-41q0 -9 -9 -9t-9 9v41q0 9 9 9t9 -9zM118 410v-41q0 -9 -9 -9t-9 9v41q0 9 9 9t9 -9zM118 350v-41q0 -9 -9 -9t-9 9v41q0 9 9 9t9 -9zM118 290v-41q0 -9 -9 -9t-9 9v41q0 9 9 9t9 -9zM118 230v-41q0 -9 -9 -9t-9 9v41q0 9 9 9t9 -9zM118 170v-41q0 -9 -9 -9 t-9 9v41q0 9 9 9t9 -9zM118 110v-41q0 -9 -9 -9t-9 9v41q0 9 9 9t9 -9zM118 50v-41q0 -9 -9 -9t-9 9v41q0 9 9 9t9 -9zM178 470v-41q0 -9 -9 -9t-9 9v41q0 9 9 9t9 -9zM178 410v-41q0 -9 -9 -9t-9 9v41q0 9 9 9t9 -9zM178 350v-41q0 -9 -9 -9t-9 9v41q0 9 9 9t9 -9zM178 290 v-41q0 -9 -9 -9t-9 9v41q0 9 9 9t9 -9zM178 230v-41q0 -9 -9 -9t-9 9v41q0 9 9 9t9 -9zM178 170v-41q0 -9 -9 -9t-9 9v41q0 9 9 9t9 -9zM178 110v-41q0 -9 -9 -9t-9 9v41q0 9 9 9t9 -9zM178 50v-41q0 -9 -9 -9t-9 9v41q0 9 9 9t9 -9zM238 530v-41q0 -9 -9 -9t-9 9v41 q0 9 9 9t9 -9zM298 530v-41q0 -9 -9 -9t-9 9v41q0 9 9 9t9 -9zM298 350v-41q0 -9 -9 -9t-9 9v41q0 9 9 9t9 -9zM298 50v-41q0 -9 -9 -9t-9 9v41q0 9 9 9t9 -9z" />
<glyph unicode="&#xe0;" d="M358 410v-41q0 -9 -9 -9t-9 9v41q0 9 9 9t9 -9zM358 350v-41q0 -9 -9 -9t-9 9v41q0 9 9 9t9 -9zM358 290v-41q0 -9 -9 -9t-9 9v41q0 9 9 9t9 -9zM358 230v-41q0 -9 -9 -9t-9 9v41q0 9 9 9t9 -9zM358 170v-41q0 -9 -9 -9t-9 9v41q0 9 9 9t9 -9zM358 110v-41q0 -9 -9 -9 t-9 9v41q0 9 9 9t9 -9zM358 50v-41q0 -9 -9 -9t-9 9v41q0 9 9 9t9 -9zM418 350v-41q0 -9 -9 -9t-9 9v41q0 9 9 9t9 -9zM418 290v-41q0 -9 -9 -9t-9 9v41q0 9 9 9t9 -9zM418 230v-41q0 -9 -9 -9t-9 9v41q0 9 9 9t9 -9zM418 170v-41q0 -9 -9 -9t-9 9v41q0 9 9 9t9 -9zM418 110 v-41q0 -9 -9 -9t-9 9v41q0 9 9 9t9 -9zM298 50v-41q0 -9 -9 -9t-9 9v41q0 9 9 9t9 -9zM178 410v-41q0 -9 -9 -9t-9 9v41q0 9 9 9t9 -9zM118 350v-41q0 -9 -9 -9t-9 9v41q0 9 9 9t9 -9zM118 230v-41q0 -9 -9 -9t-9 9v41q0 9 9 9t9 -9zM118 170v-41q0 -9 -9 -9t-9 9v41 q0 9 9 9t9 -9zM118 110v-41q0 -9 -9 -9t-9 9v41q0 9 9 9t9 -9zM238 50v-41q0 -9 -9 -9t-9 9v41q0 9 9 9t9 -9zM238 290v-41q0 -9 -9 -9t-9 9v41q0 9 9 9t9 -9zM178 230v-41q0 -9 -9 -9t-9 9v41q0 9 9 9t9 -9zM178 170v-41q0 -9 -9 -9t-9 9v41q0 9 9 9t9 -9zM178 110v-41 q0 -9 -9 -9t-9 9v41q0 9 9 9t9 -9zM178 50v-41q0 -9 -9 -9t-9 9v41q0 9 9 9t9 -9zM238 410v-41q0 -9 -9 -9t-9 9v41q0 9 9 9t9 -9zM298 410v-41q0 -9 -9 -9t-9 9v41q0 9 9 9t9 -9zM298 290v-41q0 -9 -9 -9t-9 9v41q0 9 9 9t9 -9zM418 50v-41q0 -9 -9 -9t-9 9v41q0 9 9 9 t9 -9zM178 290v-41q0 -9 -9 -9t-9 9v41q0 9 9 9t9 -9zM238 590v-41q0 -9 -9 -9t-9 9v41q0 9 9 9t9 -9zM298 530v-41q0 -9 -9 -9t-9 9v41q0 9 9 9t9 -9z" />
<glyph unicode="&#xe1;" d="M358 410v-41q0 -9 -9 -9t-9 9v41q0 9 9 9t9 -9zM358 350v-41q0 -9 -9 -9t-9 9v41q0 9 9 9t9 -9zM358 290v-41q0 -9 -9 -9t-9 9v41q0 9 9 9t9 -9zM358 230v-41q0 -9 -9 -9t-9 9v41q0 9 9 9t9 -9zM358 170v-41q0 -9 -9 -9t-9 9v41q0 9 9 9t9 -9zM358 110v-41q0 -9 -9 -9 t-9 9v41q0 9 9 9t9 -9zM358 50v-41q0 -9 -9 -9t-9 9v41q0 9 9 9t9 -9zM418 350v-41q0 -9 -9 -9t-9 9v41q0 9 9 9t9 -9zM418 290v-41q0 -9 -9 -9t-9 9v41q0 9 9 9t9 -9zM418 230v-41q0 -9 -9 -9t-9 9v41q0 9 9 9t9 -9zM418 170v-41q0 -9 -9 -9t-9 9v41q0 9 9 9t9 -9zM418 110 v-41q0 -9 -9 -9t-9 9v41q0 9 9 9t9 -9zM298 50v-41q0 -9 -9 -9t-9 9v41q0 9 9 9t9 -9zM178 410v-41q0 -9 -9 -9t-9 9v41q0 9 9 9t9 -9zM118 350v-41q0 -9 -9 -9t-9 9v41q0 9 9 9t9 -9zM118 230v-41q0 -9 -9 -9t-9 9v41q0 9 9 9t9 -9zM118 170v-41q0 -9 -9 -9t-9 9v41 q0 9 9 9t9 -9zM118 110v-41q0 -9 -9 -9t-9 9v41q0 9 9 9t9 -9zM238 50v-41q0 -9 -9 -9t-9 9v41q0 9 9 9t9 -9zM238 290v-41q0 -9 -9 -9t-9 9v41q0 9 9 9t9 -9zM178 230v-41q0 -9 -9 -9t-9 9v41q0 9 9 9t9 -9zM178 170v-41q0 -9 -9 -9t-9 9v41q0 9 9 9t9 -9zM178 110v-41 q0 -9 -9 -9t-9 9v41q0 9 9 9t9 -9zM178 50v-41q0 -9 -9 -9t-9 9v41q0 9 9 9t9 -9zM238 410v-41q0 -9 -9 -9t-9 9v41q0 9 9 9t9 -9zM298 410v-41q0 -9 -9 -9t-9 9v41q0 9 9 9t9 -9zM298 290v-41q0 -9 -9 -9t-9 9v41q0 9 9 9t9 -9zM418 50v-41q0 -9 -9 -9t-9 9v41q0 9 9 9 t9 -9zM178 290v-41q0 -9 -9 -9t-9 9v41q0 9 9 9t9 -9zM280 549v41q0 9 9 9t9 -9v-41q0 -9 -9 -9t-9 9zM220 489v41q0 9 9 9t9 -9v-41q0 -9 -9 -9t-9 9z" />
<glyph unicode="&#xe2;" d="M358 410v-41q0 -9 -9 -9t-9 9v41q0 9 9 9t9 -9zM358 350v-41q0 -9 -9 -9t-9 9v41q0 9 9 9t9 -9zM358 290v-41q0 -9 -9 -9t-9 9v41q0 9 9 9t9 -9zM358 230v-41q0 -9 -9 -9t-9 9v41q0 9 9 9t9 -9zM358 170v-41q0 -9 -9 -9t-9 9v41q0 9 9 9t9 -9zM358 110v-41q0 -9 -9 -9 t-9 9v41q0 9 9 9t9 -9zM358 50v-41q0 -9 -9 -9t-9 9v41q0 9 9 9t9 -9zM418 350v-41q0 -9 -9 -9t-9 9v41q0 9 9 9t9 -9zM418 290v-41q0 -9 -9 -9t-9 9v41q0 9 9 9t9 -9zM418 230v-41q0 -9 -9 -9t-9 9v41q0 9 9 9t9 -9zM418 170v-41q0 -9 -9 -9t-9 9v41q0 9 9 9t9 -9zM418 110 v-41q0 -9 -9 -9t-9 9v41q0 9 9 9t9 -9zM298 50v-41q0 -9 -9 -9t-9 9v41q0 9 9 9t9 -9zM178 410v-41q0 -9 -9 -9t-9 9v41q0 9 9 9t9 -9zM118 350v-41q0 -9 -9 -9t-9 9v41q0 9 9 9t9 -9zM118 230v-41q0 -9 -9 -9t-9 9v41q0 9 9 9t9 -9zM118 170v-41q0 -9 -9 -9t-9 9v41 q0 9 9 9t9 -9zM118 110v-41q0 -9 -9 -9t-9 9v41q0 9 9 9t9 -9zM238 50v-41q0 -9 -9 -9t-9 9v41q0 9 9 9t9 -9zM238 290v-41q0 -9 -9 -9t-9 9v41q0 9 9 9t9 -9zM178 230v-41q0 -9 -9 -9t-9 9v41q0 9 9 9t9 -9zM178 170v-41q0 -9 -9 -9t-9 9v41q0 9 9 9t9 -9zM178 110v-41 q0 -9 -9 -9t-9 9v41q0 9 9 9t9 -9zM178 50v-41q0 -9 -9 -9t-9 9v41q0 9 9 9t9 -9zM238 410v-41q0 -9 -9 -9t-9 9v41q0 9 9 9t9 -9zM298 410v-41q0 -9 -9 -9t-9 9v41q0 9 9 9t9 -9zM298 290v-41q0 -9 -9 -9t-9 9v41q0 9 9 9t9 -9zM418 50v-41q0 -9 -9 -9t-9 9v41q0 9 9 9 t9 -9zM178 290v-41q0 -9 -9 -9t-9 9v41q0 9 9 9t9 -9zM160 489v41q0 9 9 9t9 -9v-41q0 -9 -9 -9t-9 9zM220 549v41q0 9 9 9t9 -9v-41q0 -9 -9 -9t-9 9zM280 549v41q0 9 9 9t9 -9v-41q0 -9 -9 -9t-9 9zM340 489v41q0 9 9 9t9 -9v-41q0 -9 -9 -9t-9 9z" />
<glyph unicode="&#xe3;" d="M358 410v-41q0 -9 -9 -9t-9 9v41q0 9 9 9t9 -9zM358 350v-41q0 -9 -9 -9t-9 9v41q0 9 9 9t9 -9zM358 290v-41q0 -9 -9 -9t-9 9v41q0 9 9 9t9 -9zM358 230v-41q0 -9 -9 -9t-9 9v41q0 9 9 9t9 -9zM358 170v-41q0 -9 -9 -9t-9 9v41q0 9 9 9t9 -9zM358 110v-41q0 -9 -9 -9 t-9 9v41q0 9 9 9t9 -9zM358 50v-41q0 -9 -9 -9t-9 9v41q0 9 9 9t9 -9zM418 350v-41q0 -9 -9 -9t-9 9v41q0 9 9 9t9 -9zM418 290v-41q0 -9 -9 -9t-9 9v41q0 9 9 9t9 -9zM418 230v-41q0 -9 -9 -9t-9 9v41q0 9 9 9t9 -9zM418 170v-41q0 -9 -9 -9t-9 9v41q0 9 9 9t9 -9zM418 110 v-41q0 -9 -9 -9t-9 9v41q0 9 9 9t9 -9zM298 50v-41q0 -9 -9 -9t-9 9v41q0 9 9 9t9 -9zM178 410v-41q0 -9 -9 -9t-9 9v41q0 9 9 9t9 -9zM118 350v-41q0 -9 -9 -9t-9 9v41q0 9 9 9t9 -9zM118 230v-41q0 -9 -9 -9t-9 9v41q0 9 9 9t9 -9zM118 170v-41q0 -9 -9 -9t-9 9v41 q0 9 9 9t9 -9zM118 110v-41q0 -9 -9 -9t-9 9v41q0 9 9 9t9 -9zM238 50v-41q0 -9 -9 -9t-9 9v41q0 9 9 9t9 -9zM238 290v-41q0 -9 -9 -9t-9 9v41q0 9 9 9t9 -9zM178 230v-41q0 -9 -9 -9t-9 9v41q0 9 9 9t9 -9zM178 170v-41q0 -9 -9 -9t-9 9v41q0 9 9 9t9 -9zM178 110v-41 q0 -9 -9 -9t-9 9v41q0 9 9 9t9 -9zM178 50v-41q0 -9 -9 -9t-9 9v41q0 9 9 9t9 -9zM238 410v-41q0 -9 -9 -9t-9 9v41q0 9 9 9t9 -9zM298 410v-41q0 -9 -9 -9t-9 9v41q0 9 9 9t9 -9zM298 290v-41q0 -9 -9 -9t-9 9v41q0 9 9 9t9 -9zM418 50v-41q0 -9 -9 -9t-9 9v41q0 9 9 9 t9 -9zM178 290v-41q0 -9 -9 -9t-9 9v41q0 9 9 9t9 -9zM100 489v41q0 9 9 9t9 -9v-41q0 -9 -9 -9t-9 9zM160 549v41q0 9 9 9t9 -9v-41q0 -9 -9 -9t-9 9zM220 549v41q0 9 9 9t9 -9v-41q0 -9 -9 -9t-9 9zM280 489v41q0 9 9 9t9 -9v-41q0 -9 -9 -9t-9 9zM340 489v41q0 9 9 9 t9 -9v-41q0 -9 -9 -9t-9 9zM400 549v41q0 9 9 9t9 -9v-41q0 -9 -9 -9t-9 9z" />
<glyph unicode="&#xe4;" d="M358 410v-41q0 -9 -9 -9t-9 9v41q0 9 9 9t9 -9zM358 350v-41q0 -9 -9 -9t-9 9v41q0 9 9 9t9 -9zM358 290v-41q0 -9 -9 -9t-9 9v41q0 9 9 9t9 -9zM358 230v-41q0 -9 -9 -9t-9 9v41q0 9 9 9t9 -9zM358 170v-41q0 -9 -9 -9t-9 9v41q0 9 9 9t9 -9zM358 110v-41q0 -9 -9 -9 t-9 9v41q0 9 9 9t9 -9zM358 50v-41q0 -9 -9 -9t-9 9v41q0 9 9 9t9 -9zM418 350v-41q0 -9 -9 -9t-9 9v41q0 9 9 9t9 -9zM418 290v-41q0 -9 -9 -9t-9 9v41q0 9 9 9t9 -9zM418 230v-41q0 -9 -9 -9t-9 9v41q0 9 9 9t9 -9zM418 170v-41q0 -9 -9 -9t-9 9v41q0 9 9 9t9 -9zM418 110 v-41q0 -9 -9 -9t-9 9v41q0 9 9 9t9 -9zM298 50v-41q0 -9 -9 -9t-9 9v41q0 9 9 9t9 -9zM178 410v-41q0 -9 -9 -9t-9 9v41q0 9 9 9t9 -9zM118 350v-41q0 -9 -9 -9t-9 9v41q0 9 9 9t9 -9zM118 230v-41q0 -9 -9 -9t-9 9v41q0 9 9 9t9 -9zM118 170v-41q0 -9 -9 -9t-9 9v41 q0 9 9 9t9 -9zM118 110v-41q0 -9 -9 -9t-9 9v41q0 9 9 9t9 -9zM238 50v-41q0 -9 -9 -9t-9 9v41q0 9 9 9t9 -9zM238 290v-41q0 -9 -9 -9t-9 9v41q0 9 9 9t9 -9zM178 230v-41q0 -9 -9 -9t-9 9v41q0 9 9 9t9 -9zM178 170v-41q0 -9 -9 -9t-9 9v41q0 9 9 9t9 -9zM178 110v-41 q0 -9 -9 -9t-9 9v41q0 9 9 9t9 -9zM178 50v-41q0 -9 -9 -9t-9 9v41q0 9 9 9t9 -9zM238 410v-41q0 -9 -9 -9t-9 9v41q0 9 9 9t9 -9zM298 410v-41q0 -9 -9 -9t-9 9v41q0 9 9 9t9 -9zM298 290v-41q0 -9 -9 -9t-9 9v41q0 9 9 9t9 -9zM418 50v-41q0 -9 -9 -9t-9 9v41q0 9 9 9 t9 -9zM178 290v-41q0 -9 -9 -9t-9 9v41q0 9 9 9t9 -9zM340 489v41q0 9 9 9t9 -9v-41q0 -9 -9 -9t-9 9zM160 489v41q0 9 9 9t9 -9v-41q0 -9 -9 -9t-9 9z" />
<glyph unicode="&#xe5;" d="M358 410v-41q0 -9 -9 -9t-9 9v41q0 9 9 9t9 -9zM358 350v-41q0 -9 -9 -9t-9 9v41q0 9 9 9t9 -9zM358 290v-41q0 -9 -9 -9t-9 9v41q0 9 9 9t9 -9zM358 230v-41q0 -9 -9 -9t-9 9v41q0 9 9 9t9 -9zM358 170v-41q0 -9 -9 -9t-9 9v41q0 9 9 9t9 -9zM358 110v-41q0 -9 -9 -9 t-9 9v41q0 9 9 9t9 -9zM358 50v-41q0 -9 -9 -9t-9 9v41q0 9 9 9t9 -9zM418 350v-41q0 -9 -9 -9t-9 9v41q0 9 9 9t9 -9zM418 290v-41q0 -9 -9 -9t-9 9v41q0 9 9 9t9 -9zM418 230v-41q0 -9 -9 -9t-9 9v41q0 9 9 9t9 -9zM418 170v-41q0 -9 -9 -9t-9 9v41q0 9 9 9t9 -9zM418 110 v-41q0 -9 -9 -9t-9 9v41q0 9 9 9t9 -9zM298 50v-41q0 -9 -9 -9t-9 9v41q0 9 9 9t9 -9zM178 410v-41q0 -9 -9 -9t-9 9v41q0 9 9 9t9 -9zM118 350v-41q0 -9 -9 -9t-9 9v41q0 9 9 9t9 -9zM118 230v-41q0 -9 -9 -9t-9 9v41q0 9 9 9t9 -9zM118 170v-41q0 -9 -9 -9t-9 9v41 q0 9 9 9t9 -9zM118 110v-41q0 -9 -9 -9t-9 9v41q0 9 9 9t9 -9zM238 50v-41q0 -9 -9 -9t-9 9v41q0 9 9 9t9 -9zM238 290v-41q0 -9 -9 -9t-9 9v41q0 9 9 9t9 -9zM178 230v-41q0 -9 -9 -9t-9 9v41q0 9 9 9t9 -9zM178 170v-41q0 -9 -9 -9t-9 9v41q0 9 9 9t9 -9zM178 110v-41 q0 -9 -9 -9t-9 9v41q0 9 9 9t9 -9zM178 50v-41q0 -9 -9 -9t-9 9v41q0 9 9 9t9 -9zM238 410v-41q0 -9 -9 -9t-9 9v41q0 9 9 9t9 -9zM298 410v-41q0 -9 -9 -9t-9 9v41q0 9 9 9t9 -9zM298 290v-41q0 -9 -9 -9t-9 9v41q0 9 9 9t9 -9zM418 50v-41q0 -9 -9 -9t-9 9v41q0 9 9 9 t9 -9zM178 290v-41q0 -9 -9 -9t-9 9v41q0 9 9 9t9 -9zM220 489v41q0 9 9 9t9 -9v-41q0 -9 -9 -9t-9 9zM280 489v41q0 9 9 9t9 -9v-41q0 -9 -9 -9t-9 9zM220 669v41q0 9 9 9t9 -9v-41q0 -9 -9 -9t-9 9zM280 669v41q0 9 9 9t9 -9v-41q0 -9 -9 -9t-9 9zM340 609v41q0 9 9 9 t9 -9v-41q0 -9 -9 -9t-9 9zM340 549v41q0 9 9 9t9 -9v-41q0 -9 -9 -9t-9 9zM160 609v41q0 9 9 9t9 -9v-41q0 -9 -9 -9t-9 9zM160 549v41q0 9 9 9t9 -9v-41q0 -9 -9 -9t-9 9z" />
<glyph unicode="&#xe6;" d="M358 410v-41q0 -9 -9 -9t-9 9v41q0 9 9 9t9 -9zM358 350v-41q0 -9 -9 -9t-9 9v41q0 9 9 9t9 -9zM358 290v-41q0 -9 -9 -9t-9 9v41q0 9 9 9t9 -9zM358 230v-41q0 -9 -9 -9t-9 9v41q0 9 9 9t9 -9zM358 170v-41q0 -9 -9 -9t-9 9v41q0 9 9 9t9 -9zM358 110v-41q0 -9 -9 -9 t-9 9v41q0 9 9 9t9 -9zM358 50v-41q0 -9 -9 -9t-9 9v41q0 9 9 9t9 -9zM298 50v-41q0 -9 -9 -9t-9 9v41q0 9 9 9t9 -9zM178 410v-41q0 -9 -9 -9t-9 9v41q0 9 9 9t9 -9zM118 350v-41q0 -9 -9 -9t-9 9v41q0 9 9 9t9 -9zM118 230v-41q0 -9 -9 -9t-9 9v41q0 9 9 9t9 -9zM118 170 v-41q0 -9 -9 -9t-9 9v41q0 9 9 9t9 -9zM118 110v-41q0 -9 -9 -9t-9 9v41q0 9 9 9t9 -9zM238 50v-41q0 -9 -9 -9t-9 9v41q0 9 9 9t9 -9zM238 290v-41q0 -9 -9 -9t-9 9v41q0 9 9 9t9 -9zM178 230v-41q0 -9 -9 -9t-9 9v41q0 9 9 9t9 -9zM178 170v-41q0 -9 -9 -9t-9 9v41 q0 9 9 9t9 -9zM178 110v-41q0 -9 -9 -9t-9 9v41q0 9 9 9t9 -9zM178 50v-41q0 -9 -9 -9t-9 9v41q0 9 9 9t9 -9zM238 410v-41q0 -9 -9 -9t-9 9v41q0 9 9 9t9 -9zM298 410v-41q0 -9 -9 -9t-9 9v41q0 9 9 9t9 -9zM298 290v-41q0 -9 -9 -9t-9 9v41q0 9 9 9t9 -9zM178 290v-41 q0 -9 -9 -9t-9 9v41q0 9 9 9t9 -9zM400 9v41q0 9 9 9t9 -9v-41q0 -9 -9 -9t-9 9zM400 69v41q0 9 9 9t9 -9v-41q0 -9 -9 -9t-9 9zM400 129v41q0 9 9 9t9 -9v-41q0 -9 -9 -9t-9 9zM400 189v41q0 9 9 9t9 -9v-41q0 -9 -9 -9t-9 9zM400 249v41q0 9 9 9t9 -9v-41q0 -9 -9 -9t-9 9 zM400 309v41q0 9 9 9t9 -9v-41q0 -9 -9 -9t-9 9zM400 369v41q0 9 9 9t9 -9v-41q0 -9 -9 -9t-9 9zM460 369v41q0 9 9 9t9 -9v-41q0 -9 -9 -9t-9 9zM580 9v41q0 9 9 9t9 -9v-41q0 -9 -9 -9t-9 9zM640 69v41q0 9 9 9t9 -9v-41q0 -9 -9 -9t-9 9zM640 189v41q0 9 9 9t9 -9v-41 q0 -9 -9 -9t-9 9zM640 249v41q0 9 9 9t9 -9v-41q0 -9 -9 -9t-9 9zM640 309v41q0 9 9 9t9 -9v-41q0 -9 -9 -9t-9 9zM520 369v41q0 9 9 9t9 -9v-41q0 -9 -9 -9t-9 9zM520 189v41q0 9 9 9t9 -9v-41q0 -9 -9 -9t-9 9zM580 189v41q0 9 9 9t9 -9v-41q0 -9 -9 -9t-9 9zM580 249v41 q0 9 9 9t9 -9v-41q0 -9 -9 -9t-9 9zM580 309v41q0 9 9 9t9 -9v-41q0 -9 -9 -9t-9 9zM580 369v41q0 9 9 9t9 -9v-41q0 -9 -9 -9t-9 9zM520 9v41q0 9 9 9t9 -9v-41q0 -9 -9 -9t-9 9zM460 9v41q0 9 9 9t9 -9v-41q0 -9 -9 -9t-9 9zM460 189v41q0 9 9 9t9 -9v-41q0 -9 -9 -9t-9 9 z" />
<glyph unicode="&#xe7;" horiz-adv-x="420" d="M160 9v41q0 9 9 9t9 -9v-41q0 -9 -9 -9t-9 9zM160 69v41q0 9 9 9t9 -9v-41q0 -9 -9 -9t-9 9zM160 129v41q0 9 9 9t9 -9v-41q0 -9 -9 -9t-9 9zM160 189v41q0 9 9 9t9 -9v-41q0 -9 -9 -9t-9 9zM160 249v41q0 9 9 9t9 -9v-41q0 -9 -9 -9t-9 9zM160 309v41q0 9 9 9t9 -9v-41 q0 -9 -9 -9t-9 9zM160 369v41q0 9 9 9t9 -9v-41q0 -9 -9 -9t-9 9zM100 69v41q0 9 9 9t9 -9v-41q0 -9 -9 -9t-9 9zM100 129v41q0 9 9 9t9 -9v-41q0 -9 -9 -9t-9 9zM100 189v41q0 9 9 9t9 -9v-41q0 -9 -9 -9t-9 9zM100 249v41q0 9 9 9t9 -9v-41q0 -9 -9 -9t-9 9zM100 309v41 q0 9 9 9t9 -9v-41q0 -9 -9 -9t-9 9zM220 369v41q0 9 9 9t9 -9v-41q0 -9 -9 -9t-9 9zM280 369v41q0 9 9 9t9 -9v-41q0 -9 -9 -9t-9 9zM340 69v41q0 9 9 9t9 -9v-41q0 -9 -9 -9t-9 9zM340 309v41q0 9 9 9t9 -9v-41q0 -9 -9 -9t-9 9zM280 9v41q0 9 9 9t9 -9v-41q0 -9 -9 -9 t-9 9zM220 9v41q0 9 9 9t9 -9v-41q0 -9 -9 -9t-9 9zM220 -51v41q0 9 9 9t9 -9v-41q0 -9 -9 -9t-9 9zM280 -51v41q0 9 9 9t9 -9v-41q0 -9 -9 -9t-9 9zM220 -171v41q0 9 9 9t9 -9v-41q0 -9 -9 -9t-9 9zM280 -111v41q0 9 9 9t9 -9v-41q0 -9 -9 -9t-9 9z" />
<glyph unicode="&#xe8;" d="M160 9v41q0 9 9 9t9 -9v-41q0 -9 -9 -9t-9 9zM160 69v41q0 9 9 9t9 -9v-41q0 -9 -9 -9t-9 9zM160 129v41q0 9 9 9t9 -9v-41q0 -9 -9 -9t-9 9zM160 189v41q0 9 9 9t9 -9v-41q0 -9 -9 -9t-9 9zM160 249v41q0 9 9 9t9 -9v-41q0 -9 -9 -9t-9 9zM160 309v41q0 9 9 9t9 -9v-41 q0 -9 -9 -9t-9 9zM160 369v41q0 9 9 9t9 -9v-41q0 -9 -9 -9t-9 9zM100 69v41q0 9 9 9t9 -9v-41q0 -9 -9 -9t-9 9zM100 129v41q0 9 9 9t9 -9v-41q0 -9 -9 -9t-9 9zM100 189v41q0 9 9 9t9 -9v-41q0 -9 -9 -9t-9 9zM100 249v41q0 9 9 9t9 -9v-41q0 -9 -9 -9t-9 9zM100 309v41 q0 9 9 9t9 -9v-41q0 -9 -9 -9t-9 9zM220 369v41q0 9 9 9t9 -9v-41q0 -9 -9 -9t-9 9zM340 9v41q0 9 9 9t9 -9v-41q0 -9 -9 -9t-9 9zM400 69v41q0 9 9 9t9 -9v-41q0 -9 -9 -9t-9 9zM400 189v41q0 9 9 9t9 -9v-41q0 -9 -9 -9t-9 9zM400 249v41q0 9 9 9t9 -9v-41q0 -9 -9 -9 t-9 9zM400 309v41q0 9 9 9t9 -9v-41q0 -9 -9 -9t-9 9zM280 369v41q0 9 9 9t9 -9v-41q0 -9 -9 -9t-9 9zM280 189v41q0 9 9 9t9 -9v-41q0 -9 -9 -9t-9 9zM340 189v41q0 9 9 9t9 -9v-41q0 -9 -9 -9t-9 9zM340 249v41q0 9 9 9t9 -9v-41q0 -9 -9 -9t-9 9zM340 309v41q0 9 9 9 t9 -9v-41q0 -9 -9 -9t-9 9zM340 369v41q0 9 9 9t9 -9v-41q0 -9 -9 -9t-9 9zM280 9v41q0 9 9 9t9 -9v-41q0 -9 -9 -9t-9 9zM220 9v41q0 9 9 9t9 -9v-41q0 -9 -9 -9t-9 9zM220 189v41q0 9 9 9t9 -9v-41q0 -9 -9 -9t-9 9zM238 590v-41q0 -9 -9 -9t-9 9v41q0 9 9 9t9 -9z M298 530v-41q0 -9 -9 -9t-9 9v41q0 9 9 9t9 -9z" />
<glyph unicode="&#xe9;" d="M160 9v41q0 9 9 9t9 -9v-41q0 -9 -9 -9t-9 9zM160 69v41q0 9 9 9t9 -9v-41q0 -9 -9 -9t-9 9zM160 129v41q0 9 9 9t9 -9v-41q0 -9 -9 -9t-9 9zM160 189v41q0 9 9 9t9 -9v-41q0 -9 -9 -9t-9 9zM160 249v41q0 9 9 9t9 -9v-41q0 -9 -9 -9t-9 9zM160 309v41q0 9 9 9t9 -9v-41 q0 -9 -9 -9t-9 9zM160 369v41q0 9 9 9t9 -9v-41q0 -9 -9 -9t-9 9zM100 69v41q0 9 9 9t9 -9v-41q0 -9 -9 -9t-9 9zM100 129v41q0 9 9 9t9 -9v-41q0 -9 -9 -9t-9 9zM100 189v41q0 9 9 9t9 -9v-41q0 -9 -9 -9t-9 9zM100 249v41q0 9 9 9t9 -9v-41q0 -9 -9 -9t-9 9zM100 309v41 q0 9 9 9t9 -9v-41q0 -9 -9 -9t-9 9zM220 369v41q0 9 9 9t9 -9v-41q0 -9 -9 -9t-9 9zM340 9v41q0 9 9 9t9 -9v-41q0 -9 -9 -9t-9 9zM400 69v41q0 9 9 9t9 -9v-41q0 -9 -9 -9t-9 9zM400 189v41q0 9 9 9t9 -9v-41q0 -9 -9 -9t-9 9zM400 249v41q0 9 9 9t9 -9v-41q0 -9 -9 -9 t-9 9zM400 309v41q0 9 9 9t9 -9v-41q0 -9 -9 -9t-9 9zM280 369v41q0 9 9 9t9 -9v-41q0 -9 -9 -9t-9 9zM280 189v41q0 9 9 9t9 -9v-41q0 -9 -9 -9t-9 9zM340 189v41q0 9 9 9t9 -9v-41q0 -9 -9 -9t-9 9zM340 249v41q0 9 9 9t9 -9v-41q0 -9 -9 -9t-9 9zM340 309v41q0 9 9 9 t9 -9v-41q0 -9 -9 -9t-9 9zM340 369v41q0 9 9 9t9 -9v-41q0 -9 -9 -9t-9 9zM280 9v41q0 9 9 9t9 -9v-41q0 -9 -9 -9t-9 9zM220 9v41q0 9 9 9t9 -9v-41q0 -9 -9 -9t-9 9zM220 189v41q0 9 9 9t9 -9v-41q0 -9 -9 -9t-9 9zM280 549v41q0 9 9 9t9 -9v-41q0 -9 -9 -9t-9 9z M220 489v41q0 9 9 9t9 -9v-41q0 -9 -9 -9t-9 9z" />
<glyph unicode="&#xea;" d="M160 9v41q0 9 9 9t9 -9v-41q0 -9 -9 -9t-9 9zM160 69v41q0 9 9 9t9 -9v-41q0 -9 -9 -9t-9 9zM160 129v41q0 9 9 9t9 -9v-41q0 -9 -9 -9t-9 9zM160 189v41q0 9 9 9t9 -9v-41q0 -9 -9 -9t-9 9zM160 249v41q0 9 9 9t9 -9v-41q0 -9 -9 -9t-9 9zM160 309v41q0 9 9 9t9 -9v-41 q0 -9 -9 -9t-9 9zM160 369v41q0 9 9 9t9 -9v-41q0 -9 -9 -9t-9 9zM100 69v41q0 9 9 9t9 -9v-41q0 -9 -9 -9t-9 9zM100 129v41q0 9 9 9t9 -9v-41q0 -9 -9 -9t-9 9zM100 189v41q0 9 9 9t9 -9v-41q0 -9 -9 -9t-9 9zM100 249v41q0 9 9 9t9 -9v-41q0 -9 -9 -9t-9 9zM100 309v41 q0 9 9 9t9 -9v-41q0 -9 -9 -9t-9 9zM220 369v41q0 9 9 9t9 -9v-41q0 -9 -9 -9t-9 9zM340 9v41q0 9 9 9t9 -9v-41q0 -9 -9 -9t-9 9zM400 69v41q0 9 9 9t9 -9v-41q0 -9 -9 -9t-9 9zM400 189v41q0 9 9 9t9 -9v-41q0 -9 -9 -9t-9 9zM400 249v41q0 9 9 9t9 -9v-41q0 -9 -9 -9 t-9 9zM400 309v41q0 9 9 9t9 -9v-41q0 -9 -9 -9t-9 9zM280 369v41q0 9 9 9t9 -9v-41q0 -9 -9 -9t-9 9zM280 189v41q0 9 9 9t9 -9v-41q0 -9 -9 -9t-9 9zM340 189v41q0 9 9 9t9 -9v-41q0 -9 -9 -9t-9 9zM340 249v41q0 9 9 9t9 -9v-41q0 -9 -9 -9t-9 9zM340 309v41q0 9 9 9 t9 -9v-41q0 -9 -9 -9t-9 9zM340 369v41q0 9 9 9t9 -9v-41q0 -9 -9 -9t-9 9zM280 9v41q0 9 9 9t9 -9v-41q0 -9 -9 -9t-9 9zM220 9v41q0 9 9 9t9 -9v-41q0 -9 -9 -9t-9 9zM220 189v41q0 9 9 9t9 -9v-41q0 -9 -9 -9t-9 9zM160 489v41q0 9 9 9t9 -9v-41q0 -9 -9 -9t-9 9z M220 549v41q0 9 9 9t9 -9v-41q0 -9 -9 -9t-9 9zM280 549v41q0 9 9 9t9 -9v-41q0 -9 -9 -9t-9 9zM340 489v41q0 9 9 9t9 -9v-41q0 -9 -9 -9t-9 9z" />
<glyph unicode="&#xeb;" d="M160 9v41q0 9 9 9t9 -9v-41q0 -9 -9 -9t-9 9zM160 69v41q0 9 9 9t9 -9v-41q0 -9 -9 -9t-9 9zM160 129v41q0 9 9 9t9 -9v-41q0 -9 -9 -9t-9 9zM160 189v41q0 9 9 9t9 -9v-41q0 -9 -9 -9t-9 9zM160 249v41q0 9 9 9t9 -9v-41q0 -9 -9 -9t-9 9zM160 309v41q0 9 9 9t9 -9v-41 q0 -9 -9 -9t-9 9zM160 369v41q0 9 9 9t9 -9v-41q0 -9 -9 -9t-9 9zM100 69v41q0 9 9 9t9 -9v-41q0 -9 -9 -9t-9 9zM100 129v41q0 9 9 9t9 -9v-41q0 -9 -9 -9t-9 9zM100 189v41q0 9 9 9t9 -9v-41q0 -9 -9 -9t-9 9zM100 249v41q0 9 9 9t9 -9v-41q0 -9 -9 -9t-9 9zM100 309v41 q0 9 9 9t9 -9v-41q0 -9 -9 -9t-9 9zM220 369v41q0 9 9 9t9 -9v-41q0 -9 -9 -9t-9 9zM340 9v41q0 9 9 9t9 -9v-41q0 -9 -9 -9t-9 9zM400 69v41q0 9 9 9t9 -9v-41q0 -9 -9 -9t-9 9zM400 189v41q0 9 9 9t9 -9v-41q0 -9 -9 -9t-9 9zM400 249v41q0 9 9 9t9 -9v-41q0 -9 -9 -9 t-9 9zM400 309v41q0 9 9 9t9 -9v-41q0 -9 -9 -9t-9 9zM280 369v41q0 9 9 9t9 -9v-41q0 -9 -9 -9t-9 9zM280 189v41q0 9 9 9t9 -9v-41q0 -9 -9 -9t-9 9zM340 189v41q0 9 9 9t9 -9v-41q0 -9 -9 -9t-9 9zM340 249v41q0 9 9 9t9 -9v-41q0 -9 -9 -9t-9 9zM340 309v41q0 9 9 9 t9 -9v-41q0 -9 -9 -9t-9 9zM340 369v41q0 9 9 9t9 -9v-41q0 -9 -9 -9t-9 9zM280 9v41q0 9 9 9t9 -9v-41q0 -9 -9 -9t-9 9zM220 9v41q0 9 9 9t9 -9v-41q0 -9 -9 -9t-9 9zM220 189v41q0 9 9 9t9 -9v-41q0 -9 -9 -9t-9 9zM340 489v41q0 9 9 9t9 -9v-41q0 -9 -9 -9t-9 9z M160 489v41q0 9 9 9t9 -9v-41q0 -9 -9 -9t-9 9z" />
<glyph unicode="&#xec;" horiz-adv-x="240" d="M118 410v-41q0 -9 -9 -9t-9 9v41q0 9 9 9t9 -9zM118 350v-41q0 -9 -9 -9t-9 9v41q0 9 9 9t9 -9zM118 290v-41q0 -9 -9 -9t-9 9v41q0 9 9 9t9 -9zM118 230v-41q0 -9 -9 -9t-9 9v41q0 9 9 9t9 -9zM118 170v-41q0 -9 -9 -9t-9 9v41q0 9 9 9t9 -9zM118 110v-41q0 -9 -9 -9 t-9 9v41q0 9 9 9t9 -9zM118 50v-41q0 -9 -9 -9t-9 9v41q0 9 9 9t9 -9zM178 410v-41q0 -9 -9 -9t-9 9v41q0 9 9 9t9 -9zM178 350v-41q0 -9 -9 -9t-9 9v41q0 9 9 9t9 -9zM178 290v-41q0 -9 -9 -9t-9 9v41q0 9 9 9t9 -9zM178 230v-41q0 -9 -9 -9t-9 9v41q0 9 9 9t9 -9zM178 170 v-41q0 -9 -9 -9t-9 9v41q0 9 9 9t9 -9zM178 110v-41q0 -9 -9 -9t-9 9v41q0 9 9 9t9 -9zM178 50v-41q0 -9 -9 -9t-9 9v41q0 9 9 9t9 -9zM118 590v-41q0 -9 -9 -9t-9 9v41q0 9 9 9t9 -9zM178 530v-41q0 -9 -9 -9t-9 9v41q0 9 9 9t9 -9z" />
<glyph unicode="&#xed;" horiz-adv-x="240" d="M118 410v-41q0 -9 -9 -9t-9 9v41q0 9 9 9t9 -9zM118 350v-41q0 -9 -9 -9t-9 9v41q0 9 9 9t9 -9zM118 290v-41q0 -9 -9 -9t-9 9v41q0 9 9 9t9 -9zM118 230v-41q0 -9 -9 -9t-9 9v41q0 9 9 9t9 -9zM118 170v-41q0 -9 -9 -9t-9 9v41q0 9 9 9t9 -9zM118 110v-41q0 -9 -9 -9 t-9 9v41q0 9 9 9t9 -9zM118 50v-41q0 -9 -9 -9t-9 9v41q0 9 9 9t9 -9zM178 410v-41q0 -9 -9 -9t-9 9v41q0 9 9 9t9 -9zM178 350v-41q0 -9 -9 -9t-9 9v41q0 9 9 9t9 -9zM178 290v-41q0 -9 -9 -9t-9 9v41q0 9 9 9t9 -9zM178 230v-41q0 -9 -9 -9t-9 9v41q0 9 9 9t9 -9zM178 170 v-41q0 -9 -9 -9t-9 9v41q0 9 9 9t9 -9zM178 110v-41q0 -9 -9 -9t-9 9v41q0 9 9 9t9 -9zM178 50v-41q0 -9 -9 -9t-9 9v41q0 9 9 9t9 -9zM160 549v41q0 9 9 9t9 -9v-41q0 -9 -9 -9t-9 9zM100 489v41q0 9 9 9t9 -9v-41q0 -9 -9 -9t-9 9z" />
<glyph unicode="&#xee;" horiz-adv-x="240" d="M118 410v-41q0 -9 -9 -9t-9 9v41q0 9 9 9t9 -9zM118 350v-41q0 -9 -9 -9t-9 9v41q0 9 9 9t9 -9zM118 290v-41q0 -9 -9 -9t-9 9v41q0 9 9 9t9 -9zM118 230v-41q0 -9 -9 -9t-9 9v41q0 9 9 9t9 -9zM118 170v-41q0 -9 -9 -9t-9 9v41q0 9 9 9t9 -9zM118 110v-41q0 -9 -9 -9 t-9 9v41q0 9 9 9t9 -9zM118 50v-41q0 -9 -9 -9t-9 9v41q0 9 9 9t9 -9zM178 410v-41q0 -9 -9 -9t-9 9v41q0 9 9 9t9 -9zM178 350v-41q0 -9 -9 -9t-9 9v41q0 9 9 9t9 -9zM178 290v-41q0 -9 -9 -9t-9 9v41q0 9 9 9t9 -9zM178 230v-41q0 -9 -9 -9t-9 9v41q0 9 9 9t9 -9zM178 170 v-41q0 -9 -9 -9t-9 9v41q0 9 9 9t9 -9zM178 110v-41q0 -9 -9 -9t-9 9v41q0 9 9 9t9 -9zM178 50v-41q0 -9 -9 -9t-9 9v41q0 9 9 9t9 -9zM40 489v41q0 9 9 9t9 -9v-41q0 -9 -9 -9t-9 9zM100 549v41q0 9 9 9t9 -9v-41q0 -9 -9 -9t-9 9zM160 549v41q0 9 9 9t9 -9v-41q0 -9 -9 -9 t-9 9zM220 489v41q0 9 9 9t9 -9v-41q0 -9 -9 -9t-9 9z" />
<glyph unicode="&#xef;" horiz-adv-x="240" d="M118 410v-41q0 -9 -9 -9t-9 9v41q0 9 9 9t9 -9zM118 350v-41q0 -9 -9 -9t-9 9v41q0 9 9 9t9 -9zM118 290v-41q0 -9 -9 -9t-9 9v41q0 9 9 9t9 -9zM118 230v-41q0 -9 -9 -9t-9 9v41q0 9 9 9t9 -9zM118 170v-41q0 -9 -9 -9t-9 9v41q0 9 9 9t9 -9zM118 110v-41q0 -9 -9 -9 t-9 9v41q0 9 9 9t9 -9zM118 50v-41q0 -9 -9 -9t-9 9v41q0 9 9 9t9 -9zM178 410v-41q0 -9 -9 -9t-9 9v41q0 9 9 9t9 -9zM178 350v-41q0 -9 -9 -9t-9 9v41q0 9 9 9t9 -9zM178 290v-41q0 -9 -9 -9t-9 9v41q0 9 9 9t9 -9zM178 230v-41q0 -9 -9 -9t-9 9v41q0 9 9 9t9 -9zM178 170 v-41q0 -9 -9 -9t-9 9v41q0 9 9 9t9 -9zM178 110v-41q0 -9 -9 -9t-9 9v41q0 9 9 9t9 -9zM178 50v-41q0 -9 -9 -9t-9 9v41q0 9 9 9t9 -9zM220 489v41q0 9 9 9t9 -9v-41q0 -9 -9 -9t-9 9zM40 489v41q0 9 9 9t9 -9v-41q0 -9 -9 -9t-9 9z" />
</font>
</defs>
</svg>
