<?xml version="1.0" standalone="no"?>
<!DOCTYPE svg PUBLIC "-//W3C//DTD SVG 1.1//EN" "http://www.w3.org/Graphics/SVG/1.1/DTD/svg11.dtd" >
<svg xmlns="http://www.w3.org/2000/svg">
<metadata>
This is a custom SVG webfont generated by Font Squirrel.
Copyright   : Copyright c 2010 by deValence All rights reserved
Foundry     : deValence
</metadata>
<defs>
<font id="ParticulesMaster" horiz-adv-x="983" >
<font-face units-per-em="2048" ascent="1638" descent="-410" />
<missing-glyph horiz-adv-x="614" />
<glyph unicode=" "  horiz-adv-x="614" />
<glyph unicode="&#x09;" horiz-adv-x="614" />
<glyph unicode="&#xa0;" horiz-adv-x="614" />
<glyph unicode="!" horiz-adv-x="737" d="M246 0v246h246v-246h-246zM246 369v737h246v-737h-246z" />
<glyph unicode="&#x22;" horiz-adv-x="860" d="M246 737v369h123v-369h-123zM492 737v369h122v-369h-122z" />
<glyph unicode="#" d="M0 246v123h246v368h-123v123h246v246h123v-246h245v246h123v-246h123v-123h-246v-368h123v-123h-246v-246h-122v246h-246v-246h-123v246h-123zM369 369h245v368h-245v-368z" />
<glyph unicode="$" horiz-adv-x="860" d="M123 123v123h123v-123h246v246h-123v123h-123v122h-123v369h123v123h123v246h123v-246h122v-123h123v-123h-123v123h-245v-246h123v-123h122v-122h123v-369h-123v-123h-122v-246h-123v246h-123v123h-123z" />
<glyph unicode="%" horiz-adv-x="1351" d="M123 860v246h123v-246h-123zM246 737v123h246v-123h-246zM246 1106v123h246v-123h-246zM369 0v246h123v-246h-123zM492 246v246h122v-246h-122zM492 860v246h122v-246h-122zM614 492v245h123v-245h-123zM737 123v246h123v-246h-123zM737 737v246h123v-246h-123zM860 0 v123h246v-123h-246zM860 369v123h246v-123h-246zM860 983v246h123v-246h-123zM1106 123v246h123v-246h-123z" />
<glyph unicode="&#x26;" horiz-adv-x="1228" d="M123 123v491h123v123h-123v246h123v123h491v-123h123v-246h-246v246h-245v-246h123v-123h-123v-491h245v491h369v-122h-123v-369h-123v-123h-491v123h-123zM983 614v246h123v-246h-123z" />
<glyph unicode="'" horiz-adv-x="368" d="M123 737v371h123v-371h-123z" />
<glyph unicode="(" horiz-adv-x="614" d="M123 123v860h123v123h123v-1106h123v-123h-123v123h-123v123h-123zM369 1106v123h123v-123h-123z" />
<glyph unicode=")" horiz-adv-x="614" d="M123 0h123v1106h123v-123h123v-860h-123v-123h-123v-123h-123v123zM123 1106v123h123v-123h-123z" />
<glyph unicode="*" horiz-adv-x="860" d="M123 614v123h123v-123h-123zM123 860v123h123v-123h123v246h123v-246h122v-123h123v-123h-123v123h-122v-245h-123v245h-123v123h-123zM614 860v123h123v-123h-123z" />
<glyph unicode="+" d="M123 492v122h369v369h122v-369h369v-122h-369v-369h-122v369h-369z" />
<glyph unicode="," horiz-adv-x="491" d="M123 0v246h246v-369h-123v123h-123zM123 -123h123v-123h-123v123z" />
<glyph unicode="-" horiz-adv-x="860" d="M123 492v122h614v-122h-614z" />
<glyph unicode="." horiz-adv-x="491" d="M123 0v246h246v-246h-246z" />
<glyph unicode="/" d="M123 0v246h123v-246h-123zM246 246v246h123v-246h-123zM369 492v245h123v-245h-123zM492 737v246h122v-246h-122zM614 983v246h123v-246h-123zM737 1229v246h123v-246h-123z" />
<glyph unicode="0" d="M123 123v860h123v123h491v-123h123v-860h-123v-123h-491v123h-123zM369 123h245v860h-245v-860z" />
<glyph unicode="1" d="M123 0v123h246v737h-123v123h123v123h245v-983h246v-123h-737zM123 737v123h123v-123h-123z" />
<glyph unicode="2" d="M123 0v246h123v123h123v123h123v122h122v369h-368v123h491v-123h123v-369h-123v-122h-123v-123h-122v-123h-123v-123h491v-123h-737zM123 860v119h123v-119h-123z" />
<glyph unicode="3" d="M123 123v123h123v-123h368v491h-368v123h123v123h123v123h-369v123h737v-123h-123v-123h-123v-123h123v-123h123v-491h-123v-123h-497v123h-117z" />
<glyph unicode="4" d="M123 369v245h123v123h123v123h123v123h122v123h246v-614h123v-123h-123v-369h-246v369h-491zM246 492h368v364h-122v-123h-123v-123h-123v-118z" />
<glyph unicode="5" d="M123 123v123h123v-123h368v491h-491v492h737v-123h-491v-246h368v-123h123v-491h-123v-123h-497v123h-117z" />
<glyph unicode="6" d="M123 123v737h123v123h123v123h368v-123h-245v-123h-123v-123h368v-123h123v-491h-123v-123h-491v123h-123zM369 123h245v491h-245v-491z" />
<glyph unicode="7" d="M123 983v123h737v-492h-123v-122h-123v-492h-245v492h123v122h122v369h-491z" />
<glyph unicode="8" d="M123 123v369h123v122h-123v369h123v123h491v-123h123v-369h-123v-122h123v-369h-123v-123h-491v123h-123zM369 123h245v369h-245v-369zM369 614h245v369h-245v-369z" />
<glyph unicode="9" d="M123 492v491h123v123h491v-123h123v-737h-123v-123h-123v-123h-368v123h246v123h122v123h-368v123h-123zM369 492h245v491h-245v-491z" />
<glyph unicode=":" horiz-adv-x="491" d="M123 0v246h246v-246h-246zM123 614v246h246v-246h-246z" />
<glyph unicode=";" horiz-adv-x="532" d="M123 0v246h246v-369h-123v123h-123zM123 -123h123v-123h-123v123zM123 614v246h246v-246h-246z" />
<glyph unicode="&#x3c;" d="M123 492h246v122h-246v-122zM369 369h245v123h-245v-123zM369 614v123h245v-123h-245zM614 246h246v123h-246v-123zM614 737v123h246v-123h-246z" />
<glyph unicode="=" d="M123 246v123h860v-123h-860zM123 737v123h860v-123h-860z" />
<glyph unicode="&#x3e;" d="M123 246v123h246v-123h-246zM123 737v123h246v-123h-246zM369 369v123h245v-123h-245zM369 614v123h245v-123h-245zM614 492v122h246v-122h-246z" />
<glyph unicode="?" d="M123 860v123h123v-123h-123zM246 983v123h491v-123h123v-246h-123v-123h-123v-245h-245v245h123v123h122v246h-368zM369 0v246h245v-246h-245z" />
<glyph unicode="@" horiz-adv-x="1228" d="M123 246v491h123v-491h-123zM246 123v123h123v-123h-123zM246 737v123h123v-123h-123zM369 0v123h614v-123h-614zM369 369v245h123v-245h-123zM369 860v123h491v-123h-491zM492 246v123h245v-123h-245zM492 614v123h245v-123h-245zM737 369v245h123v-245h-123zM860 246 v123h123v-123h-123zM860 737v123h123v-123h-123zM983 369v368h123v-368h-123z" />
<glyph unicode="A" d="M123 0v983h123v123h491v-123h123v-983h-246v492h-245v-492h-246zM369 614h245v369h-245v-369z" />
<glyph unicode="B" d="M123 0v1106h614v-123h123v-369h-123v-122h123v-369h-123v-123h-614zM369 123h245v369h-245v-369zM369 614h245v369h-245v-369z" />
<glyph unicode="C" d="M123 123v860h123v123h491v-123h123v-123h-123v123h-368v-860h368v-123h-491v123h-123zM737 123v123h123v-123h-123z" />
<glyph unicode="D" d="M123 0v1106h614v-123h123v-860h-123v-123h-614zM369 123h245v860h-245v-860z" />
<glyph unicode="E" horiz-adv-x="860" d="M123 0v1106h614v-123h-368v-369h245v-122h-245v-369h368v-123h-614z" />
<glyph unicode="F" horiz-adv-x="860" d="M123 0v1106h614v-123h-368v-369h245v-122h-245v-492h-246z" />
<glyph unicode="G" d="M123 123v860h123v123h491v-123h123v-123h-123v123h-368v-860h245v369h-122v122h368v-491h-123v-123h-491v123h-123z" />
<glyph unicode="H" d="M123 0v1106h246v-492h245v492h246v-1106h-246v492h-245v-492h-246z" />
<glyph unicode="I" horiz-adv-x="491" d="M123 0v1106h246v-1106h-246z" />
<glyph unicode="J" horiz-adv-x="860" d="M0 123v369h246v-369h246v983h245v-983h-123v-123h-491v123h-123z" />
<glyph unicode="K" horiz-adv-x="1105" d="M123 0v1106h246v-369h123v123h122v123h123v123h246v-123h-123v-123h-123v-123h-123v-123h-122v-122h122v-123h123v-123h123v-123h123v-123h-246v123h-123v123h-122v123h-123v-369h-246z" />
<glyph unicode="L" horiz-adv-x="860" d="M123 0v1106h246v-983h368v-123h-614z" />
<glyph unicode="M" horiz-adv-x="1474" d="M123 0v1106h123v-123h123v-123h123v-123h122v-123h246v123h123v123h123v123h123v123h123v-1106h-246v614h-123v-122h-123v-123h-123v-123h-123v123h-122v123h-123v122h-123v-614h-123z" />
<glyph unicode="N" horiz-adv-x="1105" d="M123 0v1106h123v-123h123v-123h123v-123h122v-123h123v-122h123v614h123v-1106h-123v123h-123v123h-123v123h-122v123h-123v122h-123v-614h-123z" />
<glyph unicode="O" d="M123 123v860h123v123h491v-123h123v-860h-123v-123h-491v123h-123zM369 123h245v860h-245v-860z" />
<glyph unicode="P" d="M123 0v1106h614v-123h123v-369h-123v-122h-368v-492h-246zM369 614h245v369h-245v-369z" />
<glyph unicode="Q" d="M123 123v860h123v123h491v-123h123v-860h-123v-123h123v-123h-246v123h-368v123h-123zM369 123h245v860h-245v-860z" />
<glyph unicode="R" d="M123 0v1106h614v-123h123v-369h-123v-122h123v-492h-246v492h-245v-492h-246zM369 614h245v369h-245v-369z" />
<glyph unicode="S" horiz-adv-x="860" d="M123 123v123h123v-123h-123zM123 614v369h123v123h368v-123h-245v-246h123v-123h122v-122h123v-369h-123v-123h-368v123h246v246h-123v123h-123v122h-123zM614 860v123h123v-123h-123z" />
<glyph unicode="T" horiz-adv-x="737" d="M0 983v123h737v-123h-245v-983h-246v983h-246z" />
<glyph unicode="U" d="M123 123v983h246v-983h245v983h246v-983h-123v-123h-491v123h-123z" />
<glyph unicode="V" d="M123 0v1106h246v-983h245v983h246v-860h-123v-123h-123v-123h-491z" />
<glyph unicode="W" horiz-adv-x="1474" d="M123 0v1106h246v-983h245v983h246v-983h248v983h244v-860h-125v-123h-119v-123h-985z" />
<glyph unicode="X" d="M123 0v492h123v122h-123v492h246v-492h245v492h246v-492h-123v-122h123v-492h-246v492h-245v-492h-246z" />
<glyph unicode="Y" d="M123 614v492h246v-492h245v492h246v-492h-123v-122h-123v-492h-245v492h-123v122h-123z" />
<glyph unicode="Z" d="M123 0v369h123v123h123v122h123v123h122v246h-491v123h737v-369h-123v-123h-123v-122h-122v-123h-123v-246h491v-123h-737z" />
<glyph unicode="[" horiz-adv-x="614" d="M123 -123v1352h369v-123h-123v-1106h123v-123h-369z" />
<glyph unicode="\" d="M123 1229v246h123v-246h-123zM246 983v246h123v-246h-123zM369 737v246h123v-246h-123zM492 492v245h122v-245h-122zM614 246v246h123v-246h-123zM737 0v246h123v-246h-123z" />
<glyph unicode="]" horiz-adv-x="614" d="M123 0h123v1106h-123v123h369v-1352h-369v123z" />
<glyph unicode="^" horiz-adv-x="1105" d="M246 737v123h123v-123h-123zM369 860v123h123v-123h-123zM492 983v123h122v-123h-122zM614 860v123h123v-123h-123zM737 737v123h123v-123h-123z" />
<glyph unicode="_" horiz-adv-x="1064" d="M0 -123h1065v-123h-1065v123z" />
<glyph unicode="`" horiz-adv-x="614" d="M123 1106v123h123v-123h123v-123h-123v123h-123z" />
<glyph unicode="a" d="M123 123v369h123v122h368v123h-368v-123h-123v123h123v123h491v-123h123v-737h-614v123h-123zM369 123h245v369h-245v-369z" />
<glyph unicode="b" d="M123 0v1106h246v-246h368v-123h123v-614h-123v-123h-614zM369 123h245v614h-245v-614z" />
<glyph unicode="c" horiz-adv-x="860" d="M123 123v614h123v123h368v-123h-245v-614h245v-123h-368v123h-123zM614 123v123h123v-123h-123zM614 614v121h123v-121h-123z" />
<glyph unicode="d" d="M123 123v614h123v123h368v246h246v-1106h-614v123h-123zM369 123h245v614h-245v-614z" />
<glyph unicode="e" d="M123 123v614h123v123h491v-123h123v-368h-491v-246h368v123h123v-123h-123v-123h-491v123h-123zM369 492h245v245h-245v-245z" />
<glyph unicode="f" horiz-adv-x="614" d="M0 737v123h123v123h123v123h368v-123h-245v-123h123v-123h-123v-737h-246v737h-123z" />
<glyph unicode="g" d="M123 -123h123v-123h368v246h-368v123h-123v614h123v123h614v-1106h-123v-123h-491v123h-123v123zM369 123h245v614h-245v-614z" />
<glyph unicode="h" d="M123 0v1106h246v-246h368v-123h123v-737h-246v737h-245v-737h-246z" />
<glyph unicode="i" horiz-adv-x="491" d="M123 0v860h246v-860h-246zM123 983v123h246v-123h-246z" />
<glyph unicode="j" horiz-adv-x="491" d="M-246 -123h123v-123h246v1106h246v-1106h-123v-123h-369v123h-123v123zM123 983v123h246v-123h-246z" />
<glyph unicode="k" d="M123 0v1106h246v-492h123v123h122v123h246v-123h-123v-123h-123v-122h-122v-123h122v-123h123v-123h123v-123h-246v123h-122v123h-123v-246h-246z" />
<glyph unicode="l" horiz-adv-x="491" d="M123 0v1106h246v-1106h-246z" />
<glyph unicode="m" horiz-adv-x="1474" d="M123 0v860h1106v-123h123v-737h-246v737h-246v-737h-246v737h-245v-737h-246z" />
<glyph unicode="n" d="M123 0v860h614v-123h123v-737h-246v737h-245v-737h-246z" />
<glyph unicode="o" d="M123 123v614h123v123h491v-123h123v-614h-123v-123h-491v123h-123zM369 123h245v614h-245v-614z" />
<glyph unicode="p" d="M123 -246v1106h614v-123h123v-614h-123v-123h-368v-246h-246zM369 123h245v614h-245v-614z" />
<glyph unicode="q" d="M123 123v614h123v123h614v-1106h-246v246h-368v123h-123zM369 123h245v614h-245v-614z" />
<glyph unicode="r" horiz-adv-x="737" d="M123 0v860h246v-123h123v-123h-123v-614h-246zM494 737v123h243v-123h-243z" />
<glyph unicode="s" horiz-adv-x="860" d="M123 123v123h123v-123h-123zM123 492v245h123v123h368v-123h-245v-123h123v-122h122v-123h123v-246h-123v-123h-368v123h246v123h-123v123h-123v123h-123zM614 614v123h123v-123h-123z" />
<glyph unicode="t" horiz-adv-x="737" d="M123 737v123h123v246h246v-246h122v-123h-122v-614h122v-123h-245v123h-123v614h-123z" />
<glyph unicode="u" d="M123 123v737h246v-737h245v737h246v-860h-614v123h-123z" />
<glyph unicode="v" d="M123 0v860h246v-737h245v737h246v-614h-123v-123h-123v-123h-491z" />
<glyph unicode="w" horiz-adv-x="1476" d="M123 0v860h246v-737h245v737h246v-737h246v737h248v-614h-125v-125h-123v-121h-983z" />
<glyph unicode="x" d="M123 0v369h123v123h-123v368h246v-368h245v368h246v-368h-123v-123h123v-369h-246v369h-245v-369h-246z" />
<glyph unicode="y" d="M123 -123h123v-123h368v246h-368v123h-123v737h246v-737h245v737h246v-1106h-123v-123h-491v123h-123v123z" />
<glyph unicode="z" d="M123 0v246h123v123h123v123h123v122h122v123h-491v123h737v-246h-123v-122h-123v-123h-122v-123h-123v-123h491v-123h-737z" />
<glyph unicode="{" horiz-adv-x="614" d="M123 492v122h123v-122h-123zM246 0v492h123v-492h-123zM246 614v492h123v-492h-123zM369 0h123v-123h-123v123zM369 1106v123h123v-123h-123z" />
<glyph unicode="|" horiz-adv-x="614" d="M246 -492v2089h123v-2089h-123z" />
<glyph unicode="}" horiz-adv-x="614" d="M123 0h123v-123h-123v123zM123 1106v123h123v-123h-123zM246 0v492h123v-492h-123zM246 614v492h123v-492h-123zM369 492v122h123v-122h-123z" />
<glyph unicode="~" d="M123 614v123h123v-123h-123zM246 737v123h246v-123h-246zM492 614v123h245v-123h-245zM737 737v123h123v-123h-123z" />
<glyph unicode="&#xa1;" horiz-adv-x="737" d="M246 0v737h246v-737h-246zM246 860v246h246v-246h-246z" />
<glyph unicode="&#xa2;" horiz-adv-x="860" d="M123 492v491h123v-491h123v491h-123v123h123v123h123v-123h122v-123h123v-123h-123v123h-122v-491h122v-123h-122v-123h-123v123h-123v123h-123zM614 492v122h123v-122h-123z" />
<glyph unicode="&#xa3;" d="M123 0v123h123v369h-123v122h123v369h123v123h368v-123h123v-123h-123v123h-245v-369h122v-122h-122v-369h368v123h123v-123h-123v-123h-737z" />
<glyph unicode="&#xa5;" d="M123 369v123h246v122h-246v123h246v123h245v-123h246v-123h-246v-122h246v-123h-246v-369h-245v369h-246zM123 983v123h123v-123h123v-123h-123v123h-123zM614 860v123h123v-123h-123zM737 983v123h123v-123h-123z" />
<glyph unicode="&#xa7;" horiz-adv-x="860" d="M123 0h123v-123h-123v123zM123 369v368h123v-245h123v-123h123v-123h122v-123h123v-246h-123v-123h-368v123h368v123h-122v123h-123v123h-123v123h-123zM123 860v246h123v123h368v-123h-368v-123h123v-123h123v-123h122v-123h123v-368h-123v246h-122v122h-123v123h-123 v123h-123zM614 983v123h123v-123h-123z" />
<glyph unicode="&#xa8;" d="M246 983v123h123v-123h-123zM614 983v123h123v-123h-123z" />
<glyph unicode="&#xa9;" horiz-adv-x="1228" d="M123 246v614h123v123h123v123h491v-123h123v-123h123v-614h-123v-123h-123v-123h-491v123h-123v123h-123zM246 246h123v-123h491v123h123v614h-123v123h-491v-123h-123v-614zM369 369v368h123v-368h-123zM492 246v123h245v-123h-245zM492 737v123h245v-123h-245zM737 369 v123h123v-123h-123zM737 614v123h123v-123h-123z" />
<glyph unicode="&#xaa;" horiz-adv-x="737" d="M123 614v123h123v-123h-123zM246 492v122h246v-122h-246zM246 737v123h246v-123h-246zM246 983v123h246v-123h-246zM492 492v491h122v-491h-122z" />
<glyph unicode="&#xab;" d="M0 369v123h123v-123h-123zM123 246v123h123v-123h-123zM123 492v122h123v-122h-123zM246 123v123h123v-123h-123zM246 614v123h123v-123h-123zM369 0v123h123v-123h-123zM369 369v123h123v-123h-123zM369 737v123h123v-123h-123zM492 246v123h122v-123h-122zM492 492v122 h122v-122h-122zM614 123v123h123v-123h-123zM614 614v123h123v-123h-123zM737 0v123h123v-123h-123zM737 737v123h123v-123h-123z" />
<glyph unicode="&#xad;" horiz-adv-x="860" d="M123 492v122h614v-122h-614z" />
<glyph unicode="&#xae;" horiz-adv-x="1228" d="M123 246v614h123v-614h123v-123h491v-123h-491v123h-123v123h-123zM246 860v123h123v-123h368v-123h123v-123h-123v123h-245v-123h245v-122h123v-246h123v-123h-123v123h-123v246h-245v-246h-123v614h-123zM369 983v123h491v-123h123v-123h123v-614h-123v614h-123v123 h-491z" />
<glyph unicode="&#xb0;" horiz-adv-x="737" d="M123 737v246h123v-246h-123zM246 614v123h246v-123h-246zM246 983v123h246v-123h-246zM492 737v246h122v-246h-122z" />
<glyph unicode="&#xb1;" d="M123 0v123h860v-123h-860zM123 492v122h369v246h122v-246h369v-122h-369v-246h-122v246h-369z" />
<glyph unicode="&#xb4;" horiz-adv-x="614" d="M246 983v123h123v123h123v-123h-123v-123h-123z" />
<glyph unicode="&#xb5;" d="M123 -246v1106h246v-737h245v737h246v-860h-491v-246h-246z" />
<glyph unicode="&#x3bc;" d="M123 -246v1106h246v-737h245v737h246v-860h-491v-246h-246z" />
<glyph unicode="&#xb6;" horiz-adv-x="1105" d="M123 614v369h123v123h737v-1106h-123v983h-123v-983h-123v492h-368v122h-123zM369 614h245v369h-245v-369z" />
<glyph unicode="&#xb8;" d="M369 123h245v-369h-122v-123h-123v123h123v123h-123v246z" />
<glyph unicode="&#xba;" horiz-adv-x="737" d="M123 614v369h123v-369h-123zM246 492v122h246v-122h-246zM246 983v123h246v-123h-246zM492 614v369h122v-369h-122z" />
<glyph unicode="&#xbb;" horiz-adv-x="1198" d="M123 0v123h117v-123h-117zM123 737v123h117v-123h-117zM246 123v123h116v-123h-116zM246 614v123h116v-123h-116zM369 246v123h116v-123h-116zM369 492v122h116v-122h-116zM492 0v123h118v-123h-118zM492 369v123h118v-123h-118zM492 737v123h118v-123h-118zM614 123v123 h119v-123h-119zM614 614v123h119v-123h-119zM737 246v123h119v-123h-119zM737 492v122h119v-122h-119zM860 369v123h119v-123h-119z" />
<glyph unicode="&#xbf;" d="M123 123v246h123v123h123v245h245v-245h-122v-123h-123v-246h368v-123h-491v123h-123zM369 860v246h245v-246h-245zM737 123v123h123v-123h-123z" />
<glyph unicode="&#xc0;" d="M123 0v983h123v123h491v-123h123v-983h-246v492h-245v-492h-246zM369 614h245v369h-245v-369zM369 1352v123h123v-123h122v-123h-122v123h-123z" />
<glyph unicode="&#xc1;" d="M123 0v983h123v123h491v-123h123v-983h-246v492h-245v-492h-246zM369 614h245v369h-245v-369zM369 1229v123h123v123h122v-123h-122v-123h-123z" />
<glyph unicode="&#xc2;" d="M123 0v983h123v123h491v-123h123v-983h-246v492h-245v-492h-246zM246 1229v123h123v123h245v-123h123v-123h-123v123h-245v-123h-123zM369 614h245v369h-245v-369z" />
<glyph unicode="&#xc3;" d="M123 0v983h123v123h491v-123h123v-983h-246v492h-245v-492h-246zM123 1229v123h123v-123h-123zM246 1352v123h246v-123h-246zM369 614h245v369h-245v-369zM492 1229v123h245v-123h-245zM737 1352v123h123v-123h-123z" />
<glyph unicode="&#xc4;" d="M123 0v983h123v123h491v-123h123v-983h-246v492h-245v-492h-246zM246 1229v123h123v-123h-123zM369 614h245v369h-245v-369zM614 1229v123h123v-123h-123z" />
<glyph unicode="&#xc5;" d="M123 0v983h123v369h123v-246h245v246h123v-369h123v-983h-246v492h-245v-492h-246zM369 614h245v369h-245v-369zM369 1352v123h245v-123h-245z" />
<glyph unicode="&#xc6;" horiz-adv-x="1351" d="M123 0v983h123v123h983v-123h-369v-369h246v-122h-246v-369h369v-123h-615v492h-245v-492h-246zM369 614h245v369h-245v-369z" />
<glyph unicode="&#xc7;" d="M123 123v860h123v123h491v-123h123v-123h-123v123h-368v-860h368v-123h-123v-246h-122v123h-123v123h-123v123h-123zM369 -246h123v-123h-123v123zM737 123v123h123v-123h-123z" />
<glyph unicode="&#xc8;" horiz-adv-x="860" d="M123 0v1106h614v-123h-368v-369h245v-122h-245v-369h368v-123h-614zM369 1352v123h123v-123h122v-123h-122v123h-123z" />
<glyph unicode="&#xc9;" horiz-adv-x="860" d="M123 0v1106h614v-123h-368v-369h245v-122h-245v-369h368v-123h-614zM369 1229v123h123v-123h-123zM492 1352v123h122v-123h-122z" />
<glyph unicode="&#xca;" horiz-adv-x="860" d="M123 0v1106h614v-123h-368v-369h245v-122h-245v-369h368v-123h-614zM123 1229v123h123v123h246v-123h122v-123h-122v123h-246v-123h-123z" />
<glyph unicode="&#xcb;" horiz-adv-x="860" d="M123 0v1106h614v-123h-368v-369h245v-122h-245v-369h368v-123h-614zM246 1229v123h123v123h123v-123h-123v-123h-123z" />
<glyph unicode="&#xcc;" horiz-adv-x="491" d="M123 0v1106h246v-1106h-246zM123 1352v123h123v-123h123v-123h-123v123h-123z" />
<glyph unicode="&#xcd;" horiz-adv-x="491" d="M123 0v1106h246v-1106h-246zM123 1229v123h123v123h123v-123h-123v-123h-123z" />
<glyph unicode="&#xce;" horiz-adv-x="491" d="M0 1229v123h123v123h246v-123h123v-123h-123v123h-246v-123h-123zM123 0v1106h246v-1106h-246z" />
<glyph unicode="&#xcf;" horiz-adv-x="491" d="M0 1229v123h123v-123h-123zM123 0v1106h246v-1106h-246zM369 1229v123h123v-123h-123z" />
<glyph unicode="&#xd0;" d="M0 492v122h123v492h614v-123h123v-860h-123v-123h-614v492h-123zM369 123h245v860h-245v-369h123v-122h-123v-369z" />
<glyph unicode="&#xd1;" horiz-adv-x="1105" d="M123 0v1106h123v-123h123v-123h123v-123h122v-123h123v-122h123v614h123v-1106h-123v123h-123v123h-123v123h-122v123h-123v122h-123v-614h-123zM123 1229v123h123v-123h-123zM246 1352v123h246v-123h-246zM492 1229v123h245v-123h-245zM737 1352v123h123v-123h-123z" />
<glyph unicode="&#xd2;" d="M123 123v860h123v123h491v-123h123v-860h-123v-123h-491v123h-123zM369 123h245v860h-245v-860zM369 1352v123h123v-123h122v-123h-122v123h-123z" />
<glyph unicode="&#xd3;" d="M123 123v860h123v123h491v-123h123v-860h-123v-123h-491v123h-123zM369 123h245v860h-245v-860zM369 1229v123h123v123h122v-123h-122v-123h-123z" />
<glyph unicode="&#xd4;" d="M123 123v860h123v123h491v-123h123v-860h-123v-123h-491v123h-123zM246 1229v123h123v123h245v-123h123v-123h-123v123h-245v-123h-123zM369 123h245v860h-245v-860z" />
<glyph unicode="&#xd5;" d="M123 123v860h123v123h491v-123h123v-860h-123v-123h-491v123h-123zM123 1229v123h123v-123h-123zM246 1352v123h246v-123h-246zM369 123h245v860h-245v-860zM492 1229v123h245v-123h-245zM737 1352v123h123v-123h-123z" />
<glyph unicode="&#xd6;" d="M123 123v860h123v123h491v-123h123v-860h-123v-123h-491v123h-123zM246 1229v123h123v-123h-123zM369 123h245v860h-245v-860zM614 1229v123h123v-123h-123z" />
<glyph unicode="&#xd7;" d="M123 123v123h123v-123h-123zM123 860v123h123v-123h123v-123h123v-123h-123v123h-123v123h-123zM246 246v123h123v-123h-123zM369 369v123h123v-123h-123zM492 492v122h122v-122h-122zM614 369v123h123v-123h-123zM614 614v123h123v-123h-123zM737 246v123h123v-123h-123 zM737 737v123h123v-123h-123zM860 123v123h123v-123h-123zM860 860v123h123v-123h-123z" />
<glyph unicode="&#xd8;" d="M-123 0v123h123v123h123v737h123v123h491v-123h123v-860h-123v-123h-491v123h-246v-123h-123zM369 123h245v491h-122v123h122v246h-245v-369h123v-122h-123v-369zM860 983v123h123v-123h-123z" />
<glyph unicode="&#xd9;" d="M123 123v983h246v-983h245v983h246v-983h-123v-123h-491v123h-123zM369 1352v123h123v-123h122v-123h-122v123h-123z" />
<glyph unicode="&#xda;" d="M123 123v983h246v-983h245v983h246v-983h-123v-123h-491v123h-123zM369 1229v123h123v123h122v-123h-122v-123h-123z" />
<glyph unicode="&#xdb;" d="M123 123v983h246v-983h245v983h246v-983h-123v-123h-491v123h-123zM246 1229v123h123v123h245v-123h123v-123h-123v123h-245v-123h-123z" />
<glyph unicode="&#xdc;" d="M123 123v983h246v-983h245v983h246v-983h-123v-123h-491v123h-123zM246 1229v123h123v-123h-123zM614 1229v123h123v-123h-123z" />
<glyph unicode="&#xdd;" horiz-adv-x="1071" d="M123 614v492h246v-492h245v492h246v-492h-123v-122h-123v-492h-245v492h-123v122h-123zM369 1229v123h123v123h122v-123h-122v-123h-123z" />
<glyph unicode="&#xde;" d="M123 0v1475h246v-369h368v-123h123v-369h-123v-122h-368v-492h-246zM369 614h245v369h-245v-369z" />
<glyph unicode="&#xdf;" d="M0 0v123h123v860h123v123h491v-123h123v-246h-123v-123h123v-491h-123v-123h-245v123h122v491h-122v123h122v246h-245v-983h-369z" />
<glyph unicode="&#xe0;" d="M123 123v369h123v122h368v123h-368v-123h-123v123h123v123h491v-123h123v-737h-614v123h-123zM369 123h245v369h-245v-369zM369 1106v123h123v-123h-123zM492 983v123h122v-123h-122z" />
<glyph unicode="&#xe1;" d="M123 123v369h123v122h368v123h-368v-123h-123v123h123v123h491v-123h123v-737h-614v123h-123zM369 123h245v369h-245v-369zM369 983v123h123v-123h-123zM492 1106v123h122v-123h-122z" />
<glyph unicode="&#xe2;" d="M123 123v369h123v122h368v123h-368v-123h-123v123h123v123h491v-123h123v-737h-614v123h-123zM246 983v123h123v123h245v-123h123v-123h-123v123h-245v-123h-123zM369 123h245v369h-245v-369z" />
<glyph unicode="&#xe3;" d="M123 123v369h123v122h368v123h-368v-123h-123v123h123v123h491v-123h123v-737h-614v123h-123zM123 983v123h123v-123h-123zM246 1106v123h246v-123h-246zM369 123h245v369h-245v-369zM492 983v123h245v-123h-245zM737 1106v123h123v-123h-123z" />
<glyph unicode="&#xe4;" d="M123 123v369h123v122h368v123h-368v-123h-123v123h123v123h491v-123h123v-737h-614v123h-123zM246 983v123h123v-123h-123zM369 123h245v369h-245v-369zM614 983v123h123v-123h-123z" />
<glyph unicode="&#xe5;" d="M123 123v369h123v122h368v123h-368v-123h-123v123h123v123h491v-123h123v-737h-614v123h-123zM246 1106v246h123v-246h-123zM369 123h245v369h-245v-369zM369 983v123h245v-123h-245zM369 1352v123h245v-123h-245zM614 1106v246h123v-246h-123z" />
<glyph unicode="&#xe6;" d="M123 123v369h123v122h368v123h-368v-123h-123v123h123v123h491v-123h123v-737h-614v123h-123zM369 123h245v369h-245v-369zM614 123v614h123v123h492v-123h123v-368h-492v-246h369v123h123v-123h-123v-123h-492v123h-123zM860 492h246v245h-246v-245z" />
<glyph unicode="&#xe7;" d="M123 123v614h123v123h491v-123h-368v-614h368v-123h-123v-246h-122v-123h-123v123h123v123h-123v123h-123v123h-123zM737 123v123h123v-123h-123zM737 614v123h123v-123h-123z" />
<glyph unicode="&#xe8;" d="M123 123v614h123v123h491v-123h123v-368h-491v-246h368v123h123v-123h-123v-123h-491v123h-123zM369 492h245v245h-245v-245zM369 1106v123h123v-123h-123zM492 983v123h122v-123h-122z" />
<glyph unicode="&#xe9;" d="M123 123v614h123v123h491v-123h123v-368h-491v-246h368v123h123v-123h-123v-123h-491v123h-123zM369 492h245v245h-245v-245zM369 983v123h123v-123h-123zM492 1106v123h122v-123h-122z" />
<glyph unicode="&#xea;" d="M123 123v614h123v123h491v-123h123v-368h-491v-246h368v123h123v-123h-123v-123h-491v123h-123zM246 983v123h123v123h245v-123h123v-123h-123v123h-245v-123h-123zM369 492h245v245h-245v-245z" />
<glyph unicode="&#xeb;" d="M123 123v614h123v123h491v-123h123v-368h-491v-246h368v123h123v-123h-123v-123h-491v123h-123zM246 983v123h123v-123h-123zM369 492h245v245h-245v-245zM614 983v123h123v-123h-123z" />
<glyph unicode="&#xec;" horiz-adv-x="491" d="M123 0v860h246v-860h-246zM123 1106v123h123v-123h-123zM246 983v123h123v-123h-123z" />
<glyph unicode="&#xed;" horiz-adv-x="491" d="M123 0v860h246v-860h-246zM123 983v123h123v-123h-123zM246 1106v123h123v-123h-123z" />
<glyph unicode="&#xee;" horiz-adv-x="491" d="M0 983v123h123v123h246v-123h123v-123h-123v123h-246v-123h-123zM123 0v860h246v-860h-246z" />
<glyph unicode="&#xef;" horiz-adv-x="491" d="M0 983v123h123v-123h-123zM123 0v860h246v-860h-246zM369 983v123h123v-123h-123z" />
<glyph unicode="&#xf0;" d="M123 123v614h123v123h368v246h-245v248h245v-248h246v-983h-123v-123h-491v123h-123zM369 123h245v614h-245v-614z" />
<glyph unicode="&#xf1;" d="M123 0v860h614v-123h123v-737h-246v737h-245v-737h-246zM123 983v123h123v-123h-123zM246 1106v123h246v-123h-246zM492 983v123h245v-123h-245zM737 1106v123h123v-123h-123z" />
<glyph unicode="&#xf2;" d="M123 123v614h123v123h491v-123h123v-614h-123v-123h-491v123h-123zM369 123h245v614h-245v-614zM369 1106v123h123v-123h-123zM492 983v123h122v-123h-122z" />
<glyph unicode="&#xf3;" d="M123 123v614h123v123h491v-123h123v-614h-123v-123h-491v123h-123zM369 123h245v614h-245v-614zM369 983v123h123v-123h-123zM492 1106v123h122v-123h-122z" />
<glyph unicode="&#xf4;" d="M123 123v614h123v123h491v-123h123v-614h-123v-123h-491v123h-123zM246 983v123h123v123h245v-123h123v-123h-123v123h-245v-123h-123zM369 123h245v614h-245v-614z" />
<glyph unicode="&#xf5;" d="M123 123v614h123v123h491v-123h123v-614h-123v-123h-491v123h-123zM123 983v123h123v-123h-123zM246 1106v123h246v-123h-246zM369 123h245v614h-245v-614zM492 983v123h245v-123h-245zM737 1106v123h123v-123h-123z" />
<glyph unicode="&#xf6;" d="M123 123v614h123v123h491v-123h123v-614h-123v-123h-491v123h-123zM246 983v123h123v-123h-123zM369 123h245v614h-245v-614zM614 983v123h123v-123h-123z" />
<glyph unicode="&#xf7;" d="M0 492v122h983v-122h-983zM369 123v246h245v-246h-245zM369 737v246h245v-246h-245z" />
<glyph unicode="&#xf8;" d="M123 0h123v-246h-123v246zM123 123v614h123v123h491v-123h123v-614h-123v-123h-491v123h-123zM246 0v246h123v-246h-123zM369 123h245v614h-245v-614zM369 246v246h123v-246h-123zM492 492v245h122v-245h-122zM614 737v123h123v-123h-123zM737 860v246h123v-246h-123z " />
<glyph unicode="&#xf9;" d="M123 123v737h246v-737h245v737h246v-860h-614v123h-123zM369 1106v123h123v-123h-123zM492 983v123h122v-123h-122z" />
<glyph unicode="&#xfa;" d="M123 123v737h246v-737h245v737h246v-860h-614v123h-123zM369 983v123h123v-123h-123zM492 1106v123h122v-123h-122z" />
<glyph unicode="&#xfb;" d="M123 123v737h246v-737h245v737h246v-860h-614v123h-123zM246 983v123h123v123h245v-123h123v-123h-121v121h-247v-121h-123z" />
<glyph unicode="&#xfc;" d="M123 123v737h246v-737h245v737h246v-860h-614v123h-123zM246 983v123h123v-123h-123zM614 983v123h123v-123h-123z" />
<glyph unicode="&#xfd;" d="M123 -123h123v-123h368v246h-368v123h-123v737h246v-737h245v737h246v-1106h-123v-123h-491v123h-123v123zM369 983v123h123v123h122v-123h-122v-123h-123z" />
<glyph unicode="&#xfe;" d="M123 -246v1352h246v-246h368v-123h123v-614h-123v-123h-368v-246h-246zM369 123h245v614h-245v-614z" />
<glyph unicode="&#xff;" d="M123 -123h123v-123h368v246h-368v123h-123v737h246v-737h245v737h246v-1106h-123v-123h-491v123h-123v123zM246 983v123h123v-123h-123zM614 983v123h123v-123h-123z" />
<glyph unicode="&#x131;" horiz-adv-x="491" d="M123 0v860h246v-860h-246z" />
<glyph unicode="&#x141;" horiz-adv-x="860" d="M0 492v122h123v492h246v-492h123v-122h-123v-369h368v-123h-614v492h-123z" />
<glyph unicode="&#x142;" horiz-adv-x="491" d="M0 492v122h123v492h246v-369h123v-123h-123v-614h-246v492h-123z" />
<glyph unicode="&#x152;" horiz-adv-x="1351" d="M123 123v860h123v123h983v-123h-369v-369h246v-122h-246v-369h369v-123h-983v123h-123zM369 123h245v860h-245v-860z" />
<glyph unicode="&#x153;" horiz-adv-x="1474" d="M123 123v614h123v123h983v-123h123v-368h-492v-246h369v123h123v-123h-123v-123h-983v123h-123zM369 123h245v614h-245v-614zM860 492h246v245h-246v-245z" />
<glyph unicode="&#x160;" horiz-adv-x="860" d="M123 123v123h123v-123h-123zM123 614v369h123v123h368v-123h-245v-246h123v-123h122v-122h123v-369h-123v-123h-368v123h246v246h-123v123h-123v122h-123zM246 1352v123h123v-123h-123zM369 1229v123h123v-123h-123zM492 1352v123h122v-123h-122zM614 860v123h123v-123 h-123z" />
<glyph unicode="&#x161;" horiz-adv-x="860" d="M123 123v123h123v-123h-123zM123 492v245h123v123h368v-123h-245v-123h123v-122h122v-123h123v-246h-123v-123h-368v123h246v123h-123v123h-123v123h-123zM246 1106v123h123v-123h-123zM369 983v123h123v-123h-123zM492 1106v123h122v-123h-122zM614 614v123h123v-123 h-123z" />
<glyph unicode="&#x178;" d="M123 614v492h246v-492h245v492h246v-492h-123v-122h-123v-492h-245v492h-123v122h-123zM246 1229v123h123v-123h-123zM614 1229v123h123v-123h-123z" />
<glyph unicode="&#x17d;" horiz-adv-x="1024" d="M123 0v369h123v123h123v122h123v123h122v246h-491v123h737v-369h-123v-123h-123v-122h-122v-123h-123v-246h491v-123h-737zM369 1352v123h123v-123h-123zM492 1229v123h122v-123h-122zM614 1352v123h123v-123h-123z" />
<glyph unicode="&#x17e;" d="M123 0v246h123v123h123v123h123v122h122v123h-491v123h737v-246h-123v-122h-123v-123h-122v-123h-123v-123h491v-123h-737zM369 1106v123h123v-123h-123zM492 983v123h122v-123h-122zM614 1106v123h123v-123h-123z" />
<glyph unicode="&#x192;" horiz-adv-x="737" d="M0 -123h123v-123h123v983h-123v123h123v123h123v123h368v-123h-245v-123h122v-123h-122v-983h-123v-123h-246v123h-123v123z" />
<glyph unicode="&#x2c6;" d="M246 983v123h123v123h245v-123h123v-123h-123v123h-245v-123h-123z" />
<glyph unicode="&#x2c7;" d="M246 1106v123h123v-123h-123zM369 983v123h123v-123h-123zM492 1106v123h122v-123h-122z" />
<glyph unicode="&#x2d8;" d="M246 1106v123h123v-123h-123zM369 983v123h245v-123h-245zM614 1106v123h123v-123h-123z" />
<glyph unicode="&#x2d9;" horiz-adv-x="1705" />
<glyph unicode="&#x2da;" d="M246 1106v246h123v-246h-123zM369 983v123h245v-123h-245zM369 1352v123h245v-123h-245zM614 1106v246h123v-246h-123z" />
<glyph unicode="&#x2dc;" d="M123 983v123h123v-123h-123zM246 1106v123h246v-123h-246zM492 983v123h245v-123h-245zM737 1106v123h123v-123h-123z" />
<glyph unicode="&#x394;" horiz-adv-x="1105" d="M0 0v246h123v-123h860v123h123v-246h-1106zM123 246v246h123v-246h-123zM246 492v245h123v-245h-123zM369 737v246h123v-246h-123zM492 983v246h122v-246h-122zM614 737h123v-245h123v245h-123v246h-123v-246zM860 246h123v246h-123v-246z" />
<glyph unicode="&#x2206;" horiz-adv-x="1105" d="M0 0v246h123v-123h860v123h123v-246h-1106zM123 246v246h123v-246h-123zM246 492v245h123v-245h-123zM369 737v246h123v-246h-123zM492 983v246h122v-246h-122zM614 737h123v-245h123v245h-123v246h-123v-246zM860 246h123v246h-123v-246z" />
<glyph unicode="&#x3a9;" d="M123 0v123h123v123h-123v737h123v123h491v-123h123v-737h-123v-123h123v-123h-246v983h-245v-983h-246z" />
<glyph unicode="&#x2126;" d="M123 0v123h123v123h-123v737h123v123h491v-123h123v-737h-123v-123h123v-123h-246v983h-245v-983h-246z" />
<glyph unicode="&#x3c0;" d="M123 737v123h737v-123h-123v-737h-123v737h-245v-737h-123v737h-123z" />
<glyph unicode="&#x2000;" horiz-adv-x="798" />
<glyph unicode="&#x2001;" horiz-adv-x="1597" />
<glyph unicode="&#x2002;" horiz-adv-x="798" />
<glyph unicode="&#x2003;" horiz-adv-x="1597" />
<glyph unicode="&#x2004;" horiz-adv-x="532" />
<glyph unicode="&#x2005;" horiz-adv-x="399" />
<glyph unicode="&#x2006;" horiz-adv-x="266" />
<glyph unicode="&#x2007;" horiz-adv-x="266" />
<glyph unicode="&#x2008;" horiz-adv-x="198" />
<glyph unicode="&#x2009;" horiz-adv-x="319" />
<glyph unicode="&#x200a;" horiz-adv-x="88" />
<glyph unicode="&#x2010;" horiz-adv-x="860" d="M123 492v122h614v-122h-614z" />
<glyph unicode="&#x2011;" horiz-adv-x="860" d="M123 492v122h614v-122h-614z" />
<glyph unicode="&#x2012;" horiz-adv-x="860" d="M123 492v122h614v-122h-614z" />
<glyph unicode="&#x2013;" d="M123 492v122h737v-122h-737z" />
<glyph unicode="&#x2014;" horiz-adv-x="1474" d="M123 492v122h1229v-122h-1229z" />
<glyph unicode="&#x2018;" horiz-adv-x="491" d="M123 614v369h123v-123h123v-246h-246zM246 983v123h123v-123h-123z" />
<glyph unicode="&#x2019;" horiz-adv-x="491" d="M123 614v123h123v-123h-123zM123 860v246h246v-369h-123v123h-123z" />
<glyph unicode="&#x201a;" horiz-adv-x="491" d="M123 0v123h123v-123h-123zM123 246v246h246v-369h-123v123h-123z" />
<glyph unicode="&#x201c;" horiz-adv-x="860" d="M123 614v369h123v-123h123v-246h-246zM246 983v123h123v-123h-123zM492 614v369h122v-123h123v-246h-245zM614 983v123h123v-123h-123z" />
<glyph unicode="&#x201d;" horiz-adv-x="860" d="M123 614v123h123v-123h-123zM123 860v246h246v-369h-123v123h-123zM492 614v123h122v-123h-122zM492 860v246h245v-369h-123v123h-122z" />
<glyph unicode="&#x201e;" horiz-adv-x="860" d="M123 0v123h123v-123h-123zM123 246v246h246v-369h-123v123h-123zM492 0v123h122v-123h-122zM492 246v246h245v-369h-123v123h-122z" />
<glyph unicode="&#x2020;" horiz-adv-x="614" d="M123 860v123h123v123h123v-123h123v-123h-123v-368h-123v368h-123z" />
<glyph unicode="&#x2021;" horiz-adv-x="614" d="M123 492v122h123v246h-123v123h123v123h123v-123h123v-123h-123v-246h123v-122h-123v-123h-123v123h-123z" />
<glyph unicode="&#x2022;" horiz-adv-x="860" d="M123 369v368h123v123h368v-123h123v-368h-123v-123h-368v123h-123z" />
<glyph unicode="&#x2026;" horiz-adv-x="1720" d="M246 0v246h246v-246h-246zM737 0v246h246v-246h-246zM1229 0v246h246v-246h-246z" />
<glyph unicode="&#x202f;" horiz-adv-x="319" />
<glyph unicode="&#x2030;" horiz-adv-x="1966" d="M123 860v246h123v-246h-123zM246 737v123h246v-123h-246zM246 1106v123h246v-123h-246zM369 0v246h123v-246h-123zM492 246v246h122v-246h-122zM492 860v246h122v-246h-122zM614 492v245h123v-245h-123zM737 123v246h123v-246h-123zM737 737v246h123v-246h-123zM860 0 v123h246v-123h-246zM860 369v123h246v-123h-246zM860 983v246h123v-246h-123zM1106 123v246h123v-246h-123zM1352 123v246h123v-246h-123zM1475 0v123h245v-123h-245zM1475 369v123h245v-123h-245zM1720 123v246h123v-246h-123z" />
<glyph unicode="&#x2039;" horiz-adv-x="614" d="M0 369v123h123v-123h-123zM123 246v123h123v-123h-123zM123 492v122h123v-122h-123zM246 123v123h123v-123h-123zM246 614v123h123v-123h-123zM369 0v123h123v-123h-123zM369 737v123h123v-123h-123z" />
<glyph unicode="&#x203a;" horiz-adv-x="614" d="M123 0v123h123v-123h-123zM123 737v123h123v-123h-123zM246 123v123h123v-123h-123zM246 614v123h123v-123h-123zM369 246v123h123v-123h-123zM369 492v122h123v-122h-123zM492 369v123h122v-123h-122z" />
<glyph unicode="&#x2044;" horiz-adv-x="860" d="M123 0v246h123v-246h-123zM246 246v246h123v-246h-123zM369 492v245h123v-245h-123zM492 737v246h122v-246h-122zM614 983v246h123v-246h-123z" />
<glyph unicode="&#x205f;" horiz-adv-x="399" />
<glyph unicode="&#x20ac;" d="M0 369v123h737v-123h-737zM0 614v123h737v-123h-737zM123 123v860h123v123h491v-123h123v-123h-123v123h-368v-860h368v-123h-491v123h-123zM737 123v123h123v-123h-123z" />
<glyph unicode="&#x2122;" horiz-adv-x="2621" d="M123 614v369h123v-369h123v246h123v-368h-246v122h-123zM246 983v123h246v-123h-246zM614 492v614h123v-123h123v-123h123v-123h-123v123h-123v-368h-123zM983 860v123h125v123h121v-614h-123v368h-123zM1352 983v123h368v-123h-123v-491h-122v491h-123zM1720 737v123 h123v123h123v-123h123v-123h-123v-123h-123v123h-123zM2130 492v245h123v-123h246v-122h-369zM2130 983v123h246v-123h123v-123h-123v123h-246zM2253 737v123h123v-123h-123z" />
<glyph unicode="&#x2192;" horiz-adv-x="1966" d="M246 492v245h860v492h246v-246h245v-246h246v-245h-246v-246h-245v-246h-246v492h-860z" />
<glyph unicode="&#x2212;" d="M123 492v122h860v-122h-860z" />
<glyph unicode="&#x221e;" horiz-adv-x="1515" d="M123 369v368h123v-368h246v123h122v122h-122v123h-246v123h246v-123h122v-123h123v123h123v123h410v-123h123v-368h-123v368h-287v-123h-123v-122h123v-123h287v-123h-287v123h-123v123h-123v-123h-123v-123h-368v123h-123z" />
<glyph unicode="&#x2248;" d="M123 123v123h123v-123h-123zM123 614v123h123v-123h-123zM246 246v123h614v-123h-614zM246 737v123h614v-123h-614zM860 369v123h123v-123h-123zM860 860v123h123v-123h-123z" />
<glyph unicode="&#x2260;" d="M123 369v123h369v122h-369v123h491v123h123v-123h246v-123h-369v-122h369v-123h-491v-123h-123v123h-246z" />
<glyph unicode="&#x2264;" d="M0 0h860v123h-860v-123zM0 492h246v122h-246v-122zM246 369h246v123h-246v-123zM246 614v123h246v-123h-246zM492 246h245v123h-245v-123zM492 737v123h245v-123h-245z" />
<glyph unicode="&#x2265;" d="M123 0v123h860v-123h-860zM246 246v123h246v-123h-246zM246 737v123h246v-123h-246zM492 369v123h245v-123h-245zM492 614v123h245v-123h-245zM737 492v122h246v-122h-246z" />
<glyph unicode="&#x2308;" horiz-adv-x="1843" d="M860 -492v1106h1106v-122h-983v-984h-123z" />
<glyph unicode="&#x2309;" horiz-adv-x="1843" d="M-123 492v122h1106v-1106h-123v984h-983z" />
<glyph unicode="&#x230a;" horiz-adv-x="1843" d="M860 492v1105h123v-983h983v-122h-1106z" />
<glyph unicode="&#x230b;" horiz-adv-x="1843" d="M-123 492v122h983v983h123v-1105h-1106z" />
<glyph unicode="&#x23af;" horiz-adv-x="1843" d="M-123 492v122h2089v-122h-2089z" />
<glyph unicode="&#x23d0;" horiz-adv-x="1843" d="M860 -492v2089h123v-2089h-123z" />
<glyph unicode="&#xe000;" horiz-adv-x="860" d="M0 860h860v-860h-860v860z" />
<glyph unicode="&#xfb01;" d="M0 737v123h123v123h123v123h614v-123h-491v-123h491v-860h-246v737h-245v-737h-246v737h-123z" />
<glyph unicode="&#xfb02;" d="M0 737v123h123v123h123v123h614v-1106h-246v983h-245v-123h123v-123h-123v-737h-246v737h-123z" />
<glyph horiz-adv-x="0" d="M-246 -246v1598h82v-1598h-82zM-123 -246v1598h82v-1598h-82zM0 -246v1598h82v-1598h-82zM123 -246v1598h82v-1598h-82zM246 -246v1598h82v-1598h-82zM369 -246v1598h82v-1598h-82zM492 -246v1598h81v-1598h-81zM614 -246v1598h82v-1598h-82zM737 -246v1598h82v-1598h-82 zM860 -246v1598h82v-1598h-82zM983 -246v1598h82v-1598h-82zM1106 -246v1598h82v-1598h-82zM1229 -246v1598h82v-1598h-82zM1352 -246v1598h82v-1598h-82zM1475 -246v1598h81v-1598h-81z" />
<glyph horiz-adv-x="1966" d="M246 492v245h860v492h246v-246h245v-246h246v-245h-246v-246h-245v-246h-246v492h-860z" />
</font>
</defs>
</svg>
